999
DXF file: 1135285-izrez-730x430-g_u.dxf
999
Pro/ENGINEER 2017170 by Parametric Technology Corporation
  0
SECTION
  2
HEADER
  9
$ACADVER
  1
AC1018
  9
$DWGCODEPAGE
  3
ANSI_1250
  9
$EXTMAX
 10
1050.0
 20
1485.0
 30
0.0
  9
$EXTMIN
 10
0.0
 20
0.0
 30
0.0
  9
$LIMMIN
 10
0.0
 20
0.0
  9
$LIMMAX
 10
1050.0
 20
1485.0
  9
$VIEWCTR
 10
525.0
 20
742.5
  9
$VIEWSIZE
 40
1485.0
  9
$CLAYER
  8
0
  9
$LTSCALE
 40
96.8
  9
$CELTYPE
  6
BYLAYER
  9
$DIMSCALE
 40
1.0
  9
$DIMASZ
 40
17.5
  9
$DIMEXO
 40
0.0
  9
$DIMDLI
 40
66.88
  9
$DIMEXE
 40
1.0
  9
$DIMCEN
 40
15.84
  9
$DIMLFAC
 40
1.0
  9
$DIMBLK
  1
_FILLED
  9
$DIMALT
 70
0
  9
$DIMALTF
 40
25.4
  9
$DIMTXT
 40
17.5
  9
$DIMTOL
 70
1
  9
$DIMLIM
 70
0
  9
$DIMTFAC
 40
1.0
  9
$DIMTP
 40
0.005
  9
$DIMTM
 40
0.005
  9
$DIMGAP
 40
0.625
  9
$DIMDSEP
 70
46
  9
$AUNITS
 70
0
  9
$PDMODE
 70
3
  9
$PDSIZE
 40
1.0
  9
$HANDSEED
  5
492
  9
$TILEMODE
 70
1
  9
$MEASUREMENT
 70
1
  9
$INSUNITS
 70
4
  0
ENDSEC
  0
SECTION
  2
CLASSES
  0
CLASS
  1
ACDBDICTIONARYWDFLT
  2
AcDbDictionaryWithDefault
  3
AutoCAD 2000
 90
0
 91
1
280
0
281
0
  0
CLASS
  1
ACDBPLACEHOLDER
  2
AcDbPlaceHolder
  3
AutoCAD 2000
 90
0
 91
1
280
0
281
0
  0
CLASS
  1
LAYOUT
  2
AcDbLayout
  3
AutoCAD 2000
 90
0
 91
0
280
0
281
0
  0
ENDSEC
  0
SECTION
  2
TABLES
  0
TABLE
  2
VPORT
  5
8
100
AcDbSymbolTable
 70
2
  0
VPORT
  5
1F4
100
AcDbSymbolTableRecord
100
AcDbViewportTableRecord
  2
*ACTIVE
 70
0
 10
0.0
 20
0.0
 11
1.0
 21
1.0
 12
525.0
 22
742.5
 13
0.0
 23
0.0
 14
1.0
 24
1.0
 15
0.0
 25
0.0
 16
0.0
 26
0.0
 36
1.0
 17
0.0
 27
0.0
 37
0.0
 40
1485.0
 41
0.7070707071
 42
50.0
 43
0.0
 44
0.0
 50
0.0
 51
0.0
 71
0
 72
100
 73
1
 74
1
 75
0
 76
0
 77
0
 78
0
  0
ENDTAB
  0
TABLE
  2
LTYPE
  5
5
100
AcDbSymbolTable
 70
6
  0
LTYPE
  5
14
100
AcDbSymbolTableRecord
100
AcDbLinetypeTableRecord
  2
BYBLOCK
 70
0
  3

 72
65
 73
0
 40
0.0
  0
LTYPE
  5
15
100
AcDbSymbolTableRecord
100
AcDbLinetypeTableRecord
  2
BYLAYER
 70
0
  3

 72
65
 73
0
 40
0.0
  0
LTYPE
  5
16
100
AcDbSymbolTableRecord
100
AcDbLinetypeTableRecord
  2
CONTINUOUS
 70
64
  3
Solid line
 72
65
 73
0
 40
0.0
  0
LTYPE
  5
1F5
100
AcDbSymbolTableRecord
100
AcDbLinetypeTableRecord
  2
CENTER
 70
64
  3
____ _ ____ _ ____ _ ____ _ ____ _ ____ _ ____
 72
65
 73
4
 40
0.6
 49
0.375
 74
0
 49
-0.075
 74
0
 49
0.075
 74
0
 49
-0.075
 74
0
  0
LTYPE
  5
1F6
100
AcDbSymbolTableRecord
100
AcDbLinetypeTableRecord
  2
HIDDEN
 70
64
  3
- - - - - - - - - - - - - - - - - - - -
 72
65
 73
2
 40
0.2
 49
0.1
 74
0
 49
-0.1
 74
0
  0
LTYPE
  5
1F7
100
AcDbSymbolTableRecord
100
AcDbLinetypeTableRecord
  2
PHANTOM
 70
64
  3
_____ _ _ _____ _ _ _____ _ _ _____
 72
65
 73
6
 40
0.8
 49
0.45
 74
0
 49
-0.05
 74
0
 49
0.1
 74
0
 49
-0.05
 74
0
 49
0.1
 74
0
 49
-0.05
 74
0
  0
LTYPE
  5
1F8
100
AcDbSymbolTableRecord
100
AcDbLinetypeTableRecord
  2
DOT
 70
64
  3
. . . . . . . . . . . . . . . . . . . .
 72
65
 73
2
 40
0.2
 49
0.1
 74
0
 49
-0.1
 74
0
  0
LTYPE
  5
1F9
100
AcDbSymbolTableRecord
100
AcDbLinetypeTableRecord
  2
DASHED
 70
64
  3
- - - - - - - - - - - - - - - - - - - -
 72
65
 73
2
 40
0.2
 49
0.1
 74
0
 49
-0.1
 74
0
  0
ENDTAB
  0
TABLE
  2
LAYER
  5
2
100
AcDbSymbolTable
 70
36
  0
LAYER
  5
10
100
AcDbSymbolTableRecord
100
AcDbLayerTableRecord
  2
0
 70
0
 62
7
  6
CONTINUOUS
370
-3
390
F
  0
LAYER
  5
1FA
100
AcDbSymbolTableRecord
100
AcDbLayerTableRecord
  2
DEFAULT_1
 70
0
 62
7
  6
CENTER
370
-3
390
F
  0
LAYER
  5
1FB
100
AcDbSymbolTableRecord
100
AcDbLayerTableRecord
  2
DEFAULT_2
 70
0
 62
8
  6
HIDDEN
370
-3
390
F
  0
LAYER
  5
1FC
100
AcDbSymbolTableRecord
100
AcDbLayerTableRecord
  2
DEFAULT_3
 70
0
 62
7
  6
PHANTOM
370
-3
390
F
  0
LAYER
  5
1FD
100
AcDbSymbolTableRecord
100
AcDbLayerTableRecord
  2
01___PRT_ALL_DTM_PLN
 70
0
 62
7
  6
CONTINUOUS
370
-3
390
F
  0
LAYER
  5
1FE
100
AcDbSymbolTableRecord
100
AcDbLayerTableRecord
  2
01___PRT_DEF_DTM_PLN
 70
0
 62
7
  6
CONTINUOUS
370
-3
390
F
  0
LAYER
  5
1FF
100
AcDbSymbolTableRecord
100
AcDbLayerTableRecord
  2
02___PRT_ALL_AXES
 70
0
 62
7
  6
CONTINUOUS
370
-3
390
F
  0
LAYER
  5
200
100
AcDbSymbolTableRecord
100
AcDbLayerTableRecord
  2
03___PRT_ALL_CURVES
 70
0
 62
7
  6
CONTINUOUS
370
-3
390
F
  0
LAYER
  5
201
100
AcDbSymbolTableRecord
100
AcDbLayerTableRecord
  2
04___PRT_ALL_DTM_PNT
 70
0
 62
7
  6
CONTINUOUS
370
-3
390
F
  0
LAYER
  5
202
100
AcDbSymbolTableRecord
100
AcDbLayerTableRecord
  2
05___PRT_ALL_DTM_CSYS
 70
0
 62
7
  6
CONTINUOUS
370
-3
390
F
  0
LAYER
  5
203
100
AcDbSymbolTableRecord
100
AcDbLayerTableRecord
  2
05___PRT_DEF_DTM_CSYS
 70
0
 62
7
  6
CONTINUOUS
370
-3
390
F
  0
LAYER
  5
204
100
AcDbSymbolTableRecord
100
AcDbLayerTableRecord
  2
06___PRT_ALL_SURFS
 70
0
 62
7
  6
CONTINUOUS
370
-3
390
F
  0
LAYER
  5
205
100
AcDbSymbolTableRecord
100
AcDbLayerTableRecord
  2
ALL_AXIS
 70
0
 62
7
  6
CONTINUOUS
370
-3
390
F
  0
LAYER
  5
206
100
AcDbSymbolTableRecord
100
AcDbLayerTableRecord
  2
ALL_CURVE
 70
0
 62
7
  6
CONTINUOUS
370
-3
390
F
  0
LAYER
  5
207
100
AcDbSymbolTableRecord
100
AcDbLayerTableRecord
  2
ALL_CURVE_ENT
 70
0
 62
7
  6
CONTINUOUS
370
-3
390
F
  0
LAYER
  5
208
100
AcDbSymbolTableRecord
100
AcDbLayerTableRecord
  2
ALL_DETAIL_ITEM
 70
0
 62
7
  6
CONTINUOUS
370
-3
390
F
  0
LAYER
  5
209
100
AcDbSymbolTableRecord
100
AcDbLayerTableRecord
  2
ALL_DIM
 70
0
 62
7
  6
CONTINUOUS
370
-3
390
F
  0
LAYER
  5
20A
100
AcDbSymbolTableRecord
100
AcDbLayerTableRecord
  2
ALL_FEATURE
 70
0
 62
7
  6
CONTINUOUS
370
-3
390
F
  0
LAYER
  5
20B
100
AcDbSymbolTableRecord
100
AcDbLayerTableRecord
  2
ALL_GEOM_FEAT
 70
0
 62
7
  6
CONTINUOUS
370
-3
390
F
  0
LAYER
  5
20C
100
AcDbSymbolTableRecord
100
AcDbLayerTableRecord
  2
ALL_NOGEOM_FEAT
 70
0
 62
7
  6
CONTINUOUS
370
-3
390
F
  0
LAYER
  5
20D
100
AcDbSymbolTableRecord
100
AcDbLayerTableRecord
  2
ALL_NOTE
 70
0
 62
7
  6
CONTINUOUS
370
-3
390
F
  0
LAYER
  5
20E
100
AcDbSymbolTableRecord
100
AcDbLayerTableRecord
  2
ALL_PARAMETER_DIM
 70
0
 62
7
  6
CONTINUOUS
370
-3
390
F
  0
LAYER
  5
20F
100
AcDbSymbolTableRecord
100
AcDbLayerTableRecord
  2
ALL_PROTRUSION_FEAT
 70
0
 62
7
  6
CONTINUOUS
370
-3
390
F
  0
LAYER
  5
210
100
AcDbSymbolTableRecord
100
AcDbLayerTableRecord
  2
ALL_SNAP_LINE
 70
0
 62
7
  6
CONTINUOUS
370
-3
390
F
  0
LAYER
  5
211
100
AcDbSymbolTableRecord
100
AcDbLayerTableRecord
  2
ALL_SYMBOL
 70
0
 62
7
  6
CONTINUOUS
370
-3
390
F
  0
ENDTAB
  0
TABLE
  2
STYLE
  5
3
100
AcDbSymbolTable
 70
1
  0
STYLE
  5
11
100
AcDbSymbolTableRecord
100
AcDbTextStyleTableRecord
  2
STANDARD
 70
0
 40
0.0
 41
0.6
 50
0.0
 71
0
 42
0.2
  3
txt
  4

  0
STYLE
  5
212
100
AcDbSymbolTableRecord
100
AcDbTextStyleTableRecord
  2
TEXTSTYLE_1
 70
0
 40
0.0
 41
0.8
 50
0.0
 71
0
 42
0.2
  3
gdt
  4

  0
STYLE
  5
213
100
AcDbSymbolTableRecord
100
AcDbTextStyleTableRecord
  2
TEXTSTYLE_2
 70
0
 40
0.0
 41
0.761905
 50
0.0
 71
0
 42
0.2
  3
txt
  4

  0
STYLE
  5
214
100
AcDbSymbolTableRecord
100
AcDbTextStyleTableRecord
  2
TEXTSTYLE_3
 70
0
 40
0.0
 41
0.6
 50
0.0
 71
0
 42
0.2
  3
gdt
  4

  0
ENDTAB
  0
TABLE
  2
VIEW
  5
6
100
AcDbSymbolTable
 70
0
  0
ENDTAB
  0
TABLE
  2
UCS
  5
7
100
AcDbSymbolTable
 70
0
  0
ENDTAB
  0
TABLE
  2
APPID
  5
9
100
AcDbSymbolTable
 70
1
  0
APPID
  5
215
100
AcDbSymbolTableRecord
100
AcDbRegAppTableRecord
  2
ACAD
 70
0
  0
ENDTAB
  0
TABLE
  2
BLOCK_RECORD
  5
1
100
AcDbSymbolTable
 70
0
  0
BLOCK_RECORD
  5
216
100
AcDbSymbolTableRecord
100
AcDbBlockTableRecord
  2
*Model_Space
  0
BLOCK_RECORD
  5
217
100
AcDbSymbolTableRecord
100
AcDbBlockTableRecord
  2
*Paper_Space
  0
BLOCK_RECORD
  5
218
100
AcDbSymbolTableRecord
100
AcDbBlockTableRecord
  2
_FILLED
  0
BLOCK_RECORD
  5
219
100
AcDbSymbolTableRecord
100
AcDbBlockTableRecord
  2
_DOTBLANK
  0
BLOCK_RECORD
  5
21A
100
AcDbSymbolTableRecord
100
AcDbBlockTableRecord
  2
*D0
  0
BLOCK_RECORD
  5
21B
100
AcDbSymbolTableRecord
100
AcDbBlockTableRecord
  2
*D1
  0
BLOCK_RECORD
  5
21C
100
AcDbSymbolTableRecord
100
AcDbBlockTableRecord
  2
*D2
  0
BLOCK_RECORD
  5
21D
100
AcDbSymbolTableRecord
100
AcDbBlockTableRecord
  2
POZ_FS_B2B_BL2
  0
BLOCK_RECORD
  5
21E
100
AcDbSymbolTableRecord
100
AcDbBlockTableRecord
  2
U-GRANITAL_INTERMEZZO_B2_BL1
  0
BLOCK_RECORD
  5
21F
100
AcDbSymbolTableRecord
100
AcDbBlockTableRecord
  2
B2B_NASLOV_RISBE_BL0
  0
ENDTAB
  0
TABLE
  2
DIMSTYLE
  5
A
100
AcDbSymbolTable
 70
1
100
AcDbDimStyleTable
 71
0
  0
DIMSTYLE
105
220
100
AcDbSymbolTableRecord
100
AcDbDimStyleTableRecord
  2
STANDARD
 70
0
  3

  4

 40
1.0
 41
17.5
 42
0.0
 43
0.38
 44
1.0
 45
0.0
 46
0.0
 47
0.005
 48
0.005
140
17.5
141
0.09
142
0.0
143
25.4
144
1.0
145
0.0
146
1.0
147
0.625
 71
1.0
 72
0.0
 73
0
 74
0
 75
0
 76
0
 77
1
 78
8
 79
2
170
0
171
2
172
0
173
0
174
0
175
0
176
0
177
0
178
5
270
2
179
3
271
3
272
3
273
2
274
2
275
0
280
0
281
0
282
0
283
1
284
8
285
0
286
0
287
3
288
0
340
11
278
46
341
218
342
218
343
218
344
218
  0
DIMSTYLE
105
221
100
AcDbSymbolTableRecord
100
AcDbDimStyleTableRecord
  2
DIMSTYLE_1
 70
0
  3
<>
  4

 40
1.0
 41
17.5
 42
0.0
 43
0.38
 44
1.0
 45
0.0
 46
0.0
 47
0.2
 48
0.2
140
17.5
141
0.09
142
0.0
143
25.4
144
1.0
145
0.0
146
1.0
147
0.625
 71
0.0
 72
0.0
 73
0
 74
0
 75
0
 76
0
 77
1
 78
8
 79
2
170
0
171
2
172
0
173
0
174
0
175
0
176
0
177
0
178
5
270
2
179
3
271
3
272
3
273
2
274
2
275
0
280
0
281
0
282
0
283
1
284
8
285
0
286
0
287
3
288
0
340
11
278
46
341
218
342
218
343
218
344
218
  0
DIMSTYLE
105
222
100
AcDbSymbolTableRecord
100
AcDbDimStyleTableRecord
  2
DIMSTYLE_2
 70
0
  3

  4

 40
1.0
 41
17.5
 42
0.0
 43
0.38
 44
1.0
 45
0.0
 46
0.0
 47
0.8
 48
0.8
140
17.5
141
0.09
142
0.0
143
25.4
144
1.0
145
0.0
146
1.0
147
0.875
 71
0.0
 72
0.0
 73
0
 74
0
 75
0
 76
0
 77
1
 78
8
 79
2
170
0
171
2
172
0
173
0
174
0
175
0
176
0
177
0
178
5
270
2
179
3
271
3
272
3
273
2
274
2
275
0
280
0
281
0
282
0
283
1
284
8
285
0
286
0
287
3
288
0
340
11
278
46
341
218
342
218
343
218
344
218
  0
ENDTAB
  0
ENDSEC
  0
SECTION
  2
BLOCKS
  0
BLOCK
  5
20
100
AcDbEntity
  8
0
100
AcDbBlockBegin
  2
*Model_Space
 70
0
 10
0.0
 20
0.0
 30
0.0
  3
*Model_Space
  1

  0
ENDBLK
  5
21
100
AcDbEntity
  8
0
100
AcDbBlockEnd
  0
BLOCK
  5
1C
100
AcDbEntity
  8
0
100
AcDbBlockBegin
  2
*Paper_Space
 70
0
 10
0.0
 20
0.0
 30
0.0
  3
*Paper_Space
  1

  0
ENDBLK
  5
1D
100
AcDbEntity
  8
0
100
AcDbBlockEnd
  0
BLOCK
  5
223
100
AcDbEntity
  8
ALL_DETAIL_ITEM
100
AcDbBlockBegin
 62
2
  6
CONTINUOUS
  2
POZ_FS_B2B_BL2
 70
64
 10
942.5113436719
 20
1136.9515723758
  3
POZ_FS_B2B_BL2
  1

  0
TEXT
  5
224
100
AcDbEntity
  8
ALL_DETAIL_ITEM
100
AcDbText
 62
5
  6
CONTINUOUS
 10
933.9494846241
 20
1124.8544203758
  7
TEXTSTYLE_2
 40
25.0
  1
1
 41
0.7619047619
 72
0
100
AcDbText
  0
CIRCLE
  5
225
100
AcDbEntity
  8
ALL_DETAIL_ITEM
100
AcDbCircle
 62
2
  6
CONTINUOUS
 10
942.5113436719
 20
1136.9515723758
 40
23.2719072507
  0
ENDBLK
  5
226
100
AcDbEntity
  8
0
  6
BYBLOCK
 62
0
100
AcDbBlockEnd
  0
BLOCK
  5
227
100
AcDbEntity
  8
ALL_DETAIL_ITEM
100
AcDbBlockBegin
 62
2
  6
CONTINUOUS
  2
U-GRANITAL_INTERMEZZO_B2_BL1
 70
64
 10
297.2803125
 20
473.74125
  3
U-GRANITAL_INTERMEZZO_B2_BL1
  1

  0
TEXT
  5
228
100
AcDbEntity
  8
ALL_DETAIL_ITEM
100
AcDbText
 62
5
  6
CONTINUOUS
 10
179.9403179693
 20
633.2486953323
  7
TEXTSTYLE_2
 40
25.0
  1
1
 41
0.7619047619
 72
0
100
AcDbText
  0
TEXT
  5
229
100
AcDbEntity
  8
ALL_DETAIL_ITEM
100
AcDbText
 62
5
  6
CONTINUOUS
 10
415.5803552332
 20
569.3774954415
  7
STANDARD
 40
17.5
  1
14
 50
90.0
 41
0.6785714286
 72
0
100
AcDbText
  0
TEXT
  5
22A
100
AcDbEntity
  8
ALL_DETAIL_ITEM
100
AcDbText
 62
5
  6
CONTINUOUS
 10
405.0803552332
 20
593.1274954415
  7
STANDARD
 40
10.5
  1
+1
 50
90.0
 41
0.6428571429
 72
0
100
AcDbText
  0
TEXT
  5
22B
100
AcDbEntity
  8
ALL_DETAIL_ITEM
100
AcDbText
 62
5
  6
CONTINUOUS
 10
243.0657477514
 20
624.8543469225
  7
TEXTSTYLE_3
 40
17.5
  1
n
 41
1.0
 72
0
100
AcDbText
  0
TEXT
  5
22C
100
AcDbEntity
  8
ALL_DETAIL_ITEM
100
AcDbText
 62
5
  6
CONTINUOUS
 10
266.3990810847
 20
624.8543469225
  7
STANDARD
 40
17.5
  1
8
 41
0.7857142857
 72
0
100
AcDbText
  0
TEXT
  5
22D
100
AcDbEntity
  8
ALL_DETAIL_ITEM
100
AcDbText
 62
5
  6
CONTINUOUS
 10
280.1490810847
 20
635.3543469225
  7
STANDARD
 40
10.5
  1
+0.2
 41
0.7142857143
 72
0
100
AcDbText
  0
CIRCLE
  5
22E
100
AcDbEntity
  8
ALL_DETAIL_ITEM
100
AcDbCircle
 62
2
  6
CONTINUOUS
 10
188.5021770173
 20
645.3458473323
 40
23.2719072505
  0
LINE
  5
22F
100
AcDbEntity
  8
ALL_DETAIL_ITEM
100
AcDbLine
 62
2
  6
CONTINUOUS
 10
237.3914834001
 20
532.0963924325
 11
195.9782898017
 21
623.3075180755
  0
CIRCLE
  5
230
100
AcDbEntity
  8
ALL_DETAIL_ITEM
100
AcDbCircle
 62
2
  6
CONTINUOUS
 10
237.4027597411
 20
532.0999345321
 40
1.9328519331
  0
LINE
  5
231
100
AcDbEntity
  8
ALL_DETAIL_ITEM
100
AcDbLine
 62
9
  6
CONTINUOUS
 10
215.9009221827
 20
502.666701788
 11
215.8769540552
 21
503.005948168
  0
LINE
  5
232
100
AcDbEntity
  8
ALL_DETAIL_ITEM
100
AcDbLine
 62
9
  6
CONTINUOUS
 10
215.8769540552
 20
503.005948168
 11
215.8235422922
 21
503.9782823477
  0
LINE
  5
233
100
AcDbEntity
  8
ALL_DETAIL_ITEM
100
AcDbLine
 62
9
  6
CONTINUOUS
 10
215.8235422922
 20
503.9782823477
 11
215.7479510325
 21
505.4514643437
  0
LINE
  5
234
100
AcDbEntity
  8
ALL_DETAIL_ITEM
100
AcDbLine
 62
9
  6
CONTINUOUS
 10
215.7479510325
 20
505.4514643437
 11
215.6604608845
 21
507.2251375632
  0
LINE
  5
235
100
AcDbEntity
  8
ALL_DETAIL_ITEM
100
AcDbLine
 62
9
  6
CONTINUOUS
 10
215.736994944
 20
508.9747141552
 11
215.736994944
 21
507.2288225227
  0
LINE
  5
236
100
AcDbEntity
  8
ALL_DETAIL_ITEM
100
AcDbLine
 62
9
  6
CONTINUOUS
 10
215.8135290027
 20
508.9747141552
 11
215.8135289967
 21
513.5389354415
  0
LINE
  5
237
100
AcDbEntity
  8
ALL_DETAIL_ITEM
100
AcDbLine
 62
9
  6
CONTINUOUS
 10
217.3914972127
 20
588.5389354415
 11
217.3914972127
 21
513.5389354415
  0
LINE
  5
238
100
AcDbEntity
  8
ALL_DETAIL_ITEM
100
AcDbLine
 62
9
  6
CONTINUOUS
 10
330.1843904315
 20
420.1210422227
 11
319.5986039937
 21
420.1210422227
  0
LINE
  5
239
100
AcDbEntity
  8
ALL_DETAIL_ITEM
100
AcDbLine
 62
9
  6
CONTINUOUS
 10
329.8914972127
 20
420.8281490037
 11
319.8914972127
 21
420.8281490037
  0
LINE
  5
23A
100
AcDbEntity
  8
ALL_DETAIL_ITEM
100
AcDbLine
 62
9
  6
CONTINUOUS
 10
234.4921795927
 20
508.974714153
 11
233.5849755032
 21
509.0868118692
  0
LINE
  5
23B
100
AcDbEntity
  8
ALL_DETAIL_ITEM
100
AcDbLine
 62
9
  6
CONTINUOUS
 10
212.3251043192
 20
507.0645469092
 11
215.736994944
 21
507.2288225227
  0
LINE
  5
23C
100
AcDbEntity
  8
ALL_DETAIL_ITEM
100
AcDbLine
 62
9
  6
CONTINUOUS
 10
215.6604608852
 20
507.2251375627
 11
221.4625984577
 21
507.318389509
  0
LINE
  5
23D
100
AcDbEntity
  8
ALL_DETAIL_ITEM
100
AcDbLine
 62
9
  6
CONTINUOUS
 10
221.4625984577
 20
507.318389509
 11
226.6778770822
 21
507.4442170585
  0
LINE
  5
23E
100
AcDbEntity
  8
ALL_DETAIL_ITEM
100
AcDbLine
 62
9
  6
CONTINUOUS
 10
226.6778770822
 20
507.4442170585
 11
230.8100461065
 21
507.5903654545
  0
LINE
  5
23F
100
AcDbEntity
  8
ALL_DETAIL_ITEM
100
AcDbLine
 62
9
  6
CONTINUOUS
 10
230.8100461065
 20
507.5903654545
 11
233.470722227
 21
507.7430220202
  0
LINE
  5
240
100
AcDbEntity
  8
ALL_DETAIL_ITEM
100
AcDbLine
 62
9
  6
CONTINUOUS
 10
233.470722227
 20
507.7430220202
 11
234.3970556777
 21
507.8874428285
  0
LINE
  5
241
100
AcDbEntity
  8
ALL_DETAIL_ITEM
100
AcDbLine
 62
9
  6
CONTINUOUS
 10
212.2030716992
 20
508.9747141552
 11
215.736994944
 21
508.9747141552
  0
LINE
  5
242
100
AcDbEntity
  8
ALL_DETAIL_ITEM
100
AcDbLine
 62
9
  6
CONTINUOUS
 10
230.9402335567
 20
509.1454531552
 11
226.8128483872
 21
509.145371235
  0
LINE
  5
243
100
AcDbEntity
  8
ALL_DETAIL_ITEM
100
AcDbLine
 62
9
  6
CONTINUOUS
 10
226.8128483872
 20
509.145371235
 11
221.6093202177
 21
509.0866534355
  0
LINE
  5
244
100
AcDbEntity
  8
ALL_DETAIL_ITEM
100
AcDbLine
 62
9
  6
CONTINUOUS
 10
221.6093202177
 20
509.0866534355
 11
215.8135290027
 21
508.974714154
  0
LINE
  5
245
100
AcDbEntity
  8
ALL_DETAIL_ITEM
100
AcDbLine
 62
9
  6
CONTINUOUS
 10
233.5849755032
 20
509.0868118692
 11
230.9402335567
 21
509.1454531552
  0
LINE
  5
246
100
AcDbEntity
  8
ALL_DETAIL_ITEM
100
AcDbLine
 62
9
  6
CONTINUOUS
 10
206.356239169
 20
563.5389354415
 11
237.3914972127
 21
563.5389354415
  0
LINE
  5
247
100
AcDbEntity
  8
ALL_DETAIL_ITEM
100
AcDbLine
 62
2
  6
CONTINUOUS
 10
237.3914972127
 20
513.5389354415
 11
237.3914972127
 21
563.5389354415
  0
LINE
  5
248
100
AcDbEntity
  8
ALL_DETAIL_ITEM
100
AcDbLine
 62
2
  6
CONTINUOUS
 10
314.8914972127
 20
513.5389354415
 11
237.3914972127
 21
513.5389354415
  0
LINE
  5
249
100
AcDbEntity
  8
ALL_DETAIL_ITEM
100
AcDbLine
 62
2
  6
CONTINUOUS
 10
314.8914972127
 20
548.5389354415
 11
314.8914972127
 21
513.5389354415
  0
LINE
  5
24A
100
AcDbEntity
  8
ALL_DETAIL_ITEM
100
AcDbLine
 62
2
  6
CONTINUOUS
 10
324.8914972127
 20
554.3124381335
 11
314.8914972127
 21
548.5389354415
  0
LINE
  5
24B
100
AcDbEntity
  8
ALL_DETAIL_ITEM
100
AcDbLine
 62
2
  6
CONTINUOUS
 10
334.8914972127
 20
548.5389354415
 11
324.8914972127
 21
554.3124381335
  0
LINE
  5
24C
100
AcDbEntity
  8
ALL_DETAIL_ITEM
100
AcDbLine
 62
2
  6
CONTINUOUS
 10
334.8914972127
 20
513.5389354415
 11
334.8914972127
 21
548.5389354415
  0
LINE
  5
24D
100
AcDbEntity
  8
ALL_DETAIL_ITEM
100
AcDbLine
 62
2
  6
CONTINUOUS
 10
375.7061232297
 20
513.5389354415
 11
334.8914972127
 21
513.5389354415
  0
SPLINE
  5
24E
100
AcDbEntity
  8
ALL_DETAIL_ITEM
100
AcDbSpline
 62
2
  6
CONTINUOUS
 70
0
 71
3
 72
27
 73
23
 74
0
 42
0.0000001
 43
0.0000001
 44
0.0000000001
 40
0.0
 40
0.0
 40
0.0
 40
0.0
 40
0.05
 40
0.1
 40
0.15
 40
0.2
 40
0.25
 40
0.3
 40
0.35
 40
0.4
 40
0.45
 40
0.5
 40
0.55
 40
0.6
 40
0.65
 40
0.7
 40
0.75
 40
0.8
 40
0.85
 40
0.9
 40
0.95
 40
1.0
 40
1.0
 40
1.0
 40
1.0
 10
375.7061232297
 20
513.5389354415
 30
0.0
 10
375.441956859
 20
514.6882453155
 30
0.0
 10
374.9920602262
 20
516.8785365972
 30
0.0
 10
374.5776804897
 20
519.7342401082
 30
0.0
 10
374.3482953067
 20
522.4744542425
 30
0.0
 10
374.2708440002
 20
525.5116000537
 30
0.0
 10
374.382287822
 20
529.022648852
 30
0.0
 10
374.7125851247
 20
533.0131456127
 30
0.0
 10
375.2744555737
 20
537.5742652202
 30
0.0
 10
376.037352128
 20
542.812032549
 30
0.0
 10
376.7487944432
 20
547.855890386
 30
0.0
 10
377.2623587512
 20
552.4025607802
 30
0.0
 10
377.5397516682
 20
556.3966923577
 30
0.0
 10
377.600641569
 20
559.9140111402
 30
0.0
 10
377.4664904807
 20
563.2924202277
 30
0.0
 10
377.1347619482
 20
566.7679718675
 30
0.0
 10
376.5947696649
 20
570.3272256495
 30
0.0
 10
375.8401596687
 20
573.9440689082
 30
0.0
 10
374.8661414335
 20
577.6016558192
 30
0.0
 10
373.6716424145
 20
581.2740372897
 30
0.0
 10
372.2580837447
 20
584.9366401777
 30
0.0
 10
371.1771983317
 20
587.3425168145
 30
0.0
 10
370.6015001505
 20
588.5389354415
 30
0.0
  0
LINE
  5
24F
100
AcDbEntity
  8
ALL_DETAIL_ITEM
100
AcDbLine
 62
2
  6
CONTINUOUS
 10
262.3914972127
 20
588.5389354415
 11
370.6015001505
 21
588.5389354415
  0
ARC
  5
250
100
AcDbEntity
  8
ALL_DETAIL_ITEM
100
AcDbCircle
 62
2
  6
CONTINUOUS
 10
262.3914972127
 20
563.5389354415
 40
25.0
100
AcDbArc
 50
90.0
 51
180.0
  0
LINE
  5
251
100
AcDbEntity
  8
ALL_DETAIL_ITEM
100
AcDbLine
 62
2
  6
CONTINUOUS
 10
364.4506903005
 20
513.5389354415
 11
374.3523088922
 21
523.4405540333
  0
LINE
  5
252
100
AcDbEntity
  8
ALL_DETAIL_ITEM
100
AcDbLine
 62
2
  6
CONTINUOUS
 10
346.773020771
 20
513.5389354415
 11
376.0311658728
 21
542.7970805434
  0
LINE
  5
253
100
AcDbEntity
  8
ALL_DETAIL_ITEM
100
AcDbLine
 62
2
  6
CONTINUOUS
 10
334.8914972127
 20
519.3350814127
 11
377.487789561
 21
561.931373761
  0
LINE
  5
254
100
AcDbEntity
  8
ALL_DETAIL_ITEM
100
AcDbLine
 62
2
  6
CONTINUOUS
 10
311.417681712
 20
513.5389354415
 11
314.8914972127
 21
517.0127509422
  0
LINE
  5
255
100
AcDbEntity
  8
ALL_DETAIL_ITEM
100
AcDbLine
 62
2
  6
CONTINUOUS
 10
334.8914972127
 20
537.0127509422
 11
374.9669672504
 21
577.0882209799
  0
LINE
  5
256
100
AcDbEntity
  8
ALL_DETAIL_ITEM
100
AcDbLine
 62
2
  6
CONTINUOUS
 10
293.7400121825
 20
513.5389354415
 11
314.8914972127
 21
534.6904204717
  0
LINE
  5
257
100
AcDbEntity
  8
ALL_DETAIL_ITEM
100
AcDbLine
 62
2
  6
CONTINUOUS
 10
330.9916119745
 20
550.7905352336
 11
368.7400121825
 21
588.5389354415
  0
LINE
  5
258
100
AcDbEntity
  8
ALL_DETAIL_ITEM
100
AcDbLine
 62
2
  6
CONTINUOUS
 10
276.062342653
 20
513.5389354415
 11
351.062342653
 21
588.5389354415
  0
LINE
  5
259
100
AcDbEntity
  8
ALL_DETAIL_ITEM
100
AcDbLine
 62
2
  6
CONTINUOUS
 10
258.3846731235
 20
513.5389354415
 11
333.3846731235
 21
588.5389354415
  0
LINE
  5
25A
100
AcDbEntity
  8
ALL_DETAIL_ITEM
100
AcDbLine
 62
2
  6
CONTINUOUS
 10
240.707003594
 20
513.5389354415
 11
315.707003594
 21
588.5389354415
  0
LINE
  5
25B
100
AcDbEntity
  8
ALL_DETAIL_ITEM
100
AcDbLine
 62
2
  6
CONTINUOUS
 10
237.3914972127
 20
527.9010985897
 11
298.0293340645
 21
588.5389354415
  0
LINE
  5
25C
100
AcDbEntity
  8
ALL_DETAIL_ITEM
100
AcDbLine
 62
2
  6
CONTINUOUS
 10
237.3914972127
 20
545.5787681192
 11
280.351664535
 21
588.5389354415
  0
LINE
  5
25D
100
AcDbEntity
  8
ALL_DETAIL_ITEM
100
AcDbLine
 62
2
  6
CONTINUOUS
 10
237.3914972127
 20
563.2564376487
 11
262.6739950055
 21
588.5389354415
  0
LINE
  5
25E
100
AcDbEntity
  8
ALL_DETAIL_ITEM
100
AcDbLine
 62
2
  6
CONTINUOUS
 10
375.4138770182
 20
575.4122986438
 11
362.2872402205
 21
588.5389354415
  0
LINE
  5
25F
100
AcDbEntity
  8
ALL_DETAIL_ITEM
100
AcDbLine
 62
2
  6
CONTINUOUS
 10
377.4596509473
 20
555.6888551851
 11
344.609570691
 21
588.5389354415
  0
LINE
  5
260
100
AcDbEntity
  8
ALL_DETAIL_ITEM
100
AcDbLine
 62
2
  6
CONTINUOUS
 10
375.6110986613
 20
539.8597379416
 11
326.9319011615
 21
588.5389354415
  0
LINE
  5
261
100
AcDbEntity
  8
ALL_DETAIL_ITEM
100
AcDbLine
 62
2
  6
CONTINUOUS
 10
374.3523016533
 20
523.4408654201
 11
309.254231632
 21
588.5389354415
  0
LINE
  5
262
100
AcDbEntity
  8
ALL_DETAIL_ITEM
100
AcDbLine
 62
2
  6
CONTINUOUS
 10
366.5765621025
 20
513.5389354415
 11
334.8914972127
 21
545.2240003312
  0
LINE
  5
263
100
AcDbEntity
  8
ALL_DETAIL_ITEM
100
AcDbLine
 62
2
  6
CONTINUOUS
 10
327.0482765298
 20
553.0672210142
 11
291.5765621025
 21
588.5389354415
  0
LINE
  5
264
100
AcDbEntity
  8
ALL_DETAIL_ITEM
100
AcDbLine
 62
2
  6
CONTINUOUS
 10
348.898892573
 20
513.5389354415
 11
334.8914972127
 21
527.5463308017
  0
LINE
  5
265
100
AcDbEntity
  8
ALL_DETAIL_ITEM
100
AcDbLine
 62
2
  6
CONTINUOUS
 10
314.8914972127
 20
547.5463308017
 11
273.898892573
 21
588.5389354415
  0
LINE
  5
266
100
AcDbEntity
  8
ALL_DETAIL_ITEM
100
AcDbLine
 62
2
  6
CONTINUOUS
 10
314.8914972127
 20
529.8686612722
 11
256.8575937481
 21
587.9025647368
  0
LINE
  5
267
100
AcDbEntity
  8
ALL_DETAIL_ITEM
100
AcDbLine
 62
2
  6
CONTINUOUS
 10
313.543553514
 20
513.5389354415
 11
245.3140824654
 21
581.7684064901
  0
LINE
  5
268
100
AcDbEntity
  8
ALL_DETAIL_ITEM
100
AcDbLine
 62
2
  6
CONTINUOUS
 10
295.8658839845
 20
513.5389354415
 11
238.514784203
 21
570.890035223
  0
LINE
  5
269
100
AcDbEntity
  8
ALL_DETAIL_ITEM
100
AcDbLine
 62
2
  6
CONTINUOUS
 10
278.188214455
 20
513.5389354415
 11
237.3914972127
 21
554.3356526837
  0
LINE
  5
26A
100
AcDbEntity
  8
ALL_DETAIL_ITEM
100
AcDbLine
 62
2
  6
CONTINUOUS
 10
260.5105449255
 20
513.5389354415
 11
237.3914972127
 21
536.6579831542
  0
LINE
  5
26B
100
AcDbEntity
  8
ALL_DETAIL_ITEM
100
AcDbLine
 62
2
  6
CONTINUOUS
 10
242.832875396
 20
513.5389354415
 11
237.3914972127
 21
518.9803136247
  0
LINE
  5
26C
100
AcDbEntity
  8
ALL_DETAIL_ITEM
100
AcDbLine
 62
2
  6
CONTINUOUS
 10
343.5973257885
 20
483.4268295045
 11
354.598789049
 21
485.7784897965
  0
ARC
  5
26D
100
AcDbEntity
  8
ALL_DETAIL_ITEM
100
AcDbCircle
 62
2
  6
CONTINUOUS
 10
354.076197873
 20
488.22325941
 40
2.5
100
AcDbArc
 50
282.0658929334
 51
12.0658929334
  0
LINE
  5
26E
100
AcDbEntity
  8
ALL_DETAIL_ITEM
100
AcDbLine
 62
2
  6
CONTINUOUS
 10
356.5209674865
 20
488.7458505857
 11
351.5563513145
 21
511.9711619135
  0
LINE
  5
26F
100
AcDbEntity
  8
ALL_DETAIL_ITEM
100
AcDbLine
 62
2
  6
CONTINUOUS
 10
351.5563513145
 20
511.9711619135
 11
358.890660155
 21
513.5389354415
  0
LINE
  5
270
100
AcDbEntity
  8
ALL_DETAIL_ITEM
100
AcDbLine
 62
2
  6
CONTINUOUS
 10
358.890660155
 20
513.5389354415
 11
363.8552763267
 21
490.3136241137
  0
ARC
  5
271
100
AcDbEntity
  8
ALL_DETAIL_ITEM
100
AcDbCircle
 62
2
  6
CONTINUOUS
 10
354.076197873
 20
488.22325941
 40
10.0
100
AcDbArc
 50
282.0658929334
 51
12.0658929334
  0
LINE
  5
272
100
AcDbEntity
  8
ALL_DETAIL_ITEM
100
AcDbLine
 62
2
  6
CONTINUOUS
 10
356.166562577
 20
478.4441809562
 11
345.1650993165
 21
476.0925206642
  0
LINE
  5
273
100
AcDbEntity
  8
ALL_DETAIL_ITEM
100
AcDbLine
 62
2
  6
CONTINUOUS
 10
345.1650993165
 20
476.0925206642
 11
343.5973257885
 21
483.4268295045
  0
LINE
  5
274
100
AcDbEntity
  8
ALL_DETAIL_ITEM
100
AcDbLine
 62
2
  6
CONTINUOUS
 10
303.6040158882
 20
467.2084706722
 11
282.823474174
 21
462.7664456765
  0
ARC
  5
275
100
AcDbEntity
  8
ALL_DETAIL_ITEM
100
AcDbCircle
 62
2
  6
CONTINUOUS
 10
280.73310947
 20
472.5455241302
 40
10.0
100
AcDbArc
 50
192.0658929334
 51
282.0658929334
  0
LINE
  5
276
100
AcDbEntity
  8
ALL_DETAIL_ITEM
100
AcDbLine
 62
2
  6
CONTINUOUS
 10
270.9540310162
 20
470.4551594262
 11
267.5571883722
 21
486.3461619135
  0
LINE
  5
277
100
AcDbEntity
  8
ALL_DETAIL_ITEM
100
AcDbLine
 62
2
  6
CONTINUOUS
 10
267.5571883722
 20
486.3461619135
 11
274.8914972127
 21
487.9139354415
  0
LINE
  5
278
100
AcDbEntity
  8
ALL_DETAIL_ITEM
100
AcDbLine
 62
2
  6
CONTINUOUS
 10
274.8914972127
 20
487.9139354415
 11
278.2883398565
 21
472.0229329542
  0
ARC
  5
279
100
AcDbEntity
  8
ALL_DETAIL_ITEM
100
AcDbCircle
 62
2
  6
CONTINUOUS
 10
280.73310947
 20
472.5455241302
 40
2.5
100
AcDbArc
 50
192.0658929334
 51
282.0658929334
  0
LINE
  5
27A
100
AcDbEntity
  8
ALL_DETAIL_ITEM
100
AcDbLine
 62
2
  6
CONTINUOUS
 10
281.255700646
 20
470.1007545167
 11
302.0362423602
 21
474.5427795127
  0
LINE
  5
27B
100
AcDbEntity
  8
ALL_DETAIL_ITEM
100
AcDbLine
 62
2
  6
CONTINUOUS
 10
302.0362423602
 20
474.5427795127
 11
303.6040158882
 21
467.2084706722
  0
LINE
  5
27C
100
AcDbEntity
  8
ALL_DETAIL_ITEM
100
AcDbLine
 62
2
  6
CONTINUOUS
 10
359.6847237416
 20
509.8241721294
 11
356.4843339797
 21
513.0245618912
  0
LINE
  5
27D
100
AcDbEntity
  8
ALL_DETAIL_ITEM
100
AcDbLine
 62
2
  6
CONTINUOUS
 10
361.1265556644
 20
503.0790393476
 11
352.1150139978
 21
512.0905810142
  0
LINE
  5
27E
100
AcDbEntity
  8
ALL_DETAIL_ITEM
100
AcDbLine
 62
2
  6
CONTINUOUS
 10
362.5683875872
 20
496.3339065658
 11
352.8138301356
 21
506.0884640173
  0
LINE
  5
27F
100
AcDbEntity
  8
ALL_DETAIL_ITEM
100
AcDbLine
 62
2
  6
CONTINUOUS
 10
363.9634777382
 20
489.6355155557
 11
354.2556620585
 21
499.3433312354
  0
LINE
  5
280
100
AcDbEntity
  8
ALL_DETAIL_ITEM
100
AcDbLine
 62
2
  6
CONTINUOUS
 10
363.4689385159
 20
484.826753919
 11
355.6974939814
 21
492.5981984535
  0
LINE
  5
281
100
AcDbEntity
  8
ALL_DETAIL_ITEM
100
AcDbLine
 62
2
  6
CONTINUOUS
 10
361.4836483941
 20
481.5087431818
 11
356.1538302089
 21
486.8385613671
  0
LINE
  5
282
100
AcDbEntity
  8
ALL_DETAIL_ITEM
100
AcDbLine
 62
2
  6
CONTINUOUS
 10
358.4469478358
 20
479.2421428811
 11
352.3840261272
 21
485.3050645897
  0
LINE
  5
283
100
AcDbEntity
  8
ALL_DETAIL_ITEM
100
AcDbLine
 62
2
  6
CONTINUOUS
 10
354.3334524422
 20
478.0523374158
 11
348.0147061453
 21
484.3710837127
  0
LINE
  5
284
100
AcDbEntity
  8
ALL_DETAIL_ITEM
100
AcDbLine
 62
2
  6
CONTINUOUS
 10
349.9641324602
 20
477.1183565387
 11
343.6453861633
 21
483.4371028356
  0
LINE
  5
285
100
AcDbEntity
  8
ALL_DETAIL_ITEM
100
AcDbLine
 62
2
  6
CONTINUOUS
 10
345.5948124783
 20
476.1843756617
 11
345.023298268
 21
476.7558898719
  0
LINE
  5
286
100
AcDbEntity
  8
ALL_DETAIL_ITEM
100
AcDbLine
 62
2
  6
CONTINUOUS
 10
302.7239600157
 20
471.3255203933
 11
299.9521863434
 21
474.0972940655
  0
LINE
  5
287
100
AcDbEntity
  8
ALL_DETAIL_ITEM
100
AcDbLine
 62
2
  6
CONTINUOUS
 10
301.9016126586
 20
466.8445668914
 11
295.5828663615
 21
473.1633131885
  0
LINE
  5
288
100
AcDbEntity
  8
ALL_DETAIL_ITEM
100
AcDbLine
 62
2
  6
CONTINUOUS
 10
297.5322926766
 20
465.9105860144
 11
291.2135463795
 21
472.2293323115
  0
LINE
  5
289
100
AcDbEntity
  8
ALL_DETAIL_ITEM
100
AcDbLine
 62
2
  6
CONTINUOUS
 10
293.1629726946
 20
464.9766051374
 11
286.8442263975
 21
471.2953514345
  0
LINE
  5
28A
100
AcDbEntity
  8
ALL_DETAIL_ITEM
100
AcDbLine
 62
2
  6
CONTINUOUS
 10
276.1600238546
 20
481.9795539773
 11
271.0473606551
 21
487.0922171768
  0
LINE
  5
28B
100
AcDbEntity
  8
ALL_DETAIL_ITEM
100
AcDbLine
 62
2
  6
CONTINUOUS
 10
288.7936527126
 20
464.0426242604
 11
282.4749064155
 21
470.3613705574
  0
LINE
  5
28C
100
AcDbEntity
  8
ALL_DETAIL_ITEM
100
AcDbLine
 62
2
  6
CONTINUOUS
 10
277.6018557774
 20
475.2344211956
 11
267.8472983259
 21
484.9889786471
  0
LINE
  5
28D
100
AcDbEntity
  8
ALL_DETAIL_ITEM
100
AcDbLine
 62
2
  6
CONTINUOUS
 10
284.4243327305
 20
463.1086433834
 11
269.2891302488
 21
478.2438458652
  0
LINE
  5
28E
100
AcDbEntity
  8
ALL_DETAIL_ITEM
100
AcDbLine
 62
2
  6
CONTINUOUS
 10
279.6177515601
 20
462.6119236948
 11
270.7309621717
 21
471.4987130833
  0
ARC
  5
28F
100
AcDbEntity
  8
ALL_DETAIL_ITEM
100
AcDbCircle
 62
2
  6
CONTINUOUS
 10
214.5641376577
 20
454.421588274
 40
22.5
100
AcDbArc
 50
92.75654679
 51
99.3712384907
  0
SPLINE
  5
290
100
AcDbEntity
  8
ALL_DETAIL_ITEM
100
AcDbSpline
 62
2
  6
CONTINUOUS
 70
0
 71
3
 72
9
 73
5
 74
0
 42
0.0000001
 43
0.0000001
 44
0.0000000001
 40
0.0
 40
0.0
 40
0.0
 40
0.0
 40
0.5
 40
1.0
 40
1.0
 40
1.0
 40
1.0
 10
210.9004469257
 20
476.6213038177
 30
0.0
 10
211.5477617695
 20
481.12493805
 30
0.0
 10
212.4904004592
 20
489.9435640645
 30
0.0
 10
212.7290571525
 20
498.384905179
 30
0.0
 10
212.67239
 20
502.5112545112
 30
0.0
  0
LINE
  5
291
100
AcDbEntity
  8
ALL_DETAIL_ITEM
100
AcDbLine
 62
2
  6
CONTINUOUS
 10
212.67239
 20
502.5112545112
 11
229.656543486
 21
503.329007054
  0
SPLINE
  5
292
100
AcDbEntity
  8
ALL_DETAIL_ITEM
100
AcDbSpline
 62
2
  6
CONTINUOUS
 70
0
 71
3
 72
10
 73
6
 74
0
 42
0.0000001
 43
0.0000001
 44
0.0000000001
 40
0.0
 40
0.0
 40
0.0
 40
0.0
 40
0.3333333333
 40
0.6666666667
 40
1.0
 40
1.0
 40
1.0
 40
1.0
 10
229.656543486
 20
503.3290070547
 30
0.0
 10
230.5080954832
 20
503.3910510902
 30
0.0
 10
231.9974889077
 20
503.8141709442
 30
0.0
 10
233.8206258525
 20
505.5672837602
 30
0.0
 10
234.3017246507
 20
507.03897229
 30
0.0
 10
234.3970556782
 20
507.8874428322
 30
0.0
  0
LINE
  5
293
100
AcDbEntity
  8
ALL_DETAIL_ITEM
100
AcDbLine
 62
2
  6
CONTINUOUS
 10
234.397055678
 20
507.8874428322
 11
234.4921795927
 21
508.9747141547
  0
SPLINE
  5
294
100
AcDbEntity
  8
ALL_DETAIL_ITEM
100
AcDbSpline
 62
2
  6
CONTINUOUS
 70
0
 71
3
 72
11
 73
7
 74
0
 42
0.0000001
 43
0.0000001
 44
0.0000000001
 40
0.0
 40
0.0
 40
0.0
 40
0.0
 40
0.25
 40
0.5
 40
0.75
 40
1.0
 40
1.0
 40
1.0
 40
1.0
 10
234.4921795922
 20
508.9747141547
 30
0.0
 10
234.5560823717
 20
509.6167226512
 30
0.0
 10
234.881106481
 20
510.7897309557
 30
0.0
 10
236.0147400067
 20
512.3131310302
 30
0.0
 10
237.6311457557
 20
513.3096776737
 30
0.0
 10
238.828018127
 20
513.5312305582
 30
0.0
 10
239.4731530815
 20
513.5389354415
 30
0.0
  0
LINE
  5
295
100
AcDbEntity
  8
ALL_DETAIL_ITEM
100
AcDbLine
 62
2
  6
CONTINUOUS
 10
239.4731530815
 20
513.5389354415
 11
293.4370472262
 21
513.5389354415
  0
SPLINE
  5
296
100
AcDbEntity
  8
ALL_DETAIL_ITEM
100
AcDbSpline
 62
2
  6
CONTINUOUS
 70
0
 71
3
 72
11
 73
7
 74
0
 42
0.0000001
 43
0.0000001
 44
0.0000000001
 40
0.0
 40
0.0
 40
0.0
 40
0.0
 40
0.25
 40
0.5
 40
0.75
 40
1.0
 40
1.0
 40
1.0
 40
1.0
 10
293.4370472262
 20
513.5389354415
 30
0.0
 10
294.090386015
 20
513.5308659165
 30
0.0
 10
295.300423633
 20
513.3042557112
 30
0.0
 10
296.9302584187
 20
512.284945822
 30
0.0
 10
298.0607768472
 20
510.7301846952
 30
0.0
 10
298.3712429987
 20
509.538902197
 30
0.0
 10
298.4248674765
 20
508.88771781
 30
0.0
  0
LINE
  5
297
100
AcDbEntity
  8
ALL_DETAIL_ITEM
100
AcDbLine
 62
2
  6
CONTINUOUS
 10
298.4248674775
 20
508.8877178102
 11
299.8914972127
 21
487.9139354415
  0
LINE
  5
298
100
AcDbEntity
  8
ALL_DETAIL_ITEM
100
AcDbLine
 62
2
  6
CONTINUOUS
 10
299.8914972127
 20
487.9139354415
 11
255.8783583427
 21
487.9139354415
  0
SPLINE
  5
299
100
AcDbEntity
  8
ALL_DETAIL_ITEM
100
AcDbSpline
 62
2
  6
CONTINUOUS
 70
0
 71
3
 72
10
 73
6
 74
0
 42
0.0000001
 43
0.0000001
 44
0.0000000001
 40
0.0
 40
0.0
 40
0.0
 40
0.0
 40
0.3333333333
 40
0.6666666667
 40
1.0
 40
1.0
 40
1.0
 40
1.0
 10
255.8783583427
 20
487.9139354415
 30
0.0
 10
254.9130316032
 20
487.902481713
 30
0.0
 10
253.1259384022
 20
487.5771723995
 30
0.0
 10
250.6854925785
 20
486.063884504
 30
0.0
 10
249.5996317242
 20
484.607713335
 30
0.0
 10
249.1602292447
 20
483.748113215
 30
0.0
  0
SPLINE
  5
29A
100
AcDbEntity
  8
ALL_DETAIL_ITEM
100
AcDbSpline
 62
2
  6
CONTINUOUS
 70
0
 71
3
 72
10
 73
6
 74
0
 42
0.0000001
 43
0.0000001
 44
0.0000000001
 40
0.0
 40
0.0
 40
0.0
 40
0.0
 40
0.3333333333
 40
0.6666666667
 40
1.0
 40
1.0
 40
1.0
 40
1.0
 10
249.1602292462
 20
483.7481132142
 30
0.0
 10
248.6032044145
 20
482.6545773915
 30
0.0
 10
247.229902093
 20
480.7841770552
 30
0.0
 10
244.1728816292
 20
478.7851837727
 30
0.0
 10
241.908774681
 20
478.2770731432
 30
0.0
 10
240.6836463792
 20
478.2052546005
 30
0.0
  0
LINE
  5
29B
100
AcDbEntity
  8
ALL_DETAIL_ITEM
100
AcDbLine
 62
2
  6
CONTINUOUS
 10
240.6836463792
 20
478.2052546015
 11
213.4820618152
 21
476.8955534755
  0
LINE
  5
29C
100
AcDbEntity
  8
ALL_DETAIL_ITEM
100
AcDbLine
 62
2
  6
CONTINUOUS
 10
289.328215608
 20
487.9139354415
 11
299.2011167134
 21
497.7868365469
  0
LINE
  5
29D
100
AcDbEntity
  8
ALL_DETAIL_ITEM
100
AcDbLine
 62
2
  6
CONTINUOUS
 10
278.72161389
 20
487.9139354415
 11
298.5079049574
 21
507.7002265089
  0
LINE
  5
29E
100
AcDbEntity
  8
ALL_DETAIL_ITEM
100
AcDbLine
 62
2
  6
CONTINUOUS
 10
268.115012172
 20
487.9139354415
 11
293.7245338584
 21
513.5234571279
  0
LINE
  5
29F
100
AcDbEntity
  8
ALL_DETAIL_ITEM
100
AcDbLine
 62
2
  6
CONTINUOUS
 10
257.508410454
 20
487.9139354415
 11
283.133410454
 21
513.5389354415
  0
LINE
  5
2A0
100
AcDbEntity
  8
ALL_DETAIL_ITEM
100
AcDbLine
 62
2
  6
CONTINUOUS
 10
237.0165653827
 20
478.0286920883
 11
272.526808736
 21
513.5389354415
  0
LINE
  5
2A1
100
AcDbEntity
  8
ALL_DETAIL_ITEM
100
AcDbLine
 62
2
  6
CONTINUOUS
 10
225.8734450203
 20
477.4921734438
 11
261.920207018
 21
513.5389354415
  0
LINE
  5
2A2
100
AcDbEntity
  8
ALL_DETAIL_ITEM
100
AcDbLine
 62
2
  6
CONTINUOUS
 10
214.7303246579
 20
476.9556547994
 11
251.3136053
 21
513.5389354415
  0
LINE
  5
2A3
100
AcDbEntity
  8
ALL_DETAIL_ITEM
100
AcDbLine
 62
2
  6
CONTINUOUS
 10
211.8753840994
 20
484.7073159589
 11
230.6523171811
 21
503.4842490406
  0
LINE
  5
2A4
100
AcDbEntity
  8
ALL_DETAIL_ITEM
100
AcDbLine
 62
2
  6
CONTINUOUS
 10
234.2482645604
 20
507.08019642
 11
240.707003582
 21
513.5389354415
  0
LINE
  5
2A5
100
AcDbEntity
  8
ALL_DETAIL_ITEM
100
AcDbLine
 62
2
  6
CONTINUOUS
 10
212.60508723
 20
496.0436208076
 11
219.3964718362
 21
502.8350054137
  0
LINE
  5
2A6
100
AcDbEntity
  8
ALL_DETAIL_ITEM
100
AcDbLine
 62
2
  6
CONTINUOUS
 10
334.8914972127
 20
513.5389354415
 11
429.3303552332
 21
513.5389354415
  0
LINE
  5
2A7
100
AcDbEntity
  8
ALL_DETAIL_ITEM
100
AcDbLine
 62
2
  6
CONTINUOUS
 10
334.8914972127
 20
548.5389354415
 11
429.3303552332
 21
548.5389354415
  0
LINE
  5
2A8
100
AcDbEntity
  8
ALL_DETAIL_ITEM
100
AcDbLine
 62
2
  6
CONTINUOUS
 10
424.3303552332
 20
513.5389354415
 11
424.3303552332
 21
488.5389354415
  0
LINE
  5
2A9
100
AcDbEntity
  8
ALL_DETAIL_ITEM
100
AcDbLine
 62
2
  6
CONTINUOUS
 10
424.3303552332
 20
488.5389354415
 11
424.3303552332
 21
531.0389354415
  0
LINE
  5
2AA
100
AcDbEntity
  8
ALL_DETAIL_ITEM
100
AcDbLine
 62
2
  6
CONTINUOUS
 10
424.3303552332
 20
548.5389354415
 11
424.3303552332
 21
609.6274954415
  0
LINE
  5
2AB
100
AcDbEntity
  8
ALL_DETAIL_ITEM
100
AcDbLine
 62
2
  6
CONTINUOUS
 10
424.3303552332
 20
609.6274954415
 11
424.3303552332
 21
531.0389354415
  0
LINE
  5
2AC
100
AcDbEntity
  8
ALL_DETAIL_ITEM
100
AcDbLine
 62
2
  6
CONTINUOUS
 10
420.580355233
 20
496.0389354415
 11
428.0803552335
 21
496.0389354415
  0
LINE
  5
2AD
100
AcDbEntity
  8
ALL_DETAIL_ITEM
100
AcDbLine
 62
2
  6
CONTINUOUS
 10
428.0803552335
 20
496.0389354415
 11
424.3303552332
 21
513.5389354415
  0
LINE
  5
2AE
100
AcDbEntity
  8
ALL_DETAIL_ITEM
100
AcDbLine
 62
2
  6
CONTINUOUS
 10
424.3303552332
 20
513.5389354415
 11
420.580355233
 21
496.0389354415
  0
SOLID
  5
2AF
100
AcDbEntity
  8
ALL_DETAIL_ITEM
100
AcDbTrace
 62
2
  6
CONTINUOUS
 10
420.580355233
 20
496.0389354415
 11
424.3303552332
 21
513.5389354415
 12
428.0803552335
 22
496.0389354415
 13
428.0803552335
 23
496.0389354415
  0
LINE
  5
2B0
100
AcDbEntity
  8
ALL_DETAIL_ITEM
100
AcDbLine
 62
2
  6
CONTINUOUS
 10
428.0803552335
 20
566.0389354415
 11
420.580355233
 21
566.0389354415
  0
LINE
  5
2B1
100
AcDbEntity
  8
ALL_DETAIL_ITEM
100
AcDbLine
 62
2
  6
CONTINUOUS
 10
420.580355233
 20
566.0389354415
 11
424.3303552332
 21
548.5389354415
  0
LINE
  5
2B2
100
AcDbEntity
  8
ALL_DETAIL_ITEM
100
AcDbLine
 62
2
  6
CONTINUOUS
 10
424.3303552332
 20
548.5389354415
 11
428.0803552335
 21
566.0389354415
  0
SOLID
  5
2B3
100
AcDbEntity
  8
ALL_DETAIL_ITEM
100
AcDbTrace
 62
2
  6
CONTINUOUS
 10
428.0803552335
 20
566.0389354415
 11
424.3303552332
 21
548.5389354415
 12
420.580355233
 22
566.0389354415
 13
420.580355233
 23
566.0389354415
  0
LINE
  5
2B4
100
AcDbEntity
  8
ALL_DETAIL_ITEM
100
AcDbLine
 62
2
  6
CONTINUOUS
 10
314.8914972127
 20
513.5389354415
 11
314.8914972127
 21
621.1043469225
  0
LINE
  5
2B5
100
AcDbEntity
  8
ALL_DETAIL_ITEM
100
AcDbLine
 62
2
  6
CONTINUOUS
 10
334.8914972127
 20
513.5389354415
 11
334.8914972127
 21
621.1043469225
  0
LINE
  5
2B6
100
AcDbEntity
  8
ALL_DETAIL_ITEM
100
AcDbLine
 62
2
  6
CONTINUOUS
 10
314.8914972127
 20
616.1043469225
 11
243.0657477512
 21
616.1043469225
  0
LINE
  5
2B7
100
AcDbEntity
  8
ALL_DETAIL_ITEM
100
AcDbLine
 62
2
  6
CONTINUOUS
 10
243.0657477512
 20
616.1043469225
 11
324.8914972127
 21
616.1043469225
  0
LINE
  5
2B8
100
AcDbEntity
  8
ALL_DETAIL_ITEM
100
AcDbLine
 62
2
  6
CONTINUOUS
 10
334.8914972127
 20
616.1043469225
 11
359.8914972127
 21
616.1043469225
  0
LINE
  5
2B9
100
AcDbEntity
  8
ALL_DETAIL_ITEM
100
AcDbLine
 62
2
  6
CONTINUOUS
 10
359.8914972127
 20
616.1043469225
 11
324.8914972127
 21
616.1043469225
  0
LINE
  5
2BA
100
AcDbEntity
  8
ALL_DETAIL_ITEM
100
AcDbLine
 62
2
  6
CONTINUOUS
 10
297.3914972127
 20
619.8543469227
 11
297.3914972127
 21
612.3543469222
  0
LINE
  5
2BB
100
AcDbEntity
  8
ALL_DETAIL_ITEM
100
AcDbLine
 62
2
  6
CONTINUOUS
 10
297.3914972127
 20
612.3543469222
 11
314.8914972127
 21
616.1043469225
  0
LINE
  5
2BC
100
AcDbEntity
  8
ALL_DETAIL_ITEM
100
AcDbLine
 62
2
  6
CONTINUOUS
 10
314.8914972127
 20
616.1043469225
 11
297.3914972127
 21
619.8543469227
  0
SOLID
  5
2BD
100
AcDbEntity
  8
ALL_DETAIL_ITEM
100
AcDbTrace
 62
2
  6
CONTINUOUS
 10
297.3914972127
 20
619.8543469227
 11
314.8914972127
 21
616.1043469225
 12
297.3914972127
 22
612.3543469222
 13
297.3914972127
 23
612.3543469222
  0
LINE
  5
2BE
100
AcDbEntity
  8
ALL_DETAIL_ITEM
100
AcDbLine
 62
2
  6
CONTINUOUS
 10
352.3914972127
 20
612.3543469222
 11
352.3914972127
 21
619.8543469227
  0
LINE
  5
2BF
100
AcDbEntity
  8
ALL_DETAIL_ITEM
100
AcDbLine
 62
2
  6
CONTINUOUS
 10
352.3914972127
 20
619.8543469227
 11
334.8914972127
 21
616.1043469225
  0
LINE
  5
2C0
100
AcDbEntity
  8
ALL_DETAIL_ITEM
100
AcDbLine
 62
2
  6
CONTINUOUS
 10
334.8914972127
 20
616.1043469225
 11
352.3914972127
 21
612.3543469222
  0
SOLID
  5
2C1
100
AcDbEntity
  8
ALL_DETAIL_ITEM
100
AcDbTrace
 62
2
  6
CONTINUOUS
 10
352.3914972127
 20
612.3543469222
 11
334.8914972127
 21
616.1043469225
 12
352.3914972127
 22
619.8543469227
 13
352.3914972127
 23
619.8543469227
  0
LINE
  5
2C2
100
AcDbEntity
  8
ALL_DETAIL_ITEM
100
AcDbLine
 62
2
  6
CONTINUOUS
 10
344.5542241092
 20
279.1353859007
 11
366.7266505482
 21
283.2428977262
  0
LINE
  5
2C3
100
AcDbEntity
  8
ALL_DETAIL_ITEM
100
AcDbLine
 62
2
  6
CONTINUOUS
 10
319.9695637312
 20
278.8647454172
 11
344.5542241092
 21
279.1353859007
  0
LINE
  5
2C4
100
AcDbEntity
  8
ALL_DETAIL_ITEM
100
AcDbLine
 62
2
  6
CONTINUOUS
 10
304.7863428515
 20
279.3915660217
 11
319.9695637312
 21
278.8647454172
  0
LINE
  5
2C5
100
AcDbEntity
  8
ALL_DETAIL_ITEM
100
AcDbLine
 62
2
  6
CONTINUOUS
 10
290.9929601625
 20
280.1920678722
 11
304.7863428515
 21
279.3915660217
  0
LINE
  5
2C6
100
AcDbEntity
  8
ALL_DETAIL_ITEM
100
AcDbLine
 62
2
  6
CONTINUOUS
 10
277.3695637312
 20
281.2647454172
 11
290.9929601625
 21
280.1920678722
  0
LINE
  5
2C7
100
AcDbEntity
  8
ALL_DETAIL_ITEM
100
AcDbLine
 62
2
  6
CONTINUOUS
 10
271.3374795432
 20
281.8516989475
 11
277.3695637312
 21
281.2647454172
  0
LINE
  5
2C8
100
AcDbEntity
  8
ALL_DETAIL_ITEM
100
AcDbLine
 62
2
  6
CONTINUOUS
 10
265.2814495112
 20
282.760814722
 11
271.3374795432
 21
281.8516989475
  0
LINE
  5
2C9
100
AcDbEntity
  8
ALL_DETAIL_ITEM
100
AcDbLine
 62
2
  6
CONTINUOUS
 10
259.3695637312
 20
284.2647454172
 11
265.2814495112
 21
282.760814722
  0
LINE
  5
2CA
100
AcDbEntity
  8
ALL_DETAIL_ITEM
100
AcDbLine
 62
2
  6
CONTINUOUS
 10
244.3063172895
 20
292.7670124295
 11
259.3695637312
 21
284.2647454172
  0
LINE
  5
2CB
100
AcDbEntity
  8
ALL_DETAIL_ITEM
100
AcDbLine
 62
2
  6
CONTINUOUS
 10
232.319193758
 20
306.0892369125
 11
244.3063172895
 21
292.7670124295
  0
LINE
  5
2CC
100
AcDbEntity
  8
ALL_DETAIL_ITEM
100
AcDbLine
 62
2
  6
CONTINUOUS
 10
206.6248050772
 20
588.5389354415
 11
206.197020752
 21
586.5820886775
  0
LINE
  5
2CD
100
AcDbEntity
  8
ALL_DETAIL_ITEM
100
AcDbLine
 62
2
  6
CONTINUOUS
 10
223.9695637312
 20
322.0647454172
 11
232.319193758
 21
306.0892369125
  0
LINE
  5
2CE
100
AcDbEntity
  8
ALL_DETAIL_ITEM
100
AcDbLine
 62
2
  6
CONTINUOUS
 10
219.2425830437
 20
339.6606132192
 11
223.9695637312
 21
322.0647454172
  0
LINE
  5
2CF
100
AcDbEntity
  8
ALL_DETAIL_ITEM
100
AcDbLine
 62
2
  6
CONTINUOUS
 10
206.197020752
 20
586.5820886775
 11
205.7094459717
 21
573.466174071
  0
LINE
  5
2D0
100
AcDbEntity
  8
ALL_DETAIL_ITEM
100
AcDbLine
 62
2
  6
CONTINUOUS
 10
205.9529848392
 20
445.9152991267
 11
204.7695637312
 21
423.4647454172
  0
LINE
  5
2D1
100
AcDbEntity
  8
ALL_DETAIL_ITEM
100
AcDbLine
 62
2
  6
CONTINUOUS
 10
212.5695637312
 20
491.2647454172
 11
209.7523070572
 21
468.5335079497
  0
LINE
  5
2D2
100
AcDbEntity
  8
ALL_DETAIL_ITEM
100
AcDbLine
 62
2
  6
CONTINUOUS
 10
209.7523070572
 20
468.5335079497
 11
205.9529848392
 21
445.9152991267
  0
LINE
  5
2D3
100
AcDbEntity
  8
ALL_DETAIL_ITEM
100
AcDbLine
 62
2
  6
CONTINUOUS
 10
207.0347352855
 20
407.4765812227
 11
210.8002147532
 21
391.5081285612
  0
LINE
  5
2D4
100
AcDbEntity
  8
ALL_DETAIL_ITEM
100
AcDbLine
 62
2
  6
CONTINUOUS
 10
210.8002147532
 20
391.5081285612
 11
214.3695637312
 21
375.4647454172
  0
LINE
  5
2D5
100
AcDbEntity
  8
ALL_DETAIL_ITEM
100
AcDbLine
 62
2
  6
CONTINUOUS
 10
204.7695637312
 20
423.4647454172
 11
207.0347352855
 21
407.4765812227
  0
LINE
  5
2D6
100
AcDbEntity
  8
ALL_DETAIL_ITEM
100
AcDbLine
 62
2
  6
CONTINUOUS
 10
214.3695637312
 20
375.4647454172
 11
216.8129892722
 21
357.5431041515
  0
LINE
  5
2D7
100
AcDbEntity
  8
ALL_DETAIL_ITEM
100
AcDbLine
 62
2
  6
CONTINUOUS
 10
216.8129892722
 20
357.5431041515
 11
219.2425830437
 21
339.6606132192
  0
LINE
  5
2D8
100
AcDbEntity
  8
ALL_DETAIL_ITEM
100
AcDbLine
 62
2
  6
CONTINUOUS
 10
206.5695637312
 20
560.2647454172
 11
207.8500092965
 21
548.1821213877
  0
LINE
  5
2D9
100
AcDbEntity
  8
ALL_DETAIL_ITEM
100
AcDbLine
 62
2
  6
CONTINUOUS
 10
210.7695637312
 20
524.2647454172
 11
211.9265516072
 21
513.3030619637
  0
LINE
  5
2DA
100
AcDbEntity
  8
ALL_DETAIL_ITEM
100
AcDbLine
 62
2
  6
CONTINUOUS
 10
205.7094459717
 20
573.466174071
 11
206.5695637312
 21
560.2647454172
  0
LINE
  5
2DB
100
AcDbEntity
  8
ALL_DETAIL_ITEM
100
AcDbLine
 62
2
  6
CONTINUOUS
 10
211.9265516072
 20
513.3030619637
 11
212.6299603032
 21
502.2926595572
  0
LINE
  5
2DC
100
AcDbEntity
  8
ALL_DETAIL_ITEM
100
AcDbLine
 62
2
  6
CONTINUOUS
 10
212.6299603032
 20
502.2926595572
 11
212.5695637312
 21
491.2647454172
  0
LINE
  5
2DD
100
AcDbEntity
  8
ALL_DETAIL_ITEM
100
AcDbLine
 62
2
  6
CONTINUOUS
 10
209.3084024135
 20
536.2178716785
 11
210.7695637312
 21
524.2647454172
  0
LINE
  5
2DE
100
AcDbEntity
  8
ALL_DETAIL_ITEM
100
AcDbLine
 62
2
  6
CONTINUOUS
 10
207.8500092965
 20
548.1821213877
 11
209.3084024135
 21
536.2178716785
  0
LINE
  5
2DF
100
AcDbEntity
  8
ALL_DETAIL_ITEM
100
AcDbLine
 62
2
  6
CONTINUOUS
 10
377.564581616
 20
311.339757717
 11
375.1695637312
 21
320.8647454172
  0
LINE
  5
2E0
100
AcDbEntity
  8
ALL_DETAIL_ITEM
100
AcDbLine
 62
2
  6
CONTINUOUS
 10
379.2102837775
 20
302.2860659502
 11
377.564581616
 21
311.339757717
  0
LINE
  5
2E1
100
AcDbEntity
  8
ALL_DETAIL_ITEM
100
AcDbLine
 62
2
  6
CONTINUOUS
 10
375.1695637312
 20
320.8647454172
 11
370.8559263875
 21
345.3213915972
  0
LINE
  5
2E2
100
AcDbEntity
  8
ALL_DETAIL_ITEM
100
AcDbLine
 62
2
  6
CONTINUOUS
 10
370.8559263875
 20
345.3213915972
 11
369.471128817
 21
368.6210551665
  0
LINE
  5
2E3
100
AcDbEntity
  8
ALL_DETAIL_ITEM
100
AcDbLine
 62
2
  6
CONTINUOUS
 10
374.750602446
 20
533.110401696
 11
376.5245347747
 21
546.3172279802
  0
LINE
  5
2E4
100
AcDbEntity
  8
ALL_DETAIL_ITEM
100
AcDbLine
 62
2
  6
CONTINUOUS
 10
369.471128817
 20
368.6210551665
 11
369.7695637312
 21
391.6647454172
  0
LINE
  5
2E5
100
AcDbEntity
  8
ALL_DETAIL_ITEM
100
AcDbLine
 62
2
  6
CONTINUOUS
 10
374.5695637312
 20
520.0647454172
 11
374.750602446
 21
533.110401696
  0
LINE
  5
2E6
100
AcDbEntity
  8
ALL_DETAIL_ITEM
100
AcDbLine
 62
2
  6
CONTINUOUS
 10
369.7695637312
 20
391.6647454172
 11
370.3804034062
 21
406.1575875365
  0
LINE
  5
2E7
100
AcDbEntity
  8
ALL_DETAIL_ITEM
100
AcDbLine
 62
2
  6
CONTINUOUS
 10
376.5245347747
 20
546.3172279802
 11
377.5695637312
 21
559.6647454172
  0
LINE
  5
2E8
100
AcDbEntity
  8
ALL_DETAIL_ITEM
100
AcDbLine
 62
2
  6
CONTINUOUS
 10
370.3804034062
 20
406.1575875365
 11
371.6251259687
 21
420.792722441
  0
LINE
  5
2E9
100
AcDbEntity
  8
ALL_DETAIL_ITEM
100
AcDbLine
 62
2
  6
CONTINUOUS
 10
371.6251259687
 20
420.792722441
 11
373.9695637312
 21
435.4647454172
  0
LINE
  5
2EA
100
AcDbEntity
  8
ALL_DETAIL_ITEM
100
AcDbLine
 62
2
  6
CONTINUOUS
 10
378.3448426815
 20
453.2151998467
 11
382.116500242
 21
470.827524214
  0
LINE
  5
2EB
100
AcDbEntity
  8
ALL_DETAIL_ITEM
100
AcDbLine
 62
2
  6
CONTINUOUS
 10
373.9695637312
 20
435.4647454172
 11
378.3448426815
 21
453.2151998467
  0
LINE
  5
2EC
100
AcDbEntity
  8
ALL_DETAIL_ITEM
100
AcDbLine
 62
2
  6
CONTINUOUS
 10
382.116500242
 20
470.827524214
 11
382.3695637312
 21
488.2647454172
  0
LINE
  5
2ED
100
AcDbEntity
  8
ALL_DETAIL_ITEM
100
AcDbLine
 62
2
  6
CONTINUOUS
 10
378.7695637312
 20
294.4647454172
 11
379.2102837775
 21
302.2860659502
  0
LINE
  5
2EE
100
AcDbEntity
  8
ALL_DETAIL_ITEM
100
AcDbLine
 62
2
  6
CONTINUOUS
 10
376.7636579382
 20
509.4314993727
 11
374.5695637312
 21
520.0647454172
  0
LINE
  5
2EF
100
AcDbEntity
  8
ALL_DETAIL_ITEM
100
AcDbLine
 62
2
  6
CONTINUOUS
 10
379.9274376305
 20
498.8540569725
 11
376.7636579382
 21
509.4314993727
  0
LINE
  5
2F0
100
AcDbEntity
  8
ALL_DETAIL_ITEM
100
AcDbLine
 62
2
  6
CONTINUOUS
 10
382.3695637312
 20
488.2647454172
 11
379.9274376305
 21
498.8540569725
  0
LINE
  5
2F1
100
AcDbEntity
  8
ALL_DETAIL_ITEM
100
AcDbLine
 62
2
  6
CONTINUOUS
 10
377.5695637312
 20
559.6647454172
 11
375.1773298527
 21
576.388587408
  0
LINE
  5
2F2
100
AcDbEntity
  8
ALL_DETAIL_ITEM
100
AcDbLine
 62
2
  6
CONTINUOUS
 10
375.1773298527
 20
576.388587408
 11
370.2122855942
 21
588.5389354415
  0
LINE
  5
2F3
100
AcDbEntity
  8
ALL_DETAIL_ITEM
100
AcDbLine
 62
2
  6
CONTINUOUS
 10
366.7266505482
 20
283.2428977262
 11
378.7695637312
 21
294.4647454172
  0
LINE
  5
2F4
100
AcDbEntity
  8
ALL_DETAIL_ITEM
100
AcDbLine
 62
2
  6
CENTER
 10
324.8914972127
 20
565.521006511
 11
324.8914972127
 21
504.7889354415
  0
LINE
  5
2F5
100
AcDbEntity
  8
ALL_DETAIL_ITEM
100
AcDbLine
 62
7
  6
CONTINUOUS
 10
314.3914972127
 20
315.0389354415
 11
335.3914972127
 21
315.0389354415
  0
LINE
  5
2F6
100
AcDbEntity
  8
ALL_DETAIL_ITEM
100
AcDbLine
 62
7
  6
CONTINUOUS
 10
309.9278094175
 20
336.0389354415
 11
339.8551850077
 21
336.0389354415
  0
LINE
  5
2F7
100
AcDbEntity
  8
ALL_DETAIL_ITEM
100
AcDbLine
 62
7
  6
CONTINUOUS
 10
324.8914972127
 20
554.3124381335
 11
314.8914972127
 21
548.5389354415
  0
LINE
  5
2F8
100
AcDbEntity
  8
ALL_DETAIL_ITEM
100
AcDbLine
 62
7
  6
CONTINUOUS
 10
331.0383722127
 20
341.0389354415
 11
318.7446222127
 21
341.0389354415
  0
LINE
  5
2F9
100
AcDbEntity
  8
ALL_DETAIL_ITEM
100
AcDbLine
 62
7
  6
CONTINUOUS
 10
332.3914972127
 20
341.8201625245
 11
317.3914972127
 21
341.8201625245
  0
LINE
  5
2FA
100
AcDbEntity
  8
ALL_DETAIL_ITEM
100
AcDbLine
 62
7
  6
CONTINUOUS
 10
234.397055678
 20
507.8874428322
 11
234.4921795927
 21
508.9747141547
  0
LINE
  5
2FB
100
AcDbEntity
  8
ALL_DETAIL_ITEM
100
AcDbLine
 62
7
  6
CONTINUOUS
 10
318.7446222127
 20
341.0389354415
 11
317.3914972127
 21
341.8201625245
  0
LINE
  5
2FC
100
AcDbEntity
  8
ALL_DETAIL_ITEM
100
AcDbLine
 62
7
  6
CONTINUOUS
 10
237.3914972127
 20
563.5389354415
 11
237.3914972127
 21
513.5389354415
  0
LINE
  5
2FD
100
AcDbEntity
  8
ALL_DETAIL_ITEM
100
AcDbLine
 62
7
  6
CONTINUOUS
 10
358.6194548327
 20
322.8590114392
 11
339.8551850077
 21
336.0389354415
  0
LINE
  5
2FE
100
AcDbEntity
  8
ALL_DETAIL_ITEM
100
AcDbLine
 62
7
  6
CONTINUOUS
 10
332.3914972127
 20
417.9139354415
 11
317.3914972127
 21
417.9139354415
  0
LINE
  5
2FF
100
AcDbEntity
  8
ALL_DETAIL_ITEM
100
AcDbLine
 62
7
  6
CONTINUOUS
 10
267.5571883722
 20
486.3461619135
 11
270.9540310162
 21
470.4551594262
  0
LINE
  5
300
100
AcDbEntity
  8
ALL_DETAIL_ITEM
100
AcDbLine
 62
7
  6
CONTINUOUS
 10
317.4175842605
 20
468.5389354415
 11
316.660435367
 21
467.7841789742
  0
LINE
  5
301
100
AcDbEntity
  8
ALL_DETAIL_ITEM
100
AcDbLine
 62
7
  6
CONTINUOUS
 10
316.660435367
 20
467.7841789742
 11
315.8268615947
 21
466.9527787095
  0
LINE
  5
302
100
AcDbEntity
  8
ALL_DETAIL_ITEM
100
AcDbLine
 62
7
  6
CONTINUOUS
 10
315.8268615947
 20
466.9527787095
 11
314.9110475735
 21
466.038935425
  0
LINE
  5
303
100
AcDbEntity
  8
ALL_DETAIL_ITEM
100
AcDbLine
 62
7
  6
CONTINUOUS
 10
329.8914972127
 20
428.5389354415
 11
319.8914972127
 21
428.5389354415
  0
LINE
  5
304
100
AcDbEntity
  8
ALL_DETAIL_ITEM
100
AcDbLine
 62
7
  6
CONTINUOUS
 10
334.8914972127
 20
433.5389354415
 11
314.8914972127
 21
433.5389354415
  0
LINE
  5
305
100
AcDbEntity
  8
ALL_DETAIL_ITEM
100
AcDbLine
 62
7
  6
CONTINUOUS
 10
310.2316216187
 20
336.0389354415
 11
311.8723327855
 21
328.4957696397
  0
LINE
  5
306
100
AcDbEntity
  8
ALL_DETAIL_ITEM
100
AcDbLine
 62
7
  6
CONTINUOUS
 10
311.8723327855
 20
328.4957696397
 11
313.4031629167
 21
321.5011059885
  0
LINE
  5
307
100
AcDbEntity
  8
ALL_DETAIL_ITEM
100
AcDbLine
 62
7
  6
CONTINUOUS
 10
313.4031629167
 20
321.5011059885
 11
314.829191314
 21
315.0389354415
  0
LINE
  5
308
100
AcDbEntity
  8
ALL_DETAIL_ITEM
100
AcDbLine
 62
7
  6
CONTINUOUS
 10
278.2883398565
 20
472.0229329542
 11
274.8914972127
 21
487.9139354415
  0
LINE
  5
309
100
AcDbEntity
  8
ALL_DETAIL_ITEM
100
AcDbLine
 62
7
  6
CONTINUOUS
 10
299.8914972127
 20
487.9139354415
 11
298.4248674775
 21
508.8877178102
  0
LINE
  5
30A
100
AcDbEntity
  8
ALL_DETAIL_ITEM
100
AcDbLine
 62
7
  6
CONTINUOUS
 10
314.3914972127
 20
310.7889354415
 11
314.3914972127
 21
315.0389354415
  0
LINE
  5
30B
100
AcDbEntity
  8
ALL_DETAIL_ITEM
100
AcDbLine
 62
7
  6
CONTINUOUS
 10
314.8914972127
 20
548.5389354415
 11
314.8914972127
 21
513.5389354415
  0
LINE
  5
30C
100
AcDbEntity
  8
ALL_DETAIL_ITEM
100
AcDbLine
 62
7
  6
CONTINUOUS
 10
314.8914972127
 20
433.5389354415
 11
314.8914972127
 21
451.0389354415
  0
LINE
  5
30D
100
AcDbEntity
  8
ALL_DETAIL_ITEM
100
AcDbLine
 62
7
  6
CONTINUOUS
 10
314.9110475735
 20
451.0389354415
 11
314.9110475735
 21
456.0389354415
  0
LINE
  5
30E
100
AcDbEntity
  8
ALL_DETAIL_ITEM
100
AcDbLine
 62
7
  6
CONTINUOUS
 10
314.9110475735
 20
461.0389354415
 11
314.9110475735
 21
466.038935425
  0
LINE
  5
30F
100
AcDbEntity
  8
ALL_DETAIL_ITEM
100
AcDbLine
 62
7
  6
CONTINUOUS
 10
315.662636232
 20
456.0389354415
 11
315.662636232
 21
461.0389354415
  0
LINE
  5
310
100
AcDbEntity
  8
ALL_DETAIL_ITEM
100
AcDbLine
 62
7
  6
CONTINUOUS
 10
317.3914972127
 20
341.8201625245
 11
317.3914972127
 21
417.9139354415
  0
LINE
  5
311
100
AcDbEntity
  8
ALL_DETAIL_ITEM
100
AcDbLine
 62
7
  6
CONTINUOUS
 10
314.891497211
 20
451.0389354415
 11
314.9110475735
 21
451.0389354415
  0
LINE
  5
312
100
AcDbEntity
  8
ALL_DETAIL_ITEM
100
AcDbLine
 62
7
  6
CONTINUOUS
 10
324.2664972127
 20
451.0389354415
 11
325.5164972127
 21
451.0389354415
  0
LINE
  5
313
100
AcDbEntity
  8
ALL_DETAIL_ITEM
100
AcDbLine
 62
7
  6
CONTINUOUS
 10
334.8719468517
 20
451.0389354415
 11
334.8914972145
 21
451.0389354415
  0
LINE
  5
314
100
AcDbEntity
  8
ALL_DETAIL_ITEM
100
AcDbLine
 62
7
  6
CONTINUOUS
 10
334.8719468517
 20
456.0389354415
 11
325.5164972127
 21
456.0389354415
  0
LINE
  5
315
100
AcDbEntity
  8
ALL_DETAIL_ITEM
100
AcDbLine
 62
7
  6
CONTINUOUS
 10
324.2664972127
 20
456.0389354415
 11
314.9110475735
 21
456.0389354415
  0
LINE
  5
316
100
AcDbEntity
  8
ALL_DETAIL_ITEM
100
AcDbLine
 62
7
  6
CONTINUOUS
 10
325.5165285137
 20
457.2889354415
 11
324.2664659237
 21
457.2889354415
  0
LINE
  5
317
100
AcDbEntity
  8
ALL_DETAIL_ITEM
100
AcDbLine
 62
7
  6
CONTINUOUS
 10
332.3914972127
 20
417.9139354415
 11
330.1843904315
 21
420.1210422227
  0
LINE
  5
318
100
AcDbEntity
  8
ALL_DETAIL_ITEM
100
AcDbLine
 62
7
  6
CONTINUOUS
 10
302.0362423602
 20
474.5427795127
 11
303.6040158882
 21
467.2084706722
  0
LINE
  5
319
100
AcDbEntity
  8
ALL_DETAIL_ITEM
100
AcDbLine
 62
7
  6
CONTINUOUS
 10
319.8914972127
 20
420.8281490037
 11
319.8914972127
 21
428.5389354415
  0
LINE
  5
31A
100
AcDbEntity
  8
ALL_DETAIL_ITEM
100
AcDbLine
 62
7
  6
CONTINUOUS
 10
324.2664972127
 20
451.0389354415
 11
324.2664972127
 21
468.5389354415
  0
LINE
  5
31B
100
AcDbEntity
  8
ALL_DETAIL_ITEM
100
AcDbLine
 62
7
  6
CONTINUOUS
 10
325.5164972127
 20
451.0389354415
 11
325.5164972127
 21
468.5389354415
  0
LINE
  5
31C
100
AcDbEntity
  8
ALL_DETAIL_ITEM
100
AcDbLine
 62
7
  6
CONTINUOUS
 10
329.8914972127
 20
420.8281490037
 11
329.8914972127
 21
428.5389354415
  0
LINE
  5
31D
100
AcDbEntity
  8
ALL_DETAIL_ITEM
100
AcDbLine
 62
7
  6
CONTINUOUS
 10
317.3914972127
 20
417.9139354415
 11
319.5986039937
 21
420.1210422227
  0
LINE
  5
31E
100
AcDbEntity
  8
ALL_DETAIL_ITEM
100
AcDbLine
 62
7
  6
CONTINUOUS
 10
282.823474174
 20
462.7664456765
 11
356.166562577
 21
478.4441809562
  0
LINE
  5
31F
100
AcDbEntity
  8
ALL_DETAIL_ITEM
100
AcDbLine
 62
7
  6
CONTINUOUS
 10
334.8719468517
 20
461.0389354415
 11
325.5164972127
 21
461.0389354415
  0
LINE
  5
320
100
AcDbEntity
  8
ALL_DETAIL_ITEM
100
AcDbLine
 62
7
  6
CONTINUOUS
 10
324.2664972127
 20
461.0389354415
 11
314.9110475735
 21
461.0389354415
  0
LINE
  5
321
100
AcDbEntity
  8
ALL_DETAIL_ITEM
100
AcDbLine
 62
7
  6
CONTINUOUS
 10
334.8719468517
 20
466.038935425
 11
325.5164972127
 21
466.038935425
  0
LINE
  5
322
100
AcDbEntity
  8
ALL_DETAIL_ITEM
100
AcDbLine
 62
7
  6
CONTINUOUS
 10
324.2664972127
 20
466.038935425
 11
314.9110475735
 21
466.038935425
  0
LINE
  5
323
100
AcDbEntity
  8
ALL_DETAIL_ITEM
100
AcDbLine
 62
7
  6
CONTINUOUS
 10
317.4175842605
 20
468.5389354415
 11
324.2664972127
 21
468.5389354415
  0
LINE
  5
324
100
AcDbEntity
  8
ALL_DETAIL_ITEM
100
AcDbLine
 62
7
  6
CONTINUOUS
 10
325.5164972127
 20
468.5389354415
 11
332.3654101647
 21
468.5389354415
  0
LINE
  5
325
100
AcDbEntity
  8
ALL_DETAIL_ITEM
100
AcDbLine
 62
7
  6
CONTINUOUS
 10
332.3914972127
 20
341.8201625245
 11
332.3914972127
 21
417.9139354415
  0
LINE
  5
326
100
AcDbEntity
  8
ALL_DETAIL_ITEM
100
AcDbLine
 62
7
  6
CONTINUOUS
 10
334.1203581932
 20
456.0389354415
 11
334.1203581932
 21
461.0389354415
  0
LINE
  5
327
100
AcDbEntity
  8
ALL_DETAIL_ITEM
100
AcDbLine
 62
7
  6
CONTINUOUS
 10
334.8719468517
 20
451.0389354415
 11
334.8719468517
 21
456.0389354415
  0
LINE
  5
328
100
AcDbEntity
  8
ALL_DETAIL_ITEM
100
AcDbLine
 62
7
  6
CONTINUOUS
 10
334.8719468517
 20
461.0389354415
 11
334.8719468517
 21
466.038935425
  0
LINE
  5
329
100
AcDbEntity
  8
ALL_DETAIL_ITEM
100
AcDbLine
 62
7
  6
CONTINUOUS
 10
334.8914972127
 20
548.5389354415
 11
334.8914972127
 21
513.5389354415
  0
LINE
  5
32A
100
AcDbEntity
  8
ALL_DETAIL_ITEM
100
AcDbLine
 62
7
  6
CONTINUOUS
 10
334.8914972127
 20
433.5389354415
 11
334.8914972127
 21
451.0389354415
  0
LINE
  5
32B
100
AcDbEntity
  8
ALL_DETAIL_ITEM
100
AcDbLine
 62
7
  6
CONTINUOUS
 10
335.3914972127
 20
315.0389354415
 11
335.3914972127
 21
310.7889354415
  0
LINE
  5
32C
100
AcDbEntity
  8
ALL_DETAIL_ITEM
100
AcDbLine
 62
7
  6
CONTINUOUS
 10
281.255700646
 20
470.1007545167
 11
354.598789049
 21
485.7784897965
  0
LINE
  5
32D
100
AcDbEntity
  8
ALL_DETAIL_ITEM
100
AcDbLine
 62
7
  6
CONTINUOUS
 10
240.6836463792
 20
478.2052546015
 11
213.4820618152
 21
476.8955534755
  0
LINE
  5
32E
100
AcDbEntity
  8
ALL_DETAIL_ITEM
100
AcDbLine
 62
7
  6
CONTINUOUS
 10
274.8914972127
 20
487.9139354415
 11
267.5571883722
 21
486.3461619135
  0
LINE
  5
32F
100
AcDbEntity
  8
ALL_DETAIL_ITEM
100
AcDbLine
 62
7
  6
CONTINUOUS
 10
255.8783583427
 20
487.9139354415
 11
299.8914972127
 21
487.9139354415
  0
LINE
  5
330
100
AcDbEntity
  8
ALL_DETAIL_ITEM
100
AcDbLine
 62
7
  6
CONTINUOUS
 10
334.8719468517
 20
466.038935425
 11
333.9561445527
 21
466.9527670152
  0
LINE
  5
331
100
AcDbEntity
  8
ALL_DETAIL_ITEM
100
AcDbLine
 62
7
  6
CONTINUOUS
 10
333.9561445527
 20
466.9527670152
 11
333.122569245
 21
467.784168817
  0
LINE
  5
332
100
AcDbEntity
  8
ALL_DETAIL_ITEM
100
AcDbLine
 62
7
  6
CONTINUOUS
 10
333.122569245
 20
467.784168817
 11
332.3654101647
 21
468.5389354415
  0
LINE
  5
333
100
AcDbEntity
  8
ALL_DETAIL_ITEM
100
AcDbLine
 62
7
  6
CONTINUOUS
 10
343.5973257885
 20
483.4268295045
 11
345.1650993165
 21
476.0925206642
  0
LINE
  5
334
100
AcDbEntity
  8
ALL_DETAIL_ITEM
100
AcDbLine
 62
7
  6
CONTINUOUS
 10
334.9538031115
 20
315.0389354415
 11
336.3784967235
 21
321.4950300877
  0
LINE
  5
335
100
AcDbEntity
  8
ALL_DETAIL_ITEM
100
AcDbLine
 62
7
  6
CONTINUOUS
 10
336.3784967235
 20
321.4950300877
 11
337.9092772742
 21
328.489423045
  0
LINE
  5
336
100
AcDbEntity
  8
ALL_DETAIL_ITEM
100
AcDbLine
 62
7
  6
CONTINUOUS
 10
337.9092772742
 20
328.489423045
 11
339.5513728065
 21
336.0389354415
  0
LINE
  5
337
100
AcDbEntity
  8
ALL_DETAIL_ITEM
100
AcDbLine
 62
7
  6
CONTINUOUS
 10
358.890660155
 20
513.5389354415
 11
351.5563513145
 21
511.9711619135
  0
LINE
  5
338
100
AcDbEntity
  8
ALL_DETAIL_ITEM
100
AcDbLine
 62
7
  6
CONTINUOUS
 10
212.6161681202
 20
502.5085475417
 11
229.656543486
 21
503.329007054
  0
LINE
  5
339
100
AcDbEntity
  8
ALL_DETAIL_ITEM
100
AcDbLine
 62
7
  6
CONTINUOUS
 10
211.9016555447
 20
513.5389354415
 11
375.916117907
 21
513.5389354415
  0
LINE
  5
33A
100
AcDbEntity
  8
ALL_DETAIL_ITEM
100
AcDbLine
 62
7
  6
CONTINUOUS
 10
351.5563513145
 20
511.9711619135
 11
356.5209674865
 21
488.7458505857
  0
LINE
  5
33B
100
AcDbEntity
  8
ALL_DETAIL_ITEM
100
AcDbLine
 62
7
  6
CONTINUOUS
 10
363.8552763267
 20
490.3136241137
 11
358.890660155
 21
513.5389354415
  0
LINE
  5
33C
100
AcDbEntity
  8
ALL_DETAIL_ITEM
100
AcDbLine
 62
7
  6
CONTINUOUS
 10
309.9278094175
 20
336.0389354415
 11
291.1635395925
 21
322.8590114392
  0
LINE
  5
33D
100
AcDbEntity
  8
ALL_DETAIL_ITEM
100
AcDbLine
 62
7
  6
CONTINUOUS
 10
331.0383722127
 20
341.0389354415
 11
332.3914972127
 21
341.8201625245
  0
LINE
  5
33E
100
AcDbEntity
  8
ALL_DETAIL_ITEM
100
AcDbLine
 62
7
  6
CONTINUOUS
 10
334.8914972127
 20
548.5389354415
 11
314.8914972127
 21
548.5389354415
  0
LINE
  5
33F
100
AcDbEntity
  8
ALL_DETAIL_ITEM
100
AcDbLine
 62
7
  6
CONTINUOUS
 10
324.8914972127
 20
554.3124381335
 11
334.8914972127
 21
548.5389354415
  0
LINE
  5
340
100
AcDbEntity
  8
ALL_DETAIL_ITEM
100
AcDbLine
 62
7
  6
CONTINUOUS
 10
206.6248050772
 20
588.5389354415
 11
370.2122855942
 21
588.5389354415
  0
ARC
  5
341
100
AcDbEntity
  8
ALL_DETAIL_ITEM
100
AcDbCircle
 62
7
  6
CONTINUOUS
 10
262.3914972127
 20
563.5389354415
 40
25.0
100
AcDbArc
 50
90.0
 51
180.0
  0
ARC
  5
342
100
AcDbEntity
  8
ALL_DETAIL_ITEM
100
AcDbCircle
 62
7
  6
CONTINUOUS
 10
214.5641376577
 20
454.421588274
 40
22.5
100
AcDbArc
 50
92.75654679
 51
99.756306426
  0
ARC
  5
343
100
AcDbEntity
  8
ALL_DETAIL_ITEM
100
AcDbCircle
 62
7
  6
CONTINUOUS
 10
350.1414972127
 20
310.7889354415
 40
14.75
100
AcDbArc
 50
180.0
 51
54.9159979915
  0
ARC
  5
344
100
AcDbEntity
  8
ALL_DETAIL_ITEM
100
AcDbCircle
 62
7
  6
CONTINUOUS
 10
299.6414972127
 20
310.7889354415
 40
14.75
100
AcDbArc
 50
125.0840020085
 51
360.0
  0
ARC
  5
345
100
AcDbEntity
  8
ALL_DETAIL_ITEM
100
AcDbCircle
 62
7
  6
CONTINUOUS
 10
354.076197873
 20
488.22325941
 40
10.0
100
AcDbArc
 50
282.0658929334
 51
12.0658929334
  0
ARC
  5
346
100
AcDbEntity
  8
ALL_DETAIL_ITEM
100
AcDbCircle
 62
7
  6
CONTINUOUS
 10
280.73310947
 20
472.5455241302
 40
10.0
100
AcDbArc
 50
192.0658929334
 51
282.0658929334
  0
ARC
  5
347
100
AcDbEntity
  8
ALL_DETAIL_ITEM
100
AcDbCircle
 62
7
  6
CONTINUOUS
 10
240.2027237827
 20
488.193683579
 40
10.0
100
AcDbArc
 50
272.75654679
 51
333.604998428
  0
ARC
  5
348
100
AcDbEntity
  8
ALL_DETAIL_ITEM
100
AcDbCircle
 62
7
  6
CONTINUOUS
 10
255.8783583427
 20
480.4139354415
 40
7.5
100
AcDbArc
 50
90.0
 51
153.604998428
  0
ARC
  5
349
100
AcDbEntity
  8
ALL_DETAIL_ITEM
100
AcDbCircle
 62
7
  6
CONTINUOUS
 10
293.4370472252
 20
508.5389354415
 40
5.0
100
AcDbArc
 50
3.999999999
 51
89.9999999883
  0
ARC
  5
34A
100
AcDbEntity
  8
ALL_DETAIL_ITEM
100
AcDbCircle
 62
7
  6
CONTINUOUS
 10
239.4731530827
 20
508.5389354415
 40
5.0
100
AcDbArc
 50
90.0000000117
 51
175.000000006
  0
ARC
  5
34B
100
AcDbEntity
  8
ALL_DETAIL_ITEM
100
AcDbCircle
 62
7
  6
CONTINUOUS
 10
229.4160821877
 20
508.323221544
 40
5.0
100
AcDbArc
 50
272.7565467901
 51
355.000000024
  0
ARC
  5
34C
100
AcDbEntity
  8
ALL_DETAIL_ITEM
100
AcDbCircle
 62
7
  6
CONTINUOUS
 10
280.73310947
 20
472.5455241302
 40
2.5
100
AcDbArc
 50
192.0658929334
 51
282.0658929334
  0
ARC
  5
34D
100
AcDbEntity
  8
ALL_DETAIL_ITEM
100
AcDbCircle
 62
7
  6
CONTINUOUS
 10
354.076197873
 20
488.22325941
 40
2.5
100
AcDbArc
 50
282.0658929334
 51
12.0658929334
  0
ARC
  5
34E
100
AcDbEntity
  8
ALL_DETAIL_ITEM
100
AcDbCircle
 62
7
  6
CONTINUOUS
 10
330.8914972127
 20
420.8281490037
 40
1.0
100
AcDbArc
 50
180.0
 51
225.0
  0
ARC
  5
34F
100
AcDbEntity
  8
ALL_DETAIL_ITEM
100
AcDbCircle
 62
7
  6
CONTINUOUS
 10
318.8914972127
 20
420.8281490037
 40
1.0
100
AcDbArc
 50
315.0
 51
360.0
  0
ENDBLK
  5
350
100
AcDbEntity
  8
0
  6
BYBLOCK
 62
0
100
AcDbBlockEnd
  0
BLOCK
  5
351
100
AcDbEntity
  8
ALL_DETAIL_ITEM
100
AcDbBlockBegin
 62
2
  6
CONTINUOUS
  2
B2B_NASLOV_RISBE_BL0
 70
64
 10
689.3997256125
 20
179.8017686006
  3
B2B_NASLOV_RISBE_BL0
  1

  0
TEXT
  5
352
100
AcDbEntity
  8
ALL_DETAIL_ITEM
100
AcDbText
 62
7
  6
CONTINUOUS
 10
557.9058769173
 20
259.5288430933
  7
STANDARD
 40
25.0
  1
Cut-out 730x430-R8 G-U
 41
0.7478354978
 72
0
100
AcDbText
  0
TEXT
  5
353
100
AcDbEntity
  8
ALL_DETAIL_ITEM
100
AcDbText
 62
7
  6
CONTINUOUS
 10
643.2721734933
 20
228.4475351467
  7
STANDARD
 40
17.5
  1
1:5
 41
0.6111111111
 72
0
100
AcDbText
  0
TEXT
  5
354
100
AcDbEntity
  8
ALL_DETAIL_ITEM
100
AcDbText
 62
7
  6
CONTINUOUS
 10
643.04847728
 20
198.1822167467
  7
STANDARD
 40
17.5
  1
A4
 41
0.9166666667
 72
0
100
AcDbText
  0
TEXT
  5
355
100
AcDbEntity
  8
ALL_DETAIL_ITEM
100
AcDbText
 62
7
  6
CONTINUOUS
 10
558.170839364
 20
153.4629435142
  7
STANDARD
 40
12.5
  1
1135285_01
 41
0.719047619
 72
0
100
AcDbText
  0
TEXT
  5
356
100
AcDbEntity
  8
ALL_DETAIL_ITEM
100
AcDbText
 62
7
  6
CONTINUOUS
 10
558.0664328782
 20
174.4466141953
  7
STANDARD
 40
12.5
  1
29.05.2020
 41
0.7547619048
 72
0
100
AcDbText
  0
TEXT
  5
357
100
AcDbEntity
  8
ALL_DETAIL_ITEM
100
AcDbText
 62
5
  6
CONTINUOUS
 10
557.864890464
 20
228.79706048
  7
STANDARD
 40
17.5
  1
Scale:
 41
0.6507936508
 72
0
100
AcDbText
  0
TEXT
  5
358
100
AcDbEntity
  8
ALL_DETAIL_ITEM
100
AcDbText
 62
5
  6
CONTINUOUS
 10
557.7250803307
 20
198.48979904
  7
STANDARD
 40
17.5
  1
Format:
 41
0.6904761905
 72
0
100
AcDbText
  0
TEXT
  5
359
100
AcDbEntity
  8
ALL_DETAIL_ITEM
100
AcDbText
 62
5
  6
CONTINUOUS
 10
409.5840504982
 20
75.074694108
  7
STANDARD
 40
10.0
  1
Subject to modifications. Latest version is on the internet.
 41
0.676984127
 72
0
100
AcDbText
  0
LINE
  5
35A
100
AcDbEntity
  8
ALL_DETAIL_ITEM
100
AcDbLine
 62
4
  6
CONTINUOUS
 10
579.7091810412
 20
133.9496796182
 11
561.6321894514
 21
103.4104372967
  0
LINE
  5
35B
100
AcDbEntity
  8
ALL_DETAIL_ITEM
100
AcDbLine
 62
4
  6
CONTINUOUS
 10
580.9999951887
 20
130.2408455402
 11
564.2138177457
 21
101.8823026929
  0
LINE
  5
35C
100
AcDbEntity
  8
ALL_DETAIL_ITEM
100
AcDbLine
 62
4
  6
CONTINUOUS
 10
580.9999951887
 20
130.2408455402
 11
597.7861726309
 21
101.8823026929
  0
LINE
  5
35D
100
AcDbEntity
  8
ALL_DETAIL_ITEM
100
AcDbLine
 62
4
  6
CONTINUOUS
 10
610.0523405232
 20
132.8890009194
 11
610.0523405232
 21
103.0421886107
  0
LINE
  5
35E
100
AcDbEntity
  8
ALL_DETAIL_ITEM
100
AcDbLine
 62
4
  6
CONTINUOUS
 10
582.2908093362
 20
133.9496796182
 11
600.3678009259
 21
103.4104372967
  0
LINE
  5
35F
100
AcDbEntity
  8
ALL_DETAIL_ITEM
100
AcDbLine
 62
4
  6
CONTINUOUS
 10
613.0523405262
 20
132.8890009194
 11
613.0523405262
 21
104.5421886129
  0
LINE
  5
360
100
AcDbEntity
  8
ALL_DETAIL_ITEM
100
AcDbLine
 62
4
  6
CONTINUOUS
 10
654.3562285347
 20
101.7682193079
 11
636.2300843209
 21
132.2011543719
  0
LINE
  5
361
100
AcDbEntity
  8
ALL_DETAIL_ITEM
100
AcDbLine
 62
4
  6
CONTINUOUS
 10
655.6449574639
 20
105.4670922602
 11
638.8075421802
 21
133.7363126717
  0
LINE
  5
362
100
AcDbEntity
  8
ALL_DETAIL_ITEM
100
AcDbLine
 62
4
  6
CONTINUOUS
 10
655.6449574639
 20
105.4670922602
 11
672.4823727477
 21
133.7363126717
  0
LINE
  5
363
100
AcDbEntity
  8
ALL_DETAIL_ITEM
100
AcDbLine
 62
4
  6
CONTINUOUS
 10
656.9336863932
 20
101.7682193079
 11
675.0598306069
 21
132.2011543719
  0
LINE
  5
364
100
AcDbEntity
  8
ALL_DETAIL_ITEM
100
AcDbLine
 62
4
  6
CONTINUOUS
 10
611.5523405247
 20
101.5421886092
 11
638.4303407584
 21
101.5421886092
  0
LINE
  5
365
100
AcDbEntity
  8
ALL_DETAIL_ITEM
100
AcDbLine
 62
4
  6
CONTINUOUS
 10
802.6379830129
 20
101.5428223524
 11
774.5211837019
 21
101.5428223524
  0
LINE
  5
366
100
AcDbEntity
  8
ALL_DETAIL_ITEM
100
AcDbLine
 62
4
  6
CONTINUOUS
 10
685.2282940624
 20
101.5457954589
 11
715.3246339767
 21
101.5486133867
  0
LINE
  5
367
100
AcDbEntity
  8
ALL_DETAIL_ITEM
100
AcDbLine
 62
4
  6
CONTINUOUS
 10
733.7077545034
 20
101.5528065722
 11
755.1097591482
 21
101.5528065722
  0
LINE
  5
368
100
AcDbEntity
  8
ALL_DETAIL_ITEM
100
AcDbLine
 62
4
  6
CONTINUOUS
 10
638.4303407584
 20
104.5421886129
 11
613.0523405262
 21
104.5421886129
  0
LINE
  5
369
100
AcDbEntity
  8
ALL_DETAIL_ITEM
100
AcDbLine
 62
4
  6
CONTINUOUS
 10
802.6379830129
 20
104.5428223562
 11
774.5211837019
 21
104.5428223562
  0
LINE
  5
36A
100
AcDbEntity
  8
ALL_DETAIL_ITEM
100
AcDbLine
 62
4
  6
CONTINUOUS
 10
686.7281536159
 20
104.5459359077
 11
715.3243530859
 21
104.5486133769
  0
LINE
  5
36B
100
AcDbEntity
  8
ALL_DETAIL_ITEM
100
AcDbLine
 62
4
  6
CONTINUOUS
 10
755.1097591482
 20
104.5528065759
 11
733.7077545034
 21
104.5528065759
  0
LINE
  5
36C
100
AcDbEntity
  8
ALL_DETAIL_ITEM
100
AcDbLine
 62
4
  6
CONTINUOUS
 10
683.7281536159
 20
132.4577736939
 11
683.7281536159
 21
103.0457954544
  0
LINE
  5
36D
100
AcDbEntity
  8
ALL_DETAIL_ITEM
100
AcDbLine
 62
4
  6
CONTINUOUS
 10
686.7281536159
 20
130.9577248817
 11
686.7281536159
 21
119.2508159154
  0
LINE
  5
36E
100
AcDbEntity
  8
ALL_DETAIL_ITEM
100
AcDbLine
 62
4
  6
CONTINUOUS
 10
686.7281536159
 20
116.2508159124
 11
686.7281536159
 21
104.5459359077
  0
LINE
  5
36F
100
AcDbEntity
  8
ALL_DETAIL_ITEM
100
AcDbLine
 62
4
  6
CONTINUOUS
 10
780.8816511214
 20
116.2497780407
 11
802.6379830129
 21
116.2508186042
  0
LINE
  5
370
100
AcDbEntity
  8
ALL_DETAIL_ITEM
100
AcDbLine
 62
4
  6
CONTINUOUS
 10
686.7281536159
 20
116.2508159124
 11
713.8839790782
 21
116.2508159124
  0
LINE
  5
371
100
AcDbEntity
  8
ALL_DETAIL_ITEM
100
AcDbLine
 62
4
  6
CONTINUOUS
 10
802.6379830129
 20
119.2508186072
 11
780.8816511214
 21
119.2497780437
  0
LINE
  5
372
100
AcDbEntity
  8
ALL_DETAIL_ITEM
100
AcDbLine
 62
4
  6
CONTINUOUS
 10
686.7281536159
 20
119.2508159154
 11
713.8839790782
 21
119.2508159154
  0
LINE
  5
373
100
AcDbEntity
  8
ALL_DETAIL_ITEM
100
AcDbLine
 62
4
  6
CONTINUOUS
 10
686.7281536159
 20
130.9577248817
 11
715.3262533962
 21
130.9567943019
  0
LINE
  5
374
100
AcDbEntity
  8
ALL_DETAIL_ITEM
100
AcDbLine
 62
4
  6
CONTINUOUS
 10
780.8816511214
 20
130.9577742849
 11
807.5588913357
 21
130.9577742849
  0
LINE
  5
375
100
AcDbEntity
  8
ALL_DETAIL_ITEM
100
AcDbLine
 62
4
  6
CONTINUOUS
 10
685.2282024274
 20
133.9577736947
 11
715.3263510162
 21
133.9567943042
  0
LINE
  5
376
100
AcDbEntity
  8
ALL_DETAIL_ITEM
100
AcDbLine
 62
4
  6
CONTINUOUS
 10
780.8816511214
 20
133.9577742887
 11
807.5588913357
 21
133.9577742887
  0
LINE
  5
377
100
AcDbEntity
  8
ALL_DETAIL_ITEM
100
AcDbLine
 62
4
  6
CONTINUOUS
 10
725.4577516557
 20
108.1562664797
 11
725.4571463757
 21
132.9154998099
  0
LINE
  5
378
100
AcDbEntity
  8
ALL_DETAIL_ITEM
100
AcDbLine
 62
4
  6
CONTINUOUS
 10
728.4577516579
 20
108.1563398199
 11
728.4571463787
 21
132.9154998099
  0
LINE
  5
379
100
AcDbEntity
  8
ALL_DETAIL_ITEM
100
AcDbLine
 62
4
  6
CONTINUOUS
 10
760.3603672767
 20
132.9154998099
 11
760.3597619937
 21
108.1563398192
  0
LINE
  5
37A
100
AcDbEntity
  8
ALL_DETAIL_ITEM
100
AcDbLine
 62
4
  6
CONTINUOUS
 10
763.3603672797
 20
132.9154998099
 11
763.3597619959
 21
108.1562664789
  0
LINE
  5
37B
100
AcDbEntity
  8
ALL_DETAIL_ITEM
100
AcDbLine
 62
4
  6
CONTINUOUS
 10
772.6316631747
 20
122.8526567657
 11
772.6316631747
 21
127.3548955629
  0
LINE
  5
37C
100
AcDbEntity
  8
ALL_DETAIL_ITEM
100
AcDbLine
 62
4
  6
CONTINUOUS
 10
775.6316631784
 20
122.8526567657
 11
775.6316631784
 21
127.3548955629
  0
LINE
  5
37D
100
AcDbEntity
  8
ALL_DETAIL_ITEM
100
AcDbLine
 62
4
  6
CONTINUOUS
 10
807.8879709619
 20
112.6479398784
 11
807.8879709619
 21
108.1457010812
  0
LINE
  5
37E
100
AcDbEntity
  8
ALL_DETAIL_ITEM
100
AcDbLine
 62
4
  6
CONTINUOUS
 10
810.8879709657
 20
112.6479398784
 11
810.8879709657
 21
108.1457010812
  0
ARC
  5
37F
100
AcDbEntity
  8
ALL_DETAIL_ITEM
100
AcDbCircle
 62
4
  6
CONTINUOUS
 10
685.2281536174
 20
103.0457954544
 40
1.5000000015
100
AcDbArc
 50
180.0
 51
270.0053646182
  0
ARC
  5
380
100
AcDbEntity
  8
ALL_DETAIL_ITEM
100
AcDbCircle
 62
4
  6
CONTINUOUS
 10
611.5523405247
 20
103.0421886107
 40
1.5000000015
100
AcDbArc
 50
180.0
 51
270.0
  0
ARC
  5
381
100
AcDbEntity
  8
ALL_DETAIL_ITEM
100
AcDbCircle
 62
4
  6
CONTINUOUS
 10
638.4303407584
 20
103.0421886107
 40
1.5000000015
100
AcDbArc
 50
270.0
 51
90.0
  0
ARC
  5
382
100
AcDbEntity
  8
ALL_DETAIL_ITEM
100
AcDbCircle
 62
4
  6
CONTINUOUS
 10
655.6449574639
 20
102.5357984574
 40
1.5000000015
100
AcDbArc
 50
210.7784283087
 51
329.2215716913
  0
ARC
  5
383
100
AcDbEntity
  8
ALL_DETAIL_ITEM
100
AcDbCircle
 62
4
  6
CONTINUOUS
 10
562.9230035982
 20
102.6463699944
 40
1.5000000015
100
AcDbArc
 50
149.3775791193
 51
329.3775791193
  0
ARC
  5
384
100
AcDbEntity
  8
ALL_DETAIL_ITEM
100
AcDbCircle
 62
4
  6
CONTINUOUS
 10
599.0769867784
 20
102.6463699944
 40
1.5000000015
100
AcDbArc
 50
210.6224208807
 51
30.6224208807
  0
ARC
  5
385
100
AcDbEntity
  8
ALL_DETAIL_ITEM
100
AcDbCircle
 62
4
  6
CONTINUOUS
 10
685.2281536174
 20
132.4577736939
 40
1.5000000015
100
AcDbArc
 50
89.9981356008
 51
180.0
  0
ARC
  5
386
100
AcDbEntity
  8
ALL_DETAIL_ITEM
100
AcDbCircle
 62
4
  6
CONTINUOUS
 10
611.5523405247
 20
132.8890009194
 40
1.5000000015
100
AcDbArc
 50
0.0
 51
180.0
  0
ARC
  5
387
100
AcDbEntity
  8
ALL_DETAIL_ITEM
100
AcDbCircle
 62
4
  6
CONTINUOUS
 10
673.7711016777
 20
132.9687335214
 40
1.5000000015
100
AcDbArc
 50
329.2215716913
 51
149.2215716913
  0
ARC
  5
388
100
AcDbEntity
  8
ALL_DETAIL_ITEM
100
AcDbCircle
 62
4
  6
CONTINUOUS
 10
637.5188132502
 20
132.9687335214
 40
1.5000000015
100
AcDbArc
 50
30.7784283087
 51
210.7784283087
  0
ARC
  5
389
100
AcDbEntity
  8
ALL_DETAIL_ITEM
100
AcDbCircle
 62
4
  6
CONTINUOUS
 10
580.9999951887
 20
133.1856123159
 40
1.5000000015
100
AcDbArc
 50
30.6224208807
 51
149.3775791193
  0
ARC
  5
38A
100
AcDbEntity
  8
ALL_DETAIL_ITEM
100
AcDbCircle
 62
4
  6
CONTINUOUS
 10
802.6379830129
 20
112.0428223562
 40
10.5000000038
100
AcDbArc
 50
270.0
 51
299.9998228245
  0
ARC
  5
38B
100
AcDbEntity
  8
ALL_DETAIL_ITEM
100
AcDbCircle
 62
4
  6
CONTINUOUS
 10
802.6379830129
 20
108.7508186042
 40
10.5000000038
100
AcDbArc
 50
60.0001771755
 51
90.0000000001
  0
ARC
  5
38C
100
AcDbEntity
  8
ALL_DETAIL_ITEM
100
AcDbCircle
 62
4
  6
CONTINUOUS
 10
733.7077545034
 20
112.0481632014
 40
10.4953566293
100
AcDbArc
 50
239.9657832688
 51
270.0
  0
ARC
  5
38D
100
AcDbEntity
  8
ALL_DETAIL_ITEM
100
AcDbCircle
 62
4
  6
CONTINUOUS
 10
755.1097591482
 20
112.0481632014
 40
10.4953566293
100
AcDbArc
 50
270.0
 51
300.0342167312
  0
ARC
  5
38E
100
AcDbEntity
  8
ALL_DETAIL_ITEM
100
AcDbCircle
 62
4
  6
CONTINUOUS
 10
802.6379830129
 20
108.7508186042
 40
7.5
100
AcDbArc
 50
60.0001771755
 51
89.9999999999
  0
ARC
  5
38F
100
AcDbEntity
  8
ALL_DETAIL_ITEM
100
AcDbCircle
 62
4
  6
CONTINUOUS
 10
802.6379830129
 20
112.0428223562
 40
7.5
100
AcDbArc
 50
270.0
 51
299.9998228245
  0
ARC
  5
390
100
AcDbEntity
  8
ALL_DETAIL_ITEM
100
AcDbCircle
 62
4
  6
CONTINUOUS
 10
755.1097591482
 20
112.0481632014
 40
7.4953566255
100
AcDbArc
 50
270.0
 51
300.0342167312
  0
ARC
  5
391
100
AcDbEntity
  8
ALL_DETAIL_ITEM
100
AcDbCircle
 62
4
  6
CONTINUOUS
 10
733.7077545034
 20
112.0481632014
 40
7.4953566255
100
AcDbArc
 50
239.9657832688
 51
270.0
  0
ARC
  5
392
100
AcDbEntity
  8
ALL_DETAIL_ITEM
100
AcDbCircle
 62
4
  6
CONTINUOUS
 10
731.4577516572
 20
108.1564131602
 40
6.0000000038
100
AcDbArc
 50
180.0014006897
 51
239.9657832688
  0
ARC
  5
393
100
AcDbEntity
  8
ALL_DETAIL_ITEM
100
AcDbCircle
 62
4
  6
CONTINUOUS
 10
757.3597619944
 20
108.1564131602
 40
6.0000000038
100
AcDbArc
 50
300.0342167312
 51
359.9985993027
  0
ARC
  5
394
100
AcDbEntity
  8
ALL_DETAIL_ITEM
100
AcDbCircle
 62
4
  6
CONTINUOUS
 10
804.8879709619
 20
108.1457010812
 40
6.0000000038
100
AcDbArc
 50
299.9998228245
 51
360.0
  0
ARC
  5
395
100
AcDbEntity
  8
ALL_DETAIL_ITEM
100
AcDbCircle
 62
4
  6
CONTINUOUS
 10
804.8879709619
 20
112.6479398784
 40
6.0000000038
100
AcDbArc
 50
0.0
 51
60.0001771755
  0
ARC
  5
396
100
AcDbEntity
  8
ALL_DETAIL_ITEM
100
AcDbCircle
 62
4
  6
CONTINUOUS
 10
757.3597619944
 20
108.1564131602
 40
3.0
100
AcDbArc
 50
300.0342167312
 51
359.9985993006
  0
ARC
  5
397
100
AcDbEntity
  8
ALL_DETAIL_ITEM
100
AcDbCircle
 62
4
  6
CONTINUOUS
 10
731.4577516572
 20
108.1564131602
 40
3.0
100
AcDbArc
 50
180.0014006917
 51
239.9657832688
  0
ARC
  5
398
100
AcDbEntity
  8
ALL_DETAIL_ITEM
100
AcDbCircle
 62
4
  6
CONTINUOUS
 10
804.8879709619
 20
112.6479398784
 40
3.0
100
AcDbArc
 50
0.0
 51
60.0001771755
  0
ARC
  5
399
100
AcDbEntity
  8
ALL_DETAIL_ITEM
100
AcDbCircle
 62
4
  6
CONTINUOUS
 10
804.8879709619
 20
108.1457010812
 40
3.0
100
AcDbArc
 50
299.9998228245
 51
360.0
  0
ARC
  5
39A
100
AcDbEntity
  8
ALL_DETAIL_ITEM
100
AcDbCircle
 62
4
  6
CONTINUOUS
 10
774.5211837019
 20
103.0428223547
 40
1.5000000015
100
AcDbArc
 50
90.0
 51
270.0
  0
ARC
  5
39B
100
AcDbEntity
  8
ALL_DETAIL_ITEM
100
AcDbCircle
 62
4
  6
CONTINUOUS
 10
715.3244935317
 20
103.0486133822
 40
1.5000000015
100
AcDbArc
 50
270.0053646182
 51
90.0053646182
  0
ARC
  5
39C
100
AcDbEntity
  8
ALL_DETAIL_ITEM
100
AcDbCircle
 62
4
  6
CONTINUOUS
 10
713.8839790782
 20
117.7508159139
 40
1.5000000015
100
AcDbArc
 50
270.0
 51
90.0
  0
ARC
  5
39D
100
AcDbEntity
  8
ALL_DETAIL_ITEM
100
AcDbCircle
 62
4
  6
CONTINUOUS
 10
780.8816511214
 20
123.4577742849
 40
10.5000000038
100
AcDbArc
 50
90.0
 51
119.9998227404
  0
ARC
  5
39E
100
AcDbEntity
  8
ALL_DETAIL_ITEM
100
AcDbCircle
 62
4
  6
CONTINUOUS
 10
780.8816511214
 20
126.7497780437
 40
10.5000000038
100
AcDbArc
 50
240.0001772596
 51
269.9999999996
  0
ARC
  5
39F
100
AcDbEntity
  8
ALL_DETAIL_ITEM
100
AcDbCircle
 62
4
  6
CONTINUOUS
 10
780.8816511214
 20
126.7497780437
 40
7.5
100
AcDbArc
 50
240.0001772596
 51
269.9999999998
  0
ARC
  5
3A0
100
AcDbEntity
  8
ALL_DETAIL_ITEM
100
AcDbCircle
 62
4
  6
CONTINUOUS
 10
780.8816511214
 20
123.4577742849
 40
7.5
100
AcDbArc
 50
90.0
 51
119.9998227404
  0
ARC
  5
3A1
100
AcDbEntity
  8
ALL_DETAIL_ITEM
100
AcDbCircle
 62
4
  6
CONTINUOUS
 10
778.6316631784
 20
127.3548955629
 40
6.0000000038
100
AcDbArc
 50
119.9998227404
 51
180.0
  0
ARC
  5
3A2
100
AcDbEntity
  8
ALL_DETAIL_ITEM
100
AcDbCircle
 62
4
  6
CONTINUOUS
 10
778.6316631784
 20
122.8526567657
 40
6.0000000038
100
AcDbArc
 50
180.0
 51
240.0001772596
  0
ARC
  5
3A3
100
AcDbEntity
  8
ALL_DETAIL_ITEM
100
AcDbCircle
 62
4
  6
CONTINUOUS
 10
778.6316631784
 20
122.8526567657
 40
3.0
100
AcDbArc
 50
180.0
 51
240.0001772596
  0
ARC
  5
3A4
100
AcDbEntity
  8
ALL_DETAIL_ITEM
100
AcDbCircle
 62
4
  6
CONTINUOUS
 10
778.6316631784
 20
127.3548955629
 40
3.0
100
AcDbArc
 50
119.9998227404
 51
180.0
  0
ARC
  5
3A5
100
AcDbEntity
  8
ALL_DETAIL_ITEM
100
AcDbCircle
 62
4
  6
CONTINUOUS
 10
761.8603672782
 20
132.9154998099
 40
1.5000000015
100
AcDbArc
 50
0.0
 51
180.0
  0
ARC
  5
3A6
100
AcDbEntity
  8
ALL_DETAIL_ITEM
100
AcDbCircle
 62
4
  6
CONTINUOUS
 10
726.9571463772
 20
132.9154998099
 40
1.5000000015
100
AcDbArc
 50
0.0
 51
180.0
  0
ARC
  5
3A7
100
AcDbEntity
  8
ALL_DETAIL_ITEM
100
AcDbCircle
 62
4
  6
CONTINUOUS
 10
807.5588913357
 20
132.4577742872
 40
1.5000000015
100
AcDbArc
 50
270.0
 51
90.0
  0
ARC
  5
3A8
100
AcDbEntity
  8
ALL_DETAIL_ITEM
100
AcDbCircle
 62
4
  6
CONTINUOUS
 10
715.3263022062
 20
132.4567943027
 40
1.5000000015
100
AcDbArc
 50
269.9981356008
 51
89.9981356008
  0
LWPOLYLINE
  5
3A9
100
AcDbEntity
  8
ALL_DETAIL_ITEM
100
AcDbPolyline
 62
4
  6
CONTINUOUS
 90
21
 70
0
 10
580.9999951887
 20
134.6856123174
 10
581.1723361269
 20
134.6756883112
 10
581.3423944998
 20
134.6460091754
 10
581.5079179733
 20
134.5970150464
 10
581.6667142758
 20
134.5293116209
 10
581.8166802335
 20
134.4438074439
 10
581.9558296259
 20
134.341646609
 10
582.0823194922
 20
134.224141459
 10
582.1944745404
 20
134.0929408348
 10
582.2908093362
 20
133.9496599274
 10
561.6321894514
 20
103.4104348592
 10
579.7091810415
 20
133.9496599274
 10
579.8055158369
 20
134.0929408348
 10
579.9176708852
 20
134.224141459
 10
580.0441607515
 20
134.341646609
 10
580.1833101438
 20
134.4438074439
 10
580.3332761015
 20
134.5293116209
 10
580.492072404
 20
134.5970150464
 10
580.6575958775
 20
134.6460091754
 10
580.8276542504
 20
134.6756883112
 10
580.9999951887
 20
134.6856123174
  0
HATCH
  5
3AA
100
AcDbEntity
  8
ALL_DETAIL_ITEM
100
AcDbHatch
 62
4
  6
CONTINUOUS
 10
0.0
 20
0.0
 30
0.0
210
0.0
220
0.0
230
1.0
  2
SOLID
 70
1
 71
1
 91
1
 92
1
 93
20
 72
1
 10
580.9999951887
 20
134.6856123174
 11
581.1723361269
 21
134.6756883112
 72
1
 10
581.1723361269
 20
134.6756883112
 11
581.3423944998
 21
134.6460091754
 72
1
 10
581.3423944998
 20
134.6460091754
 11
581.5079179733
 21
134.5970150464
 72
1
 10
581.5079179733
 20
134.5970150464
 11
581.6667142758
 21
134.5293116209
 72
1
 10
581.6667142758
 20
134.5293116209
 11
581.8166802335
 21
134.4438074439
 72
1
 10
581.8166802335
 20
134.4438074439
 11
581.9558296259
 21
134.341646609
 72
1
 10
581.9558296259
 20
134.341646609
 11
582.0823194922
 21
134.224141459
 72
1
 10
582.0823194922
 20
134.224141459
 11
582.1944745404
 21
134.0929408348
 72
1
 10
582.1944745404
 20
134.0929408348
 11
582.2908093362
 21
133.9496599274
 72
1
 10
582.2908093362
 20
133.9496599274
 11
561.6321894514
 21
103.4104348592
 72
1
 10
561.6321894514
 20
103.4104348592
 11
579.7091810415
 21
133.9496599274
 72
1
 10
579.7091810415
 20
133.9496599274
 11
579.8055158369
 21
134.0929408348
 72
1
 10
579.8055158369
 20
134.0929408348
 11
579.9176708852
 21
134.224141459
 72
1
 10
579.9176708852
 20
134.224141459
 11
580.0441607515
 21
134.341646609
 72
1
 10
580.0441607515
 20
134.341646609
 11
580.1833101438
 21
134.4438074439
 72
1
 10
580.1833101438
 20
134.4438074439
 11
580.3332761015
 21
134.5293116209
 72
1
 10
580.3332761015
 20
134.5293116209
 11
580.492072404
 21
134.5970150464
 72
1
 10
580.492072404
 20
134.5970150464
 11
580.6575958775
 21
134.6460091754
 72
1
 10
580.6575958775
 20
134.6460091754
 11
580.8276542504
 21
134.6756883112
 72
1
 10
580.8276542504
 20
134.6756883112
 11
580.9999951887
 21
134.6856123174
 97
1
330
3A9
 75
0
 76
1
 98
1
 10
0.0
 20
0.0
  0
LWPOLYLINE
  5
3AB
100
AcDbEntity
  8
ALL_DETAIL_ITEM
100
AcDbPolyline
 62
4
  6
CONTINUOUS
 90
46
 70
0
 10
637.2271224567
 20
134.4401059644
 10
637.4301901925
 20
134.4661172705
 10
637.6349088083
 20
134.4642328809
 10
637.8374647835
 20
134.4344864455
 10
638.0340848835
 20
134.377450011
 10
638.2211064479
 20
134.2941667217
 10
638.3950456188
 20
134.186184469
 10
638.5526622386
 20
134.0555558916
 10
638.6910202079
 20
133.9046364764
 10
638.8075421795
 20
133.7363201075
 10
655.6449574639
 20
105.4670922602
 10
675.059830607
 20
132.2011482995
 10
656.9336863932
 20
101.7682229933
 10
656.837237342
 20
101.6255814324
 10
656.7250799473
 20
101.494952855
 10
656.598691888
 20
101.3780534016
 10
656.4597383327
 20
101.2763973139
 10
656.3100500011
 20
101.1912969347
 10
656.151599044
 20
101.1239636572
 10
655.9864730602
 20
101.0752050769
 10
655.8168475923
 20
101.0456941901
 10
655.6449574639
 20
101.0357984559
 10
655.4730673355
 20
101.0456941901
 10
655.3034418677
 20
101.0752050769
 10
655.1383158839
 20
101.1239636572
 10
654.9798649267
 20
101.1912969347
 10
654.8301765951
 20
101.2763973139
 10
654.6912230398
 20
101.3780534016
 10
654.5648349805
 20
101.494952855
 10
654.4526775858
 20
101.6255814324
 10
654.3562285346
 20
101.7682229933
 10
636.2300843209
 20
132.2011482995
 10
636.1375689309
 20
132.3837994891
 10
636.0707835092
 20
132.5773195687
 10
636.0309721418
 20
132.7781416578
 10
636.0188764391
 20
132.9824969774
 10
636.0347217213
 20
133.1866167482
 10
636.0782128206
 20
133.3866648917
 10
636.1485395802
 20
133.5789399281
 10
636.2443919456
 20
133.7598413274
 10
636.3639843686
 20
133.9260041082
 10
636.5050890686
 20
134.0743324877
 10
636.6650775322
 20
134.2020671811
 10
636.8409694768
 20
134.3068527015
 10
637.0294883684
 20
134.38667006
 10
637.2271224567
 20
134.4401059644
  0
HATCH
  5
3AC
100
AcDbEntity
  8
ALL_DETAIL_ITEM
100
AcDbHatch
 62
4
  6
CONTINUOUS
 10
0.0
 20
0.0
 30
0.0
210
0.0
220
0.0
230
1.0
  2
SOLID
 70
1
 71
1
 91
1
 92
1
 93
45
 72
1
 10
637.2271224567
 20
134.4401059644
 11
637.4301901925
 21
134.4661172705
 72
1
 10
637.4301901925
 20
134.4661172705
 11
637.6349088083
 21
134.4642328809
 72
1
 10
637.6349088083
 20
134.4642328809
 11
637.8374647835
 21
134.4344864455
 72
1
 10
637.8374647835
 20
134.4344864455
 11
638.0340848835
 21
134.377450011
 72
1
 10
638.0340848835
 20
134.377450011
 11
638.2211064479
 21
134.2941667217
 72
1
 10
638.2211064479
 20
134.2941667217
 11
638.3950456188
 21
134.186184469
 72
1
 10
638.3950456188
 20
134.186184469
 11
638.5526622386
 21
134.0555558916
 72
1
 10
638.5526622386
 20
134.0555558916
 11
638.6910202079
 21
133.9046364764
 72
1
 10
638.6910202079
 20
133.9046364764
 11
638.8075421795
 21
133.7363201075
 72
1
 10
638.8075421795
 20
133.7363201075
 11
655.6449574639
 21
105.4670922602
 72
1
 10
655.6449574639
 20
105.4670922602
 11
675.059830607
 21
132.2011482995
 72
1
 10
675.059830607
 20
132.2011482995
 11
656.9336863932
 21
101.7682229933
 72
1
 10
656.9336863932
 20
101.7682229933
 11
656.837237342
 21
101.6255814324
 72
1
 10
656.837237342
 20
101.6255814324
 11
656.7250799473
 21
101.494952855
 72
1
 10
656.7250799473
 20
101.494952855
 11
656.598691888
 21
101.3780534016
 72
1
 10
656.598691888
 20
101.3780534016
 11
656.4597383327
 21
101.2763973139
 72
1
 10
656.4597383327
 20
101.2763973139
 11
656.3100500011
 21
101.1912969347
 72
1
 10
656.3100500011
 20
101.1912969347
 11
656.151599044
 21
101.1239636572
 72
1
 10
656.151599044
 20
101.1239636572
 11
655.9864730602
 21
101.0752050769
 72
1
 10
655.9864730602
 20
101.0752050769
 11
655.8168475923
 21
101.0456941901
 72
1
 10
655.8168475923
 20
101.0456941901
 11
655.6449574639
 21
101.0357984559
 72
1
 10
655.6449574639
 20
101.0357984559
 11
655.4730673355
 21
101.0456941901
 72
1
 10
655.4730673355
 20
101.0456941901
 11
655.3034418677
 21
101.0752050769
 72
1
 10
655.3034418677
 20
101.0752050769
 11
655.1383158839
 21
101.1239636572
 72
1
 10
655.1383158839
 20
101.1239636572
 11
654.9798649267
 21
101.1912969347
 72
1
 10
654.9798649267
 20
101.1912969347
 11
654.8301765951
 21
101.2763973139
 72
1
 10
654.8301765951
 20
101.2763973139
 11
654.6912230398
 21
101.3780534016
 72
1
 10
654.6912230398
 20
101.3780534016
 11
654.5648349805
 21
101.494952855
 72
1
 10
654.5648349805
 20
101.494952855
 11
654.4526775858
 21
101.6255814324
 72
1
 10
654.4526775858
 20
101.6255814324
 11
654.3562285346
 21
101.7682229933
 72
1
 10
654.3562285346
 20
101.7682229933
 11
636.2300843209
 21
132.2011482995
 72
1
 10
636.2300843209
 20
132.2011482995
 11
636.1375689309
 21
132.3837994891
 72
1
 10
636.1375689309
 20
132.3837994891
 11
636.0707835092
 21
132.5773195687
 72
1
 10
636.0707835092
 20
132.5773195687
 11
636.0309721418
 21
132.7781416578
 72
1
 10
636.0309721418
 20
132.7781416578
 11
636.0188764391
 21
132.9824969774
 72
1
 10
636.0188764391
 20
132.9824969774
 11
636.0347217213
 21
133.1866167482
 72
1
 10
636.0347217213
 20
133.1866167482
 11
636.0782128206
 21
133.3866648917
 72
1
 10
636.0782128206
 20
133.3866648917
 11
636.1485395802
 21
133.5789399281
 72
1
 10
636.1485395802
 20
133.5789399281
 11
636.2443919456
 21
133.7598413274
 72
1
 10
636.2443919456
 20
133.7598413274
 11
636.3639843686
 21
133.9260041082
 72
1
 10
636.3639843686
 20
133.9260041082
 11
636.5050890686
 21
134.0743324877
 72
1
 10
636.5050890686
 20
134.0743324877
 11
636.6650775322
 21
134.2020671811
 72
1
 10
636.6650775322
 20
134.2020671811
 11
636.8409694768
 21
134.3068527015
 72
1
 10
636.8409694768
 20
134.3068527015
 11
637.0294883684
 21
134.38667006
 72
1
 10
637.0294883684
 20
134.38667006
 11
637.2271224567
 21
134.4401059644
 97
1
330
3AB
 75
0
 76
1
 98
1
 10
0.0
 20
0.0
  0
LWPOLYLINE
  5
3AD
100
AcDbEntity
  8
ALL_DETAIL_ITEM
100
AcDbPolyline
 62
4
  6
CONTINUOUS
 90
19
 70
0
 10
673.8597247353
 20
134.4661172705
 10
674.0627924712
 20
134.4401059644
 10
674.2604265595
 20
134.38667006
 10
674.4489454511
 20
134.3068527015
 10
674.6248373957
 20
134.2020671811
 10
674.7848258592
 20
134.0743324877
 10
674.9259305593
 20
133.9260041082
 10
675.0455229823
 20
133.7598413274
 10
675.1413753477
 20
133.5789399281
 10
655.6449574639
 20
105.4670922602
 10
672.4823727484
 20
133.7363201075
 10
672.5988947199
 20
133.9046364764
 10
672.7372526892
 20
134.0555558916
 10
672.894869309
 20
134.186184469
 10
673.0688084799
 20
134.2941667217
 10
673.2558300444
 20
134.377450011
 10
673.4524501444
 20
134.4344864455
 10
673.6550061195
 20
134.4642328809
 10
673.8597247353
 20
134.4661172705
  0
HATCH
  5
3AE
100
AcDbEntity
  8
ALL_DETAIL_ITEM
100
AcDbHatch
 62
4
  6
CONTINUOUS
 10
0.0
 20
0.0
 30
0.0
210
0.0
220
0.0
230
1.0
  2
SOLID
 70
1
 71
1
 91
1
 92
1
 93
18
 72
1
 10
673.8597247353
 20
134.4661172705
 11
674.0627924712
 21
134.4401059644
 72
1
 10
674.0627924712
 20
134.4401059644
 11
674.2604265595
 21
134.38667006
 72
1
 10
674.2604265595
 20
134.38667006
 11
674.4489454511
 21
134.3068527015
 72
1
 10
674.4489454511
 20
134.3068527015
 11
674.6248373957
 21
134.2020671811
 72
1
 10
674.6248373957
 20
134.2020671811
 11
674.7848258592
 21
134.0743324877
 72
1
 10
674.7848258592
 20
134.0743324877
 11
674.9259305593
 21
133.9260041082
 72
1
 10
674.9259305593
 20
133.9260041082
 11
675.0455229823
 21
133.7598413274
 72
1
 10
675.0455229823
 20
133.7598413274
 11
675.1413753477
 21
133.5789399281
 72
1
 10
675.1413753477
 20
133.5789399281
 11
655.6449574639
 21
105.4670922602
 72
1
 10
655.6449574639
 20
105.4670922602
 11
672.4823727484
 21
133.7363201075
 72
1
 10
672.4823727484
 20
133.7363201075
 11
672.5988947199
 21
133.9046364764
 72
1
 10
672.5988947199
 20
133.9046364764
 11
672.7372526892
 21
134.0555558916
 72
1
 10
672.7372526892
 20
134.0555558916
 11
672.894869309
 21
134.186184469
 72
1
 10
672.894869309
 20
134.186184469
 11
673.0688084799
 21
134.2941667217
 72
1
 10
673.0688084799
 20
134.2941667217
 11
673.2558300444
 21
134.377450011
 72
1
 10
673.2558300444
 20
134.377450011
 11
673.4524501444
 21
134.4344864455
 72
1
 10
673.4524501444
 20
134.4344864455
 11
673.6550061195
 21
134.4642328809
 72
1
 10
673.6550061195
 20
134.4642328809
 11
673.8597247353
 21
134.4661172705
 97
1
330
3AD
 75
0
 76
1
 98
1
 10
0.0
 20
0.0
  0
LWPOLYLINE
  5
3AF
100
AcDbEntity
  8
ALL_DETAIL_ITEM
100
AcDbPolyline
 62
4
  6
CONTINUOUS
 90
27
 70
0
 10
726.9571463772
 20
134.4155079505
 10
727.1529356657
 20
134.4026537216
 10
727.3453749452
 20
134.3643938832
 10
727.5311715263
 20
134.301334132
 10
727.7071463779
 20
134.2145512621
 10
727.8702885216
 20
134.1055258652
 10
728.01780655
 20
133.9761759807
 10
728.1471763888
 20
133.8286551967
 10
728.2561844841
 20
133.6654872493
 10
728.3429656773
 20
133.4895323726
 10
728.406035118
 20
133.3037181005
 10
728.4443136707
 20
133.111274815
 10
728.4571463787
 20
132.915500198
 10
725.4577516557
 20
108.156270007
 10
725.4571463757
 20
132.915500198
 10
725.4699790836
 20
133.111274815
 10
725.5082576363
 20
133.3037181005
 10
725.571327077
 20
133.4895323726
 10
725.6581082702
 20
133.6654872493
 10
725.7671163655
 20
133.8286551967
 10
725.8964862043
 20
133.9761759807
 10
726.0440042327
 20
134.1055258652
 10
726.2071463764
 20
134.2145512621
 10
726.383121228
 20
134.301334132
 10
726.5689178091
 20
134.3643938832
 10
726.7613570886
 20
134.4026537216
 10
726.9571463772
 20
134.4155079505
  0
HATCH
  5
3B0
100
AcDbEntity
  8
ALL_DETAIL_ITEM
100
AcDbHatch
 62
4
  6
CONTINUOUS
 10
0.0
 20
0.0
 30
0.0
210
0.0
220
0.0
230
1.0
  2
SOLID
 70
1
 71
1
 91
1
 92
1
 93
26
 72
1
 10
726.9571463772
 20
134.4155079505
 11
727.1529356657
 21
134.4026537216
 72
1
 10
727.1529356657
 20
134.4026537216
 11
727.3453749452
 21
134.3643938832
 72
1
 10
727.3453749452
 20
134.3643938832
 11
727.5311715263
 21
134.301334132
 72
1
 10
727.5311715263
 20
134.301334132
 11
727.7071463779
 21
134.2145512621
 72
1
 10
727.7071463779
 20
134.2145512621
 11
727.8702885216
 21
134.1055258652
 72
1
 10
727.8702885216
 20
134.1055258652
 11
728.01780655
 21
133.9761759807
 72
1
 10
728.01780655
 20
133.9761759807
 11
728.1471763888
 21
133.8286551967
 72
1
 10
728.1471763888
 20
133.8286551967
 11
728.2561844841
 21
133.6654872493
 72
1
 10
728.2561844841
 20
133.6654872493
 11
728.3429656773
 21
133.4895323726
 72
1
 10
728.3429656773
 20
133.4895323726
 11
728.406035118
 21
133.3037181005
 72
1
 10
728.406035118
 20
133.3037181005
 11
728.4443136707
 21
133.111274815
 72
1
 10
728.4443136707
 20
133.111274815
 11
728.4571463787
 21
132.915500198
 72
1
 10
728.4571463787
 20
132.915500198
 11
725.4577516557
 21
108.156270007
 72
1
 10
725.4577516557
 20
108.156270007
 11
725.4571463757
 21
132.915500198
 72
1
 10
725.4571463757
 20
132.915500198
 11
725.4699790836
 21
133.111274815
 72
1
 10
725.4699790836
 20
133.111274815
 11
725.5082576363
 21
133.3037181005
 72
1
 10
725.5082576363
 20
133.3037181005
 11
725.571327077
 21
133.4895323726
 72
1
 10
725.571327077
 20
133.4895323726
 11
725.6581082702
 21
133.6654872493
 72
1
 10
725.6581082702
 20
133.6654872493
 11
725.7671163655
 21
133.8286551967
 72
1
 10
725.7671163655
 20
133.8286551967
 11
725.8964862043
 21
133.9761759807
 72
1
 10
725.8964862043
 20
133.9761759807
 11
726.0440042327
 21
134.1055258652
 72
1
 10
726.0440042327
 20
134.1055258652
 11
726.2071463764
 21
134.2145512621
 72
1
 10
726.2071463764
 20
134.2145512621
 11
726.383121228
 21
134.301334132
 72
1
 10
726.383121228
 20
134.301334132
 11
726.5689178091
 21
134.3643938832
 72
1
 10
726.5689178091
 20
134.3643938832
 11
726.7613570886
 21
134.4026537216
 72
1
 10
726.7613570886
 20
134.4026537216
 11
726.9571463772
 21
134.4155079505
 97
1
330
3AF
 75
0
 76
1
 98
1
 10
0.0
 20
0.0
  0
LWPOLYLINE
  5
3B1
100
AcDbEntity
  8
ALL_DETAIL_ITEM
100
AcDbPolyline
 62
4
  6
CONTINUOUS
 90
50
 70
0
 10
761.8603672782
 20
134.4155079505
 10
762.0561565667
 20
134.4026537216
 10
762.2485958462
 20
134.3643938832
 10
762.4343924273
 20
134.301334132
 10
762.6103672789
 20
134.2145512621
 10
762.7735094226
 20
134.1055258652
 10
762.921027451
 20
133.9761759807
 10
763.0503972898
 20
133.8286551967
 10
763.1594053851
 20
133.6654872493
 10
763.2461865783
 20
133.4895323726
 10
763.309256019
 20
133.3037181005
 10
763.3475345717
 20
133.111274815
 10
763.3603672797
 20
132.915500198
 10
763.3597619964
 20
108.156270007
 10
763.3369444902
 20
107.6336547479
 10
763.2686909737
 20
107.1149765171
 10
763.1555202813
 20
106.6042732921
 10
762.9982926885
 20
106.1053138521
 10
762.798203373
 20
105.6219679258
 10
762.5567733291
 20
105.1579033429
 10
757.2618338402
 20
104.8684139942
 10
757.676126052
 20
105.005839834
 10
758.081714676
 20
105.1671906915
 10
758.4772241975
 20
105.35186087
 10
758.861313284
 20
105.5592446728
 10
759.0818313224
 20
105.6999008947
 10
759.2892589189
 20
105.8592327634
 10
759.4820192969
 20
106.0360288854
 10
759.6586471735
 20
106.2289432683
 10
759.8177998984
 20
106.43652897
 10
759.9582676601
 20
106.6571707995
 10
760.078982682
 20
106.889186266
 10
760.1790273397
 20
107.1308592292
 10
760.257641136
 20
107.3803389492
 10
760.3142264822
 20
107.6357073866
 10
760.3483532404
 20
107.8950128522
 10
760.3597619937
 20
108.1563373066
 10
760.3603672767
 20
132.915500198
 10
760.3731999846
 20
133.111274815
 10
760.4114785373
 20
133.3037181005
 10
760.474547978
 20
133.4895323726
 10
760.5613291712
 20
133.6654872493
 10
760.6703372665
 20
133.8286551967
 10
760.7997071053
 20
133.9761759807
 10
760.9472251337
 20
134.1055258652
 10
761.1103672774
 20
134.2145512621
 10
761.286342129
 20
134.301334132
 10
761.4721387101
 20
134.3643938832
 10
761.6645779896
 20
134.4026537216
 10
761.8603672782
 20
134.4155079505
  0
HATCH
  5
3B2
100
AcDbEntity
  8
ALL_DETAIL_ITEM
100
AcDbHatch
 62
4
  6
CONTINUOUS
 10
0.0
 20
0.0
 30
0.0
210
0.0
220
0.0
230
1.0
  2
SOLID
 70
1
 71
1
 91
1
 92
1
 93
49
 72
1
 10
761.8603672782
 20
134.4155079505
 11
762.0561565667
 21
134.4026537216
 72
1
 10
762.0561565667
 20
134.4026537216
 11
762.2485958462
 21
134.3643938832
 72
1
 10
762.2485958462
 20
134.3643938832
 11
762.4343924273
 21
134.301334132
 72
1
 10
762.4343924273
 20
134.301334132
 11
762.6103672789
 21
134.2145512621
 72
1
 10
762.6103672789
 20
134.2145512621
 11
762.7735094226
 21
134.1055258652
 72
1
 10
762.7735094226
 20
134.1055258652
 11
762.921027451
 21
133.9761759807
 72
1
 10
762.921027451
 20
133.9761759807
 11
763.0503972898
 21
133.8286551967
 72
1
 10
763.0503972898
 20
133.8286551967
 11
763.1594053851
 21
133.6654872493
 72
1
 10
763.1594053851
 20
133.6654872493
 11
763.2461865783
 21
133.4895323726
 72
1
 10
763.2461865783
 20
133.4895323726
 11
763.309256019
 21
133.3037181005
 72
1
 10
763.309256019
 20
133.3037181005
 11
763.3475345717
 21
133.111274815
 72
1
 10
763.3475345717
 20
133.111274815
 11
763.3603672797
 21
132.915500198
 72
1
 10
763.3603672797
 20
132.915500198
 11
763.3597619964
 21
108.156270007
 72
1
 10
763.3597619964
 20
108.156270007
 11
763.3369444902
 21
107.6336547479
 72
1
 10
763.3369444902
 20
107.6336547479
 11
763.2686909737
 21
107.1149765171
 72
1
 10
763.2686909737
 20
107.1149765171
 11
763.1555202813
 21
106.6042732921
 72
1
 10
763.1555202813
 20
106.6042732921
 11
762.9982926885
 21
106.1053138521
 72
1
 10
762.9982926885
 20
106.1053138521
 11
762.798203373
 21
105.6219679258
 72
1
 10
762.798203373
 20
105.6219679258
 11
762.5567733291
 21
105.1579033429
 72
1
 10
762.5567733291
 20
105.1579033429
 11
757.2618338402
 21
104.8684139942
 72
1
 10
757.2618338402
 20
104.8684139942
 11
757.676126052
 21
105.005839834
 72
1
 10
757.676126052
 20
105.005839834
 11
758.081714676
 21
105.1671906915
 72
1
 10
758.081714676
 20
105.1671906915
 11
758.4772241975
 21
105.35186087
 72
1
 10
758.4772241975
 20
105.35186087
 11
758.861313284
 21
105.5592446728
 72
1
 10
758.861313284
 20
105.5592446728
 11
759.0818313224
 21
105.6999008947
 72
1
 10
759.0818313224
 20
105.6999008947
 11
759.2892589189
 21
105.8592327634
 72
1
 10
759.2892589189
 20
105.8592327634
 11
759.4820192969
 21
106.0360288854
 72
1
 10
759.4820192969
 20
106.0360288854
 11
759.6586471735
 21
106.2289432683
 72
1
 10
759.6586471735
 20
106.2289432683
 11
759.8177998984
 21
106.43652897
 72
1
 10
759.8177998984
 20
106.43652897
 11
759.9582676601
 21
106.6571707995
 72
1
 10
759.9582676601
 20
106.6571707995
 11
760.078982682
 21
106.889186266
 72
1
 10
760.078982682
 20
106.889186266
 11
760.1790273397
 21
107.1308592292
 72
1
 10
760.1790273397
 20
107.1308592292
 11
760.257641136
 21
107.3803389492
 72
1
 10
760.257641136
 20
107.3803389492
 11
760.3142264822
 21
107.6357073866
 72
1
 10
760.3142264822
 20
107.6357073866
 11
760.3483532404
 21
107.8950128522
 72
1
 10
760.3483532404
 20
107.8950128522
 11
760.3597619937
 21
108.1563373066
 72
1
 10
760.3597619937
 20
108.1563373066
 11
760.3603672767
 21
132.915500198
 72
1
 10
760.3603672767
 20
132.915500198
 11
760.3731999846
 21
133.111274815
 72
1
 10
760.3731999846
 20
133.111274815
 11
760.4114785373
 21
133.3037181005
 72
1
 10
760.4114785373
 20
133.3037181005
 11
760.474547978
 21
133.4895323726
 72
1
 10
760.474547978
 20
133.4895323726
 11
760.5613291712
 21
133.6654872493
 72
1
 10
760.5613291712
 20
133.6654872493
 11
760.6703372665
 21
133.8286551967
 72
1
 10
760.6703372665
 20
133.8286551967
 11
760.7997071053
 21
133.9761759807
 72
1
 10
760.7997071053
 20
133.9761759807
 11
760.9472251337
 21
134.1055258652
 72
1
 10
760.9472251337
 20
134.1055258652
 11
761.1103672774
 21
134.2145512621
 72
1
 10
761.1103672774
 20
134.2145512621
 11
761.286342129
 21
134.301334132
 72
1
 10
761.286342129
 20
134.301334132
 11
761.4721387101
 21
134.3643938832
 72
1
 10
761.4721387101
 20
134.3643938832
 11
761.6645779896
 21
134.4026537216
 72
1
 10
761.6645779896
 20
134.4026537216
 11
761.8603672782
 21
134.4155079505
 97
1
330
3B1
 75
0
 76
1
 98
1
 10
0.0
 20
0.0
  0
LWPOLYLINE
  5
3B3
100
AcDbEntity
  8
ALL_DETAIL_ITEM
100
AcDbPolyline
 62
4
  6
CONTINUOUS
 90
27
 70
0
 10
611.5523405247
 20
134.3890009209
 10
611.7481298132
 20
134.3761713181
 10
611.9405690927
 20
134.3378778299
 10
612.1263656738
 20
134.2748180787
 10
612.3023405254
 20
134.1880352088
 10
612.4654826691
 20
134.0790434617
 10
612.6130006975
 20
133.9496599274
 10
612.7423705363
 20
133.8021391434
 10
612.8513786316
 20
133.6390048458
 10
612.9381598248
 20
133.4630163193
 10
613.0012292655
 20
133.277235697
 10
613.0395078182
 20
133.0847924115
 10
613.0523405262
 20
132.8889841446
 10
610.0523405232
 20
103.0422049461
 10
610.0523405232
 20
132.8889841446
 10
610.0651732311
 20
133.0847924115
 10
610.1034517838
 20
133.277235697
 10
610.1665212245
 20
133.4630163193
 10
610.2533024177
 20
133.6390048458
 10
610.362310513
 20
133.8021391434
 10
610.4916803518
 20
133.9496599274
 10
610.6391983802
 20
134.0790434617
 10
610.8023405239
 20
134.1880352088
 10
610.9783153755
 20
134.2748180787
 10
611.1641119566
 20
134.3378778299
 10
611.3565512361
 20
134.3761713181
 10
611.5523405247
 20
134.3890009209
  0
HATCH
  5
3B4
100
AcDbEntity
  8
ALL_DETAIL_ITEM
100
AcDbHatch
 62
4
  6
CONTINUOUS
 10
0.0
 20
0.0
 30
0.0
210
0.0
220
0.0
230
1.0
  2
SOLID
 70
1
 71
1
 91
1
 92
1
 93
26
 72
1
 10
611.5523405247
 20
134.3890009209
 11
611.7481298132
 21
134.3761713181
 72
1
 10
611.7481298132
 20
134.3761713181
 11
611.9405690927
 21
134.3378778299
 72
1
 10
611.9405690927
 20
134.3378778299
 11
612.1263656738
 21
134.2748180787
 72
1
 10
612.1263656738
 20
134.2748180787
 11
612.3023405254
 21
134.1880352088
 72
1
 10
612.3023405254
 20
134.1880352088
 11
612.4654826691
 21
134.0790434617
 72
1
 10
612.4654826691
 20
134.0790434617
 11
612.6130006975
 21
133.9496599274
 72
1
 10
612.6130006975
 20
133.9496599274
 11
612.7423705363
 21
133.8021391434
 72
1
 10
612.7423705363
 20
133.8021391434
 11
612.8513786316
 21
133.6390048458
 72
1
 10
612.8513786316
 20
133.6390048458
 11
612.9381598248
 21
133.4630163193
 72
1
 10
612.9381598248
 20
133.4630163193
 11
613.0012292655
 21
133.277235697
 72
1
 10
613.0012292655
 20
133.277235697
 11
613.0395078182
 21
133.0847924115
 72
1
 10
613.0395078182
 20
133.0847924115
 11
613.0523405262
 21
132.8889841446
 72
1
 10
613.0523405262
 20
132.8889841446
 11
610.0523405232
 21
103.0422049461
 72
1
 10
610.0523405232
 20
103.0422049461
 11
610.0523405232
 21
132.8889841446
 72
1
 10
610.0523405232
 20
132.8889841446
 11
610.0651732311
 21
133.0847924115
 72
1
 10
610.0651732311
 20
133.0847924115
 11
610.1034517838
 21
133.277235697
 72
1
 10
610.1034517838
 20
133.277235697
 11
610.1665212245
 21
133.4630163193
 72
1
 10
610.1665212245
 20
133.4630163193
 11
610.2533024177
 21
133.6390048458
 72
1
 10
610.2533024177
 20
133.6390048458
 11
610.362310513
 21
133.8021391434
 72
1
 10
610.362310513
 20
133.8021391434
 11
610.4916803518
 21
133.9496599274
 72
1
 10
610.4916803518
 20
133.9496599274
 11
610.6391983802
 21
134.0790434617
 72
1
 10
610.6391983802
 20
134.0790434617
 11
610.8023405239
 21
134.1880352088
 72
1
 10
610.8023405239
 20
134.1880352088
 11
610.9783153755
 21
134.2748180787
 72
1
 10
610.9783153755
 20
134.2748180787
 11
611.1641119566
 21
134.3378778299
 72
1
 10
611.1641119566
 20
134.3378778299
 11
611.3565512361
 21
134.3761713181
 72
1
 10
611.3565512361
 20
134.3761713181
 11
611.5523405247
 21
134.3890009209
 97
1
330
3B3
 75
0
 76
1
 98
1
 10
0.0
 20
0.0
  0
LWPOLYLINE
  5
3B5
100
AcDbEntity
  8
ALL_DETAIL_ITEM
100
AcDbPolyline
 62
4
  6
CONTINUOUS
 90
32
 70
0
 10
685.0714062287
 20
133.9495612997
 10
685.2282024274
 20
133.9577695325
 10
715.326351016
 20
133.9567943034
 10
715.5221398869
 20
133.9439552245
 10
715.7145779207
 20
133.9056704099
 10
715.9003724494
 20
133.8425949234
 10
716.0763444771
 20
133.755808004
 10
716.2394830736
 20
133.6467946001
 10
716.3869968922
 20
133.5174199612
 10
716.5163619307
 20
133.3698977231
 10
716.6253647174
 20
133.2067520324
 10
716.7121401843
 20
133.0307743571
 10
716.7752035792
 20
132.8449757238
 10
716.8134758699
 20
132.6525351988
 10
716.8263022069
 20
132.4567454928
 10
686.7281536159
 20
130.9577248817
 10
683.7281536159
 20
103.0457954544
 10
683.7281536159
 20
132.45776178
 10
683.736371113
 20
132.6145696251
 10
683.7609335679
 20
132.7696475962
 10
683.8015718582
 20
132.9213084701
 10
683.8578407237
 20
133.0678905498
 10
683.9291236455
 20
133.2077824812
 10
684.0146396006
 20
133.3394673684
 10
684.1134516196
 20
133.4614865316
 10
684.2244770525
 20
133.5725083518
 10
684.3464994311
 20
133.6713164003
 10
684.4781817972
 20
133.7568128441
 10
684.6180813517
 20
133.82810644
 10
684.7646652623
 20
133.8843705358
 10
684.9163274585
 20
133.925003891
 10
685.0714062287
 20
133.9495612997
  0
HATCH
  5
3B6
100
AcDbEntity
  8
ALL_DETAIL_ITEM
100
AcDbHatch
 62
4
  6
CONTINUOUS
 10
0.0
 20
0.0
 30
0.0
210
0.0
220
0.0
230
1.0
  2
SOLID
 70
1
 71
1
 91
1
 92
1
 93
31
 72
1
 10
685.0714062287
 20
133.9495612997
 11
685.2282024274
 21
133.9577695325
 72
1
 10
685.2282024274
 20
133.9577695325
 11
715.326351016
 21
133.9567943034
 72
1
 10
715.326351016
 20
133.9567943034
 11
715.5221398869
 21
133.9439552245
 72
1
 10
715.5221398869
 20
133.9439552245
 11
715.7145779207
 21
133.9056704099
 72
1
 10
715.7145779207
 20
133.9056704099
 11
715.9003724494
 21
133.8425949234
 72
1
 10
715.9003724494
 20
133.8425949234
 11
716.0763444771
 21
133.755808004
 72
1
 10
716.0763444771
 20
133.755808004
 11
716.2394830736
 21
133.6467946001
 72
1
 10
716.2394830736
 20
133.6467946001
 11
716.3869968922
 21
133.5174199612
 72
1
 10
716.3869968922
 20
133.5174199612
 11
716.5163619307
 21
133.3698977231
 72
1
 10
716.5163619307
 20
133.3698977231
 11
716.6253647174
 21
133.2067520324
 72
1
 10
716.6253647174
 20
133.2067520324
 11
716.7121401843
 21
133.0307743571
 72
1
 10
716.7121401843
 20
133.0307743571
 11
716.7752035792
 21
132.8449757238
 72
1
 10
716.7752035792
 20
132.8449757238
 11
716.8134758699
 21
132.6525351988
 72
1
 10
716.8134758699
 20
132.6525351988
 11
716.8263022069
 21
132.4567454928
 72
1
 10
716.8263022069
 20
132.4567454928
 11
686.7281536159
 21
130.9577248817
 72
1
 10
686.7281536159
 20
130.9577248817
 11
683.7281536159
 21
103.0457954544
 72
1
 10
683.7281536159
 20
103.0457954544
 11
683.7281536159
 21
132.45776178
 72
1
 10
683.7281536159
 20
132.45776178
 11
683.736371113
 21
132.6145696251
 72
1
 10
683.736371113
 20
132.6145696251
 11
683.7609335679
 21
132.7696475962
 72
1
 10
683.7609335679
 20
132.7696475962
 11
683.8015718582
 21
132.9213084701
 72
1
 10
683.8015718582
 20
132.9213084701
 11
683.8578407237
 21
133.0678905498
 72
1
 10
683.8578407237
 20
133.0678905498
 11
683.9291236455
 21
133.2077824812
 72
1
 10
683.9291236455
 20
133.2077824812
 11
684.0146396006
 21
133.3394673684
 72
1
 10
684.0146396006
 20
133.3394673684
 11
684.1134516196
 21
133.4614865316
 72
1
 10
684.1134516196
 20
133.4614865316
 11
684.2244770525
 21
133.5725083518
 72
1
 10
684.2244770525
 20
133.5725083518
 11
684.3464994311
 21
133.6713164003
 72
1
 10
684.3464994311
 20
133.6713164003
 11
684.4781817972
 21
133.7568128441
 72
1
 10
684.4781817972
 20
133.7568128441
 11
684.6180813517
 21
133.82810644
 72
1
 10
684.6180813517
 20
133.82810644
 11
684.7646652623
 21
133.8843705358
 72
1
 10
684.7646652623
 20
133.8843705358
 11
684.9163274585
 21
133.925003891
 72
1
 10
684.9163274585
 20
133.925003891
 11
685.0714062287
 21
133.9495612997
 97
1
330
3B5
 75
0
 76
1
 98
1
 10
0.0
 20
0.0
  0
LWPOLYLINE
  5
3B7
100
AcDbEntity
  8
ALL_DETAIL_ITEM
100
AcDbPolyline
 62
4
  6
CONTINUOUS
 90
13
 70
0
 10
807.7546806242
 20
133.9449415807
 10
807.9471199037
 20
133.906663028
 10
808.1329164848
 20
133.8435935873
 10
808.3088913364
 20
133.7568128441
 10
808.4720334801
 20
133.6478042988
 10
777.8702344657
 20
133.5166693437
 10
778.4601985262
 20
133.6747487592
 10
779.0583559189
 20
133.7982575755
 10
779.6626826926
 20
133.886777883
 10
780.2711340209
 20
133.9400101604
 10
780.8816511214
 20
133.9577695325
 10
807.5588913357
 20
133.9577695325
 10
807.7546806242
 20
133.9449415807
  0
HATCH
  5
3B8
100
AcDbEntity
  8
ALL_DETAIL_ITEM
100
AcDbHatch
 62
4
  6
CONTINUOUS
 10
0.0
 20
0.0
 30
0.0
210
0.0
220
0.0
230
1.0
  2
SOLID
 70
1
 71
1
 91
1
 92
1
 93
12
 72
1
 10
807.7546806242
 20
133.9449415807
 11
807.9471199037
 21
133.906663028
 72
1
 10
807.9471199037
 20
133.906663028
 11
808.1329164848
 21
133.8435935873
 72
1
 10
808.1329164848
 20
133.8435935873
 11
808.3088913364
 21
133.7568128441
 72
1
 10
808.3088913364
 20
133.7568128441
 11
808.4720334801
 21
133.6478042988
 72
1
 10
808.4720334801
 20
133.6478042988
 11
777.8702344657
 21
133.5166693437
 72
1
 10
777.8702344657
 20
133.5166693437
 11
778.4601985262
 21
133.6747487592
 72
1
 10
778.4601985262
 20
133.6747487592
 11
779.0583559189
 21
133.7982575755
 72
1
 10
779.0583559189
 20
133.7982575755
 11
779.6626826926
 21
133.886777883
 72
1
 10
779.6626826926
 20
133.886777883
 11
780.2711340209
 21
133.9400101604
 72
1
 10
780.2711340209
 20
133.9400101604
 11
780.8816511214
 21
133.9577695325
 72
1
 10
780.8816511214
 20
133.9577695325
 11
807.5588913357
 21
133.9577695325
 72
1
 10
807.5588913357
 20
133.9577695325
 11
807.7546806242
 21
133.9449415807
 97
1
330
3B7
 75
0
 76
1
 98
1
 10
0.0
 20
0.0
  0
LWPOLYLINE
  5
3B9
100
AcDbEntity
  8
ALL_DETAIL_ITEM
100
AcDbPolyline
 62
4
  6
CONTINUOUS
 90
10
 70
0
 10
808.6195515085
 20
133.51843446
 10
808.7489213473
 20
133.3709164316
 10
808.8579294426
 20
133.2077824812
 10
808.9447106358
 20
133.0317994363
 10
776.1692855314
 20
132.8409299708
 10
776.7228367759
 20
133.0990534178
 10
777.2904599655
 20
133.3245542136
 10
777.8702344657
 20
133.5166693437
 10
808.4720334801
 20
133.6478042988
 10
808.6195515085
 20
133.51843446
  0
HATCH
  5
3BA
100
AcDbEntity
  8
ALL_DETAIL_ITEM
100
AcDbHatch
 62
4
  6
CONTINUOUS
 10
0.0
 20
0.0
 30
0.0
210
0.0
220
0.0
230
1.0
  2
SOLID
 70
1
 71
1
 91
1
 92
1
 93
9
 72
1
 10
808.6195515085
 20
133.51843446
 11
808.7489213473
 21
133.3709164316
 72
1
 10
808.7489213473
 20
133.3709164316
 11
808.8579294426
 21
133.2077824812
 72
1
 10
808.8579294426
 20
133.2077824812
 11
808.9447106358
 21
133.0317994363
 72
1
 10
808.9447106358
 20
133.0317994363
 11
776.1692855314
 21
132.8409299708
 72
1
 10
776.1692855314
 20
132.8409299708
 11
776.7228367759
 21
133.0990534178
 72
1
 10
776.7228367759
 20
133.0990534178
 11
777.2904599655
 21
133.3245542136
 72
1
 10
777.2904599655
 20
133.3245542136
 11
777.8702344657
 21
133.5166693437
 72
1
 10
777.8702344657
 20
133.5166693437
 11
808.4720334801
 21
133.6478042988
 72
1
 10
808.4720334801
 20
133.6478042988
 11
808.6195515085
 21
133.51843446
 97
1
330
3B9
 75
0
 76
1
 98
1
 10
0.0
 20
0.0
  0
LWPOLYLINE
  5
3BB
100
AcDbEntity
  8
ALL_DETAIL_ITEM
100
AcDbPolyline
 62
4
  6
CONTINUOUS
 90
10
 70
0
 10
809.0077800765
 20
132.8460028552
 10
809.0460586292
 20
132.6535635757
 10
809.0588913372
 20
132.45776178
 10
809.0460586292
 20
132.2619849986
 10
774.7749493677
 20
131.9511721677
 10
775.1902184966
 20
132.2698175915
 10
775.6316792522
 20
132.5510572701
 10
776.1692855314
 20
132.8409299708
 10
808.9447106358
 20
133.0317994363
 10
809.0077800765
 20
132.8460028552
  0
HATCH
  5
3BC
100
AcDbEntity
  8
ALL_DETAIL_ITEM
100
AcDbHatch
 62
4
  6
CONTINUOUS
 10
0.0
 20
0.0
 30
0.0
210
0.0
220
0.0
230
1.0
  2
SOLID
 70
1
 71
1
 91
1
 92
1
 93
9
 72
1
 10
809.0077800765
 20
132.8460028552
 11
809.0460586292
 21
132.6535635757
 72
1
 10
809.0460586292
 20
132.6535635757
 11
809.0588913372
 21
132.45776178
 72
1
 10
809.0588913372
 20
132.45776178
 11
809.0460586292
 21
132.2619849986
 72
1
 10
809.0460586292
 20
132.2619849986
 11
774.7749493677
 21
131.9511721677
 72
1
 10
774.7749493677
 20
131.9511721677
 11
775.1902184966
 21
132.2698175915
 72
1
 10
775.1902184966
 20
132.2698175915
 11
775.6316792522
 21
132.5510572701
 72
1
 10
775.6316792522
 20
132.5510572701
 11
776.1692855314
 21
132.8409299708
 72
1
 10
776.1692855314
 20
132.8409299708
 11
808.9447106358
 21
133.0317994363
 72
1
 10
808.9447106358
 20
133.0317994363
 11
809.0077800765
 21
132.8460028552
 97
1
330
3BB
 75
0
 76
1
 98
1
 10
0.0
 20
0.0
  0
LWPOLYLINE
  5
3BD
100
AcDbEntity
  8
ALL_DETAIL_ITEM
100
AcDbPolyline
 62
4
  6
CONTINUOUS
 90
6
 70
0
 10
809.0077800765
 20
132.0695457191
 10
808.9447106358
 20
131.883749138
 10
774.389032333
 20
131.597546097
 10
774.7749493677
 20
131.9511721677
 10
809.0460586292
 20
132.2619849986
 10
809.0077800765
 20
132.0695457191
  0
HATCH
  5
3BE
100
AcDbEntity
  8
ALL_DETAIL_ITEM
100
AcDbHatch
 62
4
  6
CONTINUOUS
 10
0.0
 20
0.0
 30
0.0
210
0.0
220
0.0
230
1.0
  2
SOLID
 70
1
 71
1
 91
1
 92
1
 93
5
 72
1
 10
809.0077800765
 20
132.0695457191
 11
808.9447106358
 21
131.883749138
 72
1
 10
808.9447106358
 20
131.883749138
 11
774.389032333
 21
131.597546097
 72
1
 10
774.389032333
 20
131.597546097
 11
774.7749493677
 21
131.9511721677
 72
1
 10
774.7749493677
 20
131.9511721677
 11
809.0460586292
 21
132.2619849986
 72
1
 10
809.0460586292
 20
132.2619849986
 11
809.0077800765
 21
132.0695457191
 97
1
330
3BD
 75
0
 76
1
 98
1
 10
0.0
 20
0.0
  0
LWPOLYLINE
  5
3BF
100
AcDbEntity
  8
ALL_DETAIL_ITEM
100
AcDbPolyline
 62
4
  6
CONTINUOUS
 90
6
 70
0
 10
808.8579294426
 20
131.7077742864
 10
808.7489213473
 20
131.5446321427
 10
774.0354044714
 20
131.2116307033
 10
774.389032333
 20
131.597546097
 10
808.9447106358
 20
131.883749138
 10
808.8579294426
 20
131.7077742864
  0
HATCH
  5
3C0
100
AcDbEntity
  8
ALL_DETAIL_ITEM
100
AcDbHatch
 62
4
  6
CONTINUOUS
 10
0.0
 20
0.0
 30
0.0
210
0.0
220
0.0
230
1.0
  2
SOLID
 70
1
 71
1
 91
1
 92
1
 93
5
 72
1
 10
808.8579294426
 20
131.7077742864
 11
808.7489213473
 21
131.5446321427
 72
1
 10
808.7489213473
 20
131.5446321427
 11
774.0354044714
 21
131.2116307033
 72
1
 10
774.0354044714
 20
131.2116307033
 11
774.389032333
 21
131.597546097
 72
1
 10
774.389032333
 20
131.597546097
 11
808.9447106358
 21
131.883749138
 72
1
 10
808.9447106358
 20
131.883749138
 11
808.8579294426
 21
131.7077742864
 97
1
330
3BF
 75
0
 76
1
 98
1
 10
0.0
 20
0.0
  0
LWPOLYLINE
  5
3C1
100
AcDbEntity
  8
ALL_DETAIL_ITEM
100
AcDbPolyline
 62
4
  6
CONTINUOUS
 90
8
 70
0
 10
808.4720334801
 20
131.2677442755
 10
808.3088913364
 20
131.1587361802
 10
780.8816511214
 20
130.9577876773
 10
773.7167571204
 20
130.7963630531
 10
774.0354044714
 20
131.2116307033
 10
808.7489213473
 20
131.5446321427
 10
808.6195515085
 20
131.3971141143
 10
808.4720334801
 20
131.2677442755
  0
HATCH
  5
3C2
100
AcDbEntity
  8
ALL_DETAIL_ITEM
100
AcDbHatch
 62
4
  6
CONTINUOUS
 10
0.0
 20
0.0
 30
0.0
210
0.0
220
0.0
230
1.0
  2
SOLID
 70
1
 71
1
 91
1
 92
1
 93
7
 72
1
 10
808.4720334801
 20
131.2677442755
 11
808.3088913364
 21
131.1587361802
 72
1
 10
808.3088913364
 20
131.1587361802
 11
780.8816511214
 21
130.9577876773
 72
1
 10
780.8816511214
 20
130.9577876773
 11
773.7167571204
 21
130.7963630531
 72
1
 10
773.7167571204
 20
130.7963630531
 11
774.0354044714
 21
131.2116307033
 72
1
 10
774.0354044714
 20
131.2116307033
 11
808.7489213473
 21
131.5446321427
 72
1
 10
808.7489213473
 20
131.5446321427
 11
808.6195515085
 21
131.3971141143
 72
1
 10
808.6195515085
 20
131.3971141143
 11
808.4720334801
 21
131.2677442755
 97
1
330
3C1
 75
0
 76
1
 98
1
 10
0.0
 20
0.0
  0
LWPOLYLINE
  5
3C3
100
AcDbEntity
  8
ALL_DETAIL_ITEM
100
AcDbPolyline
 62
4
  6
CONTINUOUS
 90
7
 70
0
 10
807.7546806242
 20
130.9706069936
 10
807.5588913357
 20
130.9577876773
 10
780.8816511214
 20
130.9577876773
 10
808.3088913364
 20
131.1587361802
 10
808.1329164848
 20
131.071954987
 10
807.9471199037
 20
131.0088855463
 10
807.7546806242
 20
130.9706069936
  0
HATCH
  5
3C4
100
AcDbEntity
  8
ALL_DETAIL_ITEM
100
AcDbHatch
 62
4
  6
CONTINUOUS
 10
0.0
 20
0.0
 30
0.0
210
0.0
220
0.0
230
1.0
  2
SOLID
 70
1
 71
1
 91
1
 92
1
 93
6
 72
1
 10
807.7546806242
 20
130.9706069936
 11
807.5588913357
 21
130.9577876773
 72
1
 10
807.5588913357
 20
130.9577876773
 11
780.8816511214
 21
130.9577876773
 72
1
 10
780.8816511214
 20
130.9577876773
 11
808.3088913364
 21
131.1587361802
 72
1
 10
808.3088913364
 20
131.1587361802
 11
808.1329164848
 21
131.071954987
 72
1
 10
808.1329164848
 20
131.071954987
 11
807.9471199037
 21
131.0088855463
 72
1
 10
807.9471199037
 20
131.0088855463
 11
807.7546806242
 21
130.9706069936
 97
1
330
3C3
 75
0
 76
1
 98
1
 10
0.0
 20
0.0
  0
LWPOLYLINE
  5
3C5
100
AcDbEntity
  8
ALL_DETAIL_ITEM
100
AcDbPolyline
 62
4
  6
CONTINUOUS
 90
15
 70
0
 10
715.5220431023
 20
130.9696206389
 10
715.3262533963
 20
130.956794302
 10
686.7281536159
 20
130.9577248817
 10
716.8263022069
 20
132.4567454928
 10
716.813463128
 20
132.260956622
 10
716.7751783134
 20
132.0685185881
 10
716.7121028269
 20
131.8827240594
 10
716.6253159075
 20
131.7067520317
 10
716.5163025036
 20
131.5436134353
 10
716.3869278647
 20
131.3960996166
 10
716.2394056266
 20
131.2667345781
 10
716.0762599359
 20
131.1577317915
 10
715.9002822606
 20
131.0709563245
 10
715.7144836273
 20
131.0078929296
 10
715.5220431023
 20
130.9696206389
  0
HATCH
  5
3C6
100
AcDbEntity
  8
ALL_DETAIL_ITEM
100
AcDbHatch
 62
4
  6
CONTINUOUS
 10
0.0
 20
0.0
 30
0.0
210
0.0
220
0.0
230
1.0
  2
SOLID
 70
1
 71
1
 91
1
 92
1
 93
14
 72
1
 10
715.5220431023
 20
130.9696206389
 11
715.3262533963
 21
130.956794302
 72
1
 10
715.3262533963
 20
130.956794302
 11
686.7281536159
 21
130.9577248817
 72
1
 10
686.7281536159
 20
130.9577248817
 11
716.8263022069
 21
132.4567454928
 72
1
 10
716.8263022069
 20
132.4567454928
 11
716.813463128
 21
132.260956622
 72
1
 10
716.813463128
 20
132.260956622
 11
716.7751783134
 21
132.0685185881
 72
1
 10
716.7751783134
 20
132.0685185881
 11
716.7121028269
 21
131.8827240594
 72
1
 10
716.7121028269
 20
131.8827240594
 11
716.6253159075
 21
131.7067520317
 72
1
 10
716.6253159075
 20
131.7067520317
 11
716.5163025036
 21
131.5436134353
 72
1
 10
716.5163025036
 20
131.5436134353
 11
716.3869278647
 21
131.3960996166
 72
1
 10
716.3869278647
 20
131.3960996166
 11
716.2394056266
 21
131.2667345781
 72
1
 10
716.2394056266
 20
131.2667345781
 11
716.0762599359
 21
131.1577317915
 72
1
 10
716.0762599359
 20
131.1577317915
 11
715.9002822606
 21
131.0709563245
 72
1
 10
715.9002822606
 20
131.0709563245
 11
715.7144836273
 21
131.0078929296
 72
1
 10
715.7144836273
 20
131.0078929296
 11
715.5220431023
 21
130.9696206389
 97
1
330
3C5
 75
0
 76
1
 98
1
 10
0.0
 20
0.0
  0
LWPOLYLINE
  5
3C7
100
AcDbEntity
  8
ALL_DETAIL_ITEM
100
AcDbPolyline
 62
4
  6
CONTINUOUS
 90
8
 70
0
 10
779.5792974058
 20
130.8438337756
 10
779.1520421254
 20
130.7556131925
 10
773.4355153931
 20
130.3549036026
 10
773.7167571204
 20
130.7963630531
 10
780.8816511214
 20
130.9577876773
 10
780.4455674784
 20
130.9450856219
 10
780.0109593869
 20
130.9070625666
 10
779.5792974058
 20
130.8438337756
  0
HATCH
  5
3C8
100
AcDbEntity
  8
ALL_DETAIL_ITEM
100
AcDbHatch
 62
4
  6
CONTINUOUS
 10
0.0
 20
0.0
 30
0.0
210
0.0
220
0.0
230
1.0
  2
SOLID
 70
1
 71
1
 91
1
 92
1
 93
7
 72
1
 10
779.5792974058
 20
130.8438337756
 11
779.1520421254
 21
130.7556131925
 72
1
 10
779.1520421254
 20
130.7556131925
 11
773.4355153931
 21
130.3549036026
 72
1
 10
773.4355153931
 20
130.3549036026
 11
773.7167571204
 21
130.7963630531
 72
1
 10
773.7167571204
 20
130.7963630531
 11
780.8816511214
 21
130.9577876773
 72
1
 10
780.8816511214
 20
130.9577876773
 11
780.4455674784
 21
130.9450856219
 72
1
 10
780.4455674784
 20
130.9450856219
 11
780.0109593869
 21
130.9070625666
 72
1
 10
780.0109593869
 20
130.9070625666
 11
779.5792974058
 21
130.8438337756
 97
1
330
3C7
 75
0
 76
1
 98
1
 10
0.0
 20
0.0
  0
LWPOLYLINE
  5
3C9
100
AcDbEntity
  8
ALL_DETAIL_ITEM
100
AcDbPolyline
 62
4
  6
CONTINUOUS
 90
7
 70
0
 10
778.3165145824
 20
130.5054742314
 10
777.9110694471
 20
130.3444022345
 10
773.1938197215
 20
129.8906121447
 10
773.4355153931
 20
130.3549036026
 10
779.1520421254
 20
130.7556131925
 10
778.7306392252
 20
130.6426993244
 10
778.3165145824
 20
130.5054742314
  0
HATCH
  5
3CA
100
AcDbEntity
  8
ALL_DETAIL_ITEM
100
AcDbHatch
 62
4
  6
CONTINUOUS
 10
0.0
 20
0.0
 30
0.0
210
0.0
220
0.0
230
1.0
  2
SOLID
 70
1
 71
1
 91
1
 92
1
 93
6
 72
1
 10
778.3165145824
 20
130.5054742314
 11
777.9110694471
 21
130.3444022345
 72
1
 10
777.9110694471
 20
130.3444022345
 11
773.1938197215
 21
129.8906121447
 72
1
 10
773.1938197215
 20
129.8906121447
 11
773.4355153931
 21
130.3549036026
 72
1
 10
773.4355153931
 20
130.3549036026
 11
779.1520421254
 21
130.7556131925
 72
1
 10
779.1520421254
 20
130.7556131925
 11
778.7306392252
 21
130.6426993244
 72
1
 10
778.7306392252
 20
130.6426993244
 11
778.3165145824
 21
130.5054742314
 97
1
330
3C9
 75
0
 76
1
 98
1
 10
0.0
 20
0.0
  0
LWPOLYLINE
  5
3CB
100
AcDbEntity
  8
ALL_DETAIL_ITEM
100
AcDbPolyline
 62
4
  6
CONTINUOUS
 90
7
 70
0
 10
777.131671216
 20
129.9529764149
 10
776.9109408386
 20
129.8123565757
 10
772.9935095664
 20
129.4070222385
 10
773.1938197215
 20
129.8906121447
 10
777.9110694471
 20
130.3444022345
 10
777.5156757012
 20
130.1600283438
 10
777.131671216
 20
129.9529764149
  0
HATCH
  5
3CC
100
AcDbEntity
  8
ALL_DETAIL_ITEM
100
AcDbHatch
 62
4
  6
CONTINUOUS
 10
0.0
 20
0.0
 30
0.0
210
0.0
220
0.0
230
1.0
  2
SOLID
 70
1
 71
1
 91
1
 92
1
 93
6
 72
1
 10
777.131671216
 20
129.9529764149
 11
776.9109408386
 21
129.8123565757
 72
1
 10
776.9109408386
 20
129.8123565757
 11
772.9935095664
 21
129.4070222385
 72
1
 10
772.9935095664
 20
129.4070222385
 11
773.1938197215
 21
129.8906121447
 72
1
 10
773.1938197215
 20
129.8906121447
 11
777.9110694471
 21
130.3444022345
 72
1
 10
777.9110694471
 20
130.3444022345
 11
777.5156757012
 21
130.1600283438
 72
1
 10
777.5156757012
 20
130.1600283438
 11
777.131671216
 21
129.9529764149
 97
1
330
3CB
 75
0
 76
1
 98
1
 10
0.0
 20
0.0
  0
LWPOLYLINE
  5
3CD
100
AcDbEntity
  8
ALL_DETAIL_ITEM
100
AcDbPolyline
 62
4
  6
CONTINUOUS
 90
7
 70
0
 10
776.510347757
 20
129.4762208286
 10
776.3335338263
 20
129.2832631319
 10
772.8361094181
 20
128.907814317
 10
772.9935095664
 20
129.4070222385
 10
776.9109408386
 20
129.8123565757
 10
776.7033062743
 20
129.6530338638
 10
776.510347757
 20
129.4762208286
  0
HATCH
  5
3CE
100
AcDbEntity
  8
ALL_DETAIL_ITEM
100
AcDbHatch
 62
4
  6
CONTINUOUS
 10
0.0
 20
0.0
 30
0.0
210
0.0
220
0.0
230
1.0
  2
SOLID
 70
1
 71
1
 91
1
 92
1
 93
6
 72
1
 10
776.510347757
 20
129.4762208286
 11
776.3335338263
 21
129.2832631319
 72
1
 10
776.3335338263
 20
129.2832631319
 11
772.8361094181
 21
128.907814317
 72
1
 10
772.8361094181
 20
128.907814317
 11
772.9935095664
 21
129.4070222385
 72
1
 10
772.9935095664
 20
129.4070222385
 11
776.9109408386
 21
129.8123565757
 72
1
 10
776.9109408386
 20
129.8123565757
 11
776.7033062743
 21
129.6530338638
 72
1
 10
776.7033062743
 20
129.6530338638
 11
776.510347757
 21
129.4762208286
 97
1
330
3CD
 75
0
 76
1
 98
1
 10
0.0
 20
0.0
  0
LWPOLYLINE
  5
3CF
100
AcDbEntity
  8
ALL_DETAIL_ITEM
100
AcDbPolyline
 62
4
  6
CONTINUOUS
 90
6
 70
0
 10
776.1742101509
 20
129.0756293069
 10
776.0335892874
 20
128.8548995818
 10
772.7228171939
 20
128.3967876763
 10
772.8361094181
 20
128.907814317
 10
776.3335338263
 20
129.2832631319
 10
776.1742101509
 20
129.0756293069
  0
HATCH
  5
3D0
100
AcDbEntity
  8
ALL_DETAIL_ITEM
100
AcDbHatch
 62
4
  6
CONTINUOUS
 10
0.0
 20
0.0
 30
0.0
210
0.0
220
0.0
230
1.0
  2
SOLID
 70
1
 71
1
 91
1
 92
1
 93
5
 72
1
 10
776.1742101509
 20
129.0756293069
 11
776.0335892874
 21
128.8548995818
 72
1
 10
776.0335892874
 20
128.8548995818
 11
772.7228171939
 21
128.3967876763
 72
1
 10
772.7228171939
 20
128.3967876763
 11
772.8361094181
 21
128.907814317
 72
1
 10
772.8361094181
 20
128.907814317
 11
776.3335338263
 21
129.2832631319
 72
1
 10
776.3335338263
 20
129.2832631319
 11
776.1742101509
 21
129.0756293069
 97
1
330
3CF
 75
0
 76
1
 98
1
 10
0.0
 20
0.0
  0
LWPOLYLINE
  5
3D1
100
AcDbEntity
  8
ALL_DETAIL_ITEM
100
AcDbPolyline
 62
4
  6
CONTINUOUS
 90
6
 70
0
 10
775.9127414517
 20
128.622753853
 10
775.8125863742
 20
128.3809589001
 10
772.654495121
 20
127.8778315607
 10
772.7228171939
 20
128.3967876763
 10
776.0335892874
 20
128.8548995818
 10
775.9127414517
 20
128.622753853
  0
HATCH
  5
3D2
100
AcDbEntity
  8
ALL_DETAIL_ITEM
100
AcDbHatch
 62
4
  6
CONTINUOUS
 10
0.0
 20
0.0
 30
0.0
210
0.0
220
0.0
230
1.0
  2
SOLID
 70
1
 71
1
 91
1
 92
1
 93
5
 72
1
 10
775.9127414517
 20
128.622753853
 11
775.8125863742
 21
128.3809589001
 72
1
 10
775.8125863742
 20
128.3809589001
 11
772.654495121
 21
127.8778315607
 72
1
 10
772.654495121
 20
127.8778315607
 11
772.7228171939
 21
128.3967876763
 72
1
 10
772.7228171939
 20
128.3967876763
 11
776.0335892874
 21
128.8548995818
 72
1
 10
776.0335892874
 20
128.8548995818
 11
775.9127414517
 21
128.622753853
 97
1
330
3D1
 75
0
 76
1
 98
1
 10
0.0
 20
0.0
  0
LWPOLYLINE
  5
3D3
100
AcDbEntity
  8
ALL_DETAIL_ITEM
100
AcDbPolyline
 62
4
  6
CONTINUOUS
 90
6
 70
0
 10
775.7338863001
 20
128.1313549395
 10
775.677240188
 20
127.8758416193
 10
772.6316631747
 20
127.3549021072
 10
772.654495121
 20
127.8778315607
 10
775.8125863742
 20
128.3809589001
 10
775.7338863001
 20
128.1313549395
  0
HATCH
  5
3D4
100
AcDbEntity
  8
ALL_DETAIL_ITEM
100
AcDbHatch
 62
4
  6
CONTINUOUS
 10
0.0
 20
0.0
 30
0.0
210
0.0
220
0.0
230
1.0
  2
SOLID
 70
1
 71
1
 91
1
 92
1
 93
5
 72
1
 10
775.7338863001
 20
128.1313549395
 11
775.677240188
 21
127.8758416193
 72
1
 10
775.677240188
 20
127.8758416193
 11
772.6316631747
 21
127.3549021072
 72
1
 10
772.6316631747
 20
127.3549021072
 11
772.654495121
 21
127.8778315607
 72
1
 10
772.654495121
 20
127.8778315607
 11
775.8125863742
 21
128.3809589001
 72
1
 10
775.8125863742
 20
128.3809589001
 11
775.7338863001
 21
128.1313549395
 97
1
330
3D3
 75
0
 76
1
 98
1
 10
0.0
 20
0.0
  0
LWPOLYLINE
  5
3D5
100
AcDbEntity
  8
ALL_DETAIL_ITEM
100
AcDbPolyline
 62
4
  6
CONTINUOUS
 90
8
 70
0
 10
775.6430791516
 20
127.6163635617
 10
775.6316631784
 20
127.3549021072
 10
775.6316631784
 20
122.8526579619
 10
772.654495121
 20
122.3297207679
 10
772.6316631747
 20
122.8526579619
 10
772.6316631747
 20
127.3549021072
 10
775.677240188
 20
127.8758416193
 10
775.6430791516
 20
127.6163635617
  0
HATCH
  5
3D6
100
AcDbEntity
  8
ALL_DETAIL_ITEM
100
AcDbHatch
 62
4
  6
CONTINUOUS
 10
0.0
 20
0.0
 30
0.0
210
0.0
220
0.0
230
1.0
  2
SOLID
 70
1
 71
1
 91
1
 92
1
 93
7
 72
1
 10
775.6430791516
 20
127.6163635617
 11
775.6316631784
 21
127.3549021072
 72
1
 10
775.6316631784
 20
127.3549021072
 11
775.6316631784
 21
122.8526579619
 72
1
 10
775.6316631784
 20
122.8526579619
 11
772.654495121
 21
122.3297207679
 72
1
 10
772.654495121
 20
122.3297207679
 11
772.6316631747
 21
122.8526579619
 72
1
 10
772.6316631747
 20
122.8526579619
 11
772.6316631747
 21
127.3549021072
 72
1
 10
772.6316631747
 20
127.3549021072
 11
775.677240188
 21
127.8758416193
 72
1
 10
775.677240188
 20
127.8758416193
 11
775.6430791516
 21
127.6163635617
 97
1
330
3D5
 75
0
 76
1
 98
1
 10
0.0
 20
0.0
  0
LWPOLYLINE
  5
3D7
100
AcDbEntity
  8
ALL_DETAIL_ITEM
100
AcDbPolyline
 62
4
  6
CONTINUOUS
 90
7
 70
0
 10
775.677240188
 20
122.3317107093
 10
775.7338863001
 20
122.0761973891
 10
772.7228171939
 20
121.8107646523
 10
772.654495121
 20
122.3297207679
 10
775.6316631784
 20
122.8526579619
 10
775.6430791516
 20
122.5911887669
 10
775.677240188
 20
122.3317107093
  0
HATCH
  5
3D8
100
AcDbEntity
  8
ALL_DETAIL_ITEM
100
AcDbHatch
 62
4
  6
CONTINUOUS
 10
0.0
 20
0.0
 30
0.0
210
0.0
220
0.0
230
1.0
  2
SOLID
 70
1
 71
1
 91
1
 92
1
 93
6
 72
1
 10
775.677240188
 20
122.3317107093
 11
775.7338863001
 21
122.0761973891
 72
1
 10
775.7338863001
 20
122.0761973891
 11
772.7228171939
 21
121.8107646523
 72
1
 10
772.7228171939
 20
121.8107646523
 11
772.654495121
 21
122.3297207679
 72
1
 10
772.654495121
 20
122.3297207679
 11
775.6316631784
 21
122.8526579619
 72
1
 10
775.6316631784
 20
122.8526579619
 11
775.6430791516
 21
122.5911887669
 72
1
 10
775.6430791516
 20
122.5911887669
 11
775.677240188
 21
122.3317107093
 97
1
330
3D7
 75
0
 76
1
 98
1
 10
0.0
 20
0.0
  0
LWPOLYLINE
  5
3D9
100
AcDbEntity
  8
ALL_DETAIL_ITEM
100
AcDbPolyline
 62
4
  6
CONTINUOUS
 90
6
 70
0
 10
775.8125863742
 20
121.8265934285
 10
775.9127414517
 20
121.5847984756
 10
772.8361094181
 20
121.2997380116
 10
772.7228171939
 20
121.8107646523
 10
775.7338863001
 20
122.0761973891
 10
775.8125863742
 20
121.8265934285
  0
HATCH
  5
3DA
100
AcDbEntity
  8
ALL_DETAIL_ITEM
100
AcDbHatch
 62
4
  6
CONTINUOUS
 10
0.0
 20
0.0
 30
0.0
210
0.0
220
0.0
230
1.0
  2
SOLID
 70
1
 71
1
 91
1
 92
1
 93
5
 72
1
 10
775.8125863742
 20
121.8265934285
 11
775.9127414517
 21
121.5847984756
 72
1
 10
775.9127414517
 20
121.5847984756
 11
772.8361094181
 21
121.2997380116
 72
1
 10
772.8361094181
 20
121.2997380116
 11
772.7228171939
 21
121.8107646523
 72
1
 10
772.7228171939
 20
121.8107646523
 11
775.7338863001
 21
122.0761973891
 72
1
 10
775.7338863001
 20
122.0761973891
 11
775.8125863742
 21
121.8265934285
 97
1
330
3D9
 75
0
 76
1
 98
1
 10
0.0
 20
0.0
  0
LWPOLYLINE
  5
3DB
100
AcDbEntity
  8
ALL_DETAIL_ITEM
100
AcDbPolyline
 62
4
  6
CONTINUOUS
 90
6
 70
0
 10
776.0335892874
 20
121.3526527468
 10
776.1742101509
 20
121.1319230217
 10
772.9935095664
 20
120.8005300901
 10
772.8361094181
 20
121.2997380116
 10
775.9127414517
 20
121.5847984756
 10
776.0335892874
 20
121.3526527468
  0
HATCH
  5
3DC
100
AcDbEntity
  8
ALL_DETAIL_ITEM
100
AcDbHatch
 62
4
  6
CONTINUOUS
 10
0.0
 20
0.0
 30
0.0
210
0.0
220
0.0
230
1.0
  2
SOLID
 70
1
 71
1
 91
1
 92
1
 93
5
 72
1
 10
776.0335892874
 20
121.3526527468
 11
776.1742101509
 21
121.1319230217
 72
1
 10
776.1742101509
 20
121.1319230217
 11
772.9935095664
 21
120.8005300901
 72
1
 10
772.9935095664
 20
120.8005300901
 11
772.8361094181
 21
121.2997380116
 72
1
 10
772.8361094181
 20
121.2997380116
 11
775.9127414517
 21
121.5847984756
 72
1
 10
775.9127414517
 20
121.5847984756
 11
776.0335892874
 21
121.3526527468
 97
1
330
3DB
 75
0
 76
1
 98
1
 10
0.0
 20
0.0
  0
LWPOLYLINE
  5
3DD
100
AcDbEntity
  8
ALL_DETAIL_ITEM
100
AcDbPolyline
 62
4
  6
CONTINUOUS
 90
6
 70
0
 10
776.3335338263
 20
120.9242891967
 10
776.510347757
 20
120.7313315
 10
773.1938197215
 20
120.3169401839
 10
772.9935095664
 20
120.8005300901
 10
776.1742101509
 20
121.1319230217
 10
776.3335338263
 20
120.9242891967
  0
HATCH
  5
3DE
100
AcDbEntity
  8
ALL_DETAIL_ITEM
100
AcDbHatch
 62
4
  6
CONTINUOUS
 10
0.0
 20
0.0
 30
0.0
210
0.0
220
0.0
230
1.0
  2
SOLID
 70
1
 71
1
 91
1
 92
1
 93
5
 72
1
 10
776.3335338263
 20
120.9242891967
 11
776.510347757
 21
120.7313315
 72
1
 10
776.510347757
 20
120.7313315
 11
773.1938197215
 21
120.3169401839
 72
1
 10
773.1938197215
 20
120.3169401839
 11
772.9935095664
 21
120.8005300901
 72
1
 10
772.9935095664
 20
120.8005300901
 11
776.1742101509
 21
121.1319230217
 72
1
 10
776.1742101509
 20
121.1319230217
 11
776.3335338263
 21
120.9242891967
 97
1
330
3DD
 75
0
 76
1
 98
1
 10
0.0
 20
0.0
  0
LWPOLYLINE
  5
3DF
100
AcDbEntity
  8
ALL_DETAIL_ITEM
100
AcDbPolyline
 62
4
  6
CONTINUOUS
 90
7
 70
0
 10
776.9109408386
 20
120.3951957529
 10
777.1316712163
 20
120.2545759137
 10
773.4355153931
 20
119.852648726
 10
773.1938197215
 20
120.3169401839
 10
776.510347757
 20
120.7313315
 10
776.7033062743
 20
120.5545184647
 10
776.9109408386
 20
120.3951957529
  0
HATCH
  5
3E0
100
AcDbEntity
  8
ALL_DETAIL_ITEM
100
AcDbHatch
 62
4
  6
CONTINUOUS
 10
0.0
 20
0.0
 30
0.0
210
0.0
220
0.0
230
1.0
  2
SOLID
 70
1
 71
1
 91
1
 92
1
 93
6
 72
1
 10
776.9109408386
 20
120.3951957529
 11
777.1316712163
 21
120.2545759137
 72
1
 10
777.1316712163
 20
120.2545759137
 11
773.4355153931
 21
119.852648726
 72
1
 10
773.4355153931
 20
119.852648726
 11
773.1938197215
 21
120.3169401839
 72
1
 10
773.1938197215
 20
120.3169401839
 11
776.510347757
 21
120.7313315
 72
1
 10
776.510347757
 20
120.7313315
 11
776.7033062743
 21
120.5545184647
 72
1
 10
776.7033062743
 20
120.5545184647
 11
776.9109408386
 21
120.3951957529
 97
1
330
3DF
 75
0
 76
1
 98
1
 10
0.0
 20
0.0
  0
LWPOLYLINE
  5
3E1
100
AcDbEntity
  8
ALL_DETAIL_ITEM
100
AcDbPolyline
 62
4
  6
CONTINUOUS
 90
7
 70
0
 10
777.9110694471
 20
119.8631500941
 10
778.3165145824
 20
119.7020780971
 10
773.7167571204
 20
119.4111892755
 10
773.4355153931
 20
119.852648726
 10
777.1316712163
 20
120.2545759137
 10
777.5156757012
 20
120.0475239847
 10
777.9110694471
 20
119.8631500941
  0
HATCH
  5
3E2
100
AcDbEntity
  8
ALL_DETAIL_ITEM
100
AcDbHatch
 62
4
  6
CONTINUOUS
 10
0.0
 20
0.0
 30
0.0
210
0.0
220
0.0
230
1.0
  2
SOLID
 70
1
 71
1
 91
1
 92
1
 93
6
 72
1
 10
777.9110694471
 20
119.8631500941
 11
778.3165145824
 21
119.7020780971
 72
1
 10
778.3165145824
 20
119.7020780971
 11
773.7167571204
 21
119.4111892755
 72
1
 10
773.7167571204
 20
119.4111892755
 11
773.4355153931
 21
119.852648726
 72
1
 10
773.4355153931
 20
119.852648726
 11
777.1316712163
 21
120.2545759137
 72
1
 10
777.1316712163
 20
120.2545759137
 11
777.5156757012
 21
120.0475239847
 72
1
 10
777.5156757012
 20
120.0475239847
 11
777.9110694471
 21
119.8631500941
 97
1
330
3E1
 75
0
 76
1
 98
1
 10
0.0
 20
0.0
  0
LWPOLYLINE
  5
3E3
100
AcDbEntity
  8
ALL_DETAIL_ITEM
100
AcDbPolyline
 62
4
  6
CONTINUOUS
 90
7
 70
0
 10
779.1520421254
 20
119.4519391361
 10
779.5792974058
 20
119.363718553
 10
774.0354044714
 20
118.9959216253
 10
773.7167571204
 20
119.4111892755
 10
778.3165145824
 20
119.7020780971
 10
778.7306392252
 20
119.5648530042
 10
779.1520421254
 20
119.4519391361
  0
HATCH
  5
3E4
100
AcDbEntity
  8
ALL_DETAIL_ITEM
100
AcDbHatch
 62
4
  6
CONTINUOUS
 10
0.0
 20
0.0
 30
0.0
210
0.0
220
0.0
230
1.0
  2
SOLID
 70
1
 71
1
 91
1
 92
1
 93
6
 72
1
 10
779.1520421254
 20
119.4519391361
 11
779.5792974058
 21
119.363718553
 72
1
 10
779.5792974058
 20
119.363718553
 11
774.0354044714
 21
118.9959216253
 72
1
 10
774.0354044714
 20
118.9959216253
 11
773.7167571204
 21
119.4111892755
 72
1
 10
773.7167571204
 20
119.4111892755
 11
778.3165145824
 21
119.7020780971
 72
1
 10
778.3165145824
 20
119.7020780971
 11
778.7306392252
 21
119.5648530042
 72
1
 10
778.7306392252
 20
119.5648530042
 11
779.1520421254
 21
119.4519391361
 97
1
330
3E3
 75
0
 76
1
 98
1
 10
0.0
 20
0.0
  0
LWPOLYLINE
  5
3E5
100
AcDbEntity
  8
ALL_DETAIL_ITEM
100
AcDbPolyline
 62
4
  6
CONTINUOUS
 90
8
 70
0
 10
802.6379830129
 20
119.250815536
 10
803.2485001151
 20
119.2330544795
 10
774.0354044714
 20
118.9959216253
 10
779.5792974058
 20
119.363718553
 10
780.0109593869
 20
119.300489762
 10
780.4455674783
 20
119.2624667067
 10
780.8816511214
 20
119.2497780437
 10
802.6379830129
 20
119.250815536
  0
HATCH
  5
3E6
100
AcDbEntity
  8
ALL_DETAIL_ITEM
100
AcDbHatch
 62
4
  6
CONTINUOUS
 10
0.0
 20
0.0
 30
0.0
210
0.0
220
0.0
230
1.0
  2
SOLID
 70
1
 71
1
 91
1
 92
1
 93
7
 72
1
 10
802.6379830129
 20
119.250815536
 11
803.2485001151
 21
119.2330544795
 72
1
 10
803.2485001151
 20
119.2330544795
 11
774.0354044714
 21
118.9959216253
 72
1
 10
774.0354044714
 20
118.9959216253
 11
779.5792974058
 21
119.363718553
 72
1
 10
779.5792974058
 20
119.363718553
 11
780.0109593869
 21
119.300489762
 72
1
 10
780.0109593869
 20
119.300489762
 11
780.4455674783
 21
119.2624667067
 72
1
 10
780.4455674783
 20
119.2624667067
 11
780.8816511214
 21
119.2497780437
 72
1
 10
780.8816511214
 20
119.2497780437
 11
802.6379830129
 21
119.250815536
 97
1
330
3E5
 75
0
 76
1
 98
1
 10
0.0
 20
0.0
  0
LWPOLYLINE
  5
3E7
100
AcDbEntity
  8
ALL_DETAIL_ITEM
100
AcDbPolyline
 62
4
  6
CONTINUOUS
 90
7
 70
0
 10
804.4612782204
 20
119.0913018939
 10
805.0594356148
 20
118.9677930768
 10
774.389032333
 20
118.6100062316
 10
774.0354044714
 20
118.9959216253
 10
803.2485001151
 20
119.2330544795
 10
803.8569514451
 20
119.1798222018
 10
804.4612782204
 20
119.0913018939
  0
HATCH
  5
3E8
100
AcDbEntity
  8
ALL_DETAIL_ITEM
100
AcDbHatch
 62
4
  6
CONTINUOUS
 10
0.0
 20
0.0
 30
0.0
210
0.0
220
0.0
230
1.0
  2
SOLID
 70
1
 71
1
 91
1
 92
1
 93
6
 72
1
 10
804.4612782204
 20
119.0913018939
 11
805.0594356148
 21
118.9677930768
 72
1
 10
805.0594356148
 20
118.9677930768
 11
774.389032333
 21
118.6100062316
 72
1
 10
774.389032333
 20
118.6100062316
 11
774.0354044714
 21
118.9959216253
 72
1
 10
774.0354044714
 20
118.9959216253
 11
803.2485001151
 21
119.2330544795
 72
1
 10
803.2485001151
 20
119.2330544795
 11
803.8569514451
 21
119.1798222018
 72
1
 10
803.8569514451
 20
119.1798222018
 11
804.4612782204
 21
119.0913018939
 97
1
330
3E7
 75
0
 76
1
 98
1
 10
0.0
 20
0.0
  0
LWPOLYLINE
  5
3E9
100
AcDbEntity
  8
ALL_DETAIL_ITEM
100
AcDbPolyline
 62
4
  6
CONTINUOUS
 90
50
 70
0
 10
806.2291741785
 20
118.6175985293
 10
806.7967973694
 20
118.3920977323
 10
807.3503486152
 20
118.1339742839
 10
807.8879548957
 20
117.8441015817
 10
808.3294156503
 20
117.5628619024
 10
808.7446847783
 20
117.2442164784
 10
809.1306018121
 20
116.8905904078
 10
809.4842296727
 20
116.5046750143
 10
809.8028770229
 20
116.0894073644
 10
810.0841187494
 20
115.6479479143
 10
810.3258144204
 20
115.1836564569
 10
810.5261245749
 20
114.7000665513
 10
810.6835247228
 20
114.2008586304
 10
810.7968169467
 20
113.6898319904
 10
810.8651390194
 20
113.1708758755
 10
807.8423939525
 20
113.1688859341
 10
807.7857478405
 20
113.4243992539
 10
807.7070477666
 20
113.6740032142
 10
807.6068926894
 20
113.9157981669
 10
807.486044854
 20
114.1479438954
 10
807.3454239909
 20
114.3686736203
 10
807.1861003159
 20
114.5763074451
 10
807.0092863857
 20
114.7692651418
 10
806.8163278689
 20
114.946078177
 10
806.608693305
 20
115.1054008889
 10
806.3879629279
 20
115.2460207282
 10
806.0039584419
 20
115.4530726587
 10
805.6085646951
 20
115.6374465504
 10
805.2031195588
 20
115.7985185482
 10
804.788994915
 20
115.9357436419
 10
804.3675920137
 20
116.0486575106
 10
803.9403367321
 20
116.1368780942
 10
803.5086747499
 20
116.2001068856
 10
803.0740666572
 20
116.238129941
 10
802.6379830129
 20
116.250800031
 10
780.2711340209
 20
116.2675421682
 10
779.6626826926
 20
116.3207744456
 10
779.0583559189
 20
116.4092947531
 10
778.4601985261
 20
116.5328035694
 10
777.8702344656
 20
116.6908829849
 10
777.2904599655
 20
116.882998115
 10
776.7228367759
 20
117.1084989108
 10
776.1692855314
 20
117.3666223578
 10
775.631679252
 20
117.6564950585
 10
775.1902184966
 20
117.9377347371
 10
774.7749493677
 20
118.2563801609
 10
774.389032333
 20
118.6100062316
 10
805.0594356148
 20
118.9677930768
 10
805.6493996769
 20
118.8097136605
 10
806.2291741785
 20
118.6175985293
  0
HATCH
  5
3EA
100
AcDbEntity
  8
ALL_DETAIL_ITEM
100
AcDbHatch
 62
4
  6
CONTINUOUS
 10
0.0
 20
0.0
 30
0.0
210
0.0
220
0.0
230
1.0
  2
SOLID
 70
1
 71
1
 91
1
 92
1
 93
49
 72
1
 10
806.2291741785
 20
118.6175985293
 11
806.7967973694
 21
118.3920977323
 72
1
 10
806.7967973694
 20
118.3920977323
 11
807.3503486152
 21
118.1339742839
 72
1
 10
807.3503486152
 20
118.1339742839
 11
807.8879548957
 21
117.8441015817
 72
1
 10
807.8879548957
 20
117.8441015817
 11
808.3294156503
 21
117.5628619024
 72
1
 10
808.3294156503
 20
117.5628619024
 11
808.7446847783
 21
117.2442164784
 72
1
 10
808.7446847783
 20
117.2442164784
 11
809.1306018121
 21
116.8905904078
 72
1
 10
809.1306018121
 20
116.8905904078
 11
809.4842296727
 21
116.5046750143
 72
1
 10
809.4842296727
 20
116.5046750143
 11
809.8028770229
 21
116.0894073644
 72
1
 10
809.8028770229
 20
116.0894073644
 11
810.0841187494
 21
115.6479479143
 72
1
 10
810.0841187494
 20
115.6479479143
 11
810.3258144204
 21
115.1836564569
 72
1
 10
810.3258144204
 20
115.1836564569
 11
810.5261245749
 21
114.7000665513
 72
1
 10
810.5261245749
 20
114.7000665513
 11
810.6835247228
 21
114.2008586304
 72
1
 10
810.6835247228
 20
114.2008586304
 11
810.7968169467
 21
113.6898319904
 72
1
 10
810.7968169467
 20
113.6898319904
 11
810.8651390194
 21
113.1708758755
 72
1
 10
810.8651390194
 20
113.1708758755
 11
807.8423939525
 21
113.1688859341
 72
1
 10
807.8423939525
 20
113.1688859341
 11
807.7857478405
 21
113.4243992539
 72
1
 10
807.7857478405
 20
113.4243992539
 11
807.7070477666
 21
113.6740032142
 72
1
 10
807.7070477666
 20
113.6740032142
 11
807.6068926894
 21
113.9157981669
 72
1
 10
807.6068926894
 20
113.9157981669
 11
807.486044854
 21
114.1479438954
 72
1
 10
807.486044854
 20
114.1479438954
 11
807.3454239909
 21
114.3686736203
 72
1
 10
807.3454239909
 20
114.3686736203
 11
807.1861003159
 21
114.5763074451
 72
1
 10
807.1861003159
 20
114.5763074451
 11
807.0092863857
 21
114.7692651418
 72
1
 10
807.0092863857
 20
114.7692651418
 11
806.8163278689
 21
114.946078177
 72
1
 10
806.8163278689
 20
114.946078177
 11
806.608693305
 21
115.1054008889
 72
1
 10
806.608693305
 20
115.1054008889
 11
806.3879629279
 21
115.2460207282
 72
1
 10
806.3879629279
 20
115.2460207282
 11
806.0039584419
 21
115.4530726587
 72
1
 10
806.0039584419
 20
115.4530726587
 11
805.6085646951
 21
115.6374465504
 72
1
 10
805.6085646951
 20
115.6374465504
 11
805.2031195588
 21
115.7985185482
 72
1
 10
805.2031195588
 20
115.7985185482
 11
804.788994915
 21
115.9357436419
 72
1
 10
804.788994915
 20
115.9357436419
 11
804.3675920137
 21
116.0486575106
 72
1
 10
804.3675920137
 20
116.0486575106
 11
803.9403367321
 21
116.1368780942
 72
1
 10
803.9403367321
 20
116.1368780942
 11
803.5086747499
 21
116.2001068856
 72
1
 10
803.5086747499
 20
116.2001068856
 11
803.0740666572
 21
116.238129941
 72
1
 10
803.0740666572
 20
116.238129941
 11
802.6379830129
 21
116.250800031
 72
1
 10
802.6379830129
 20
116.250800031
 11
780.2711340209
 21
116.2675421682
 72
1
 10
780.2711340209
 20
116.2675421682
 11
779.6626826926
 21
116.3207744456
 72
1
 10
779.6626826926
 20
116.3207744456
 11
779.0583559189
 21
116.4092947531
 72
1
 10
779.0583559189
 20
116.4092947531
 11
778.4601985261
 21
116.5328035694
 72
1
 10
778.4601985261
 20
116.5328035694
 11
777.8702344656
 21
116.6908829849
 72
1
 10
777.8702344656
 20
116.6908829849
 11
777.2904599655
 21
116.882998115
 72
1
 10
777.2904599655
 20
116.882998115
 11
776.7228367759
 21
117.1084989108
 72
1
 10
776.7228367759
 20
117.1084989108
 11
776.1692855314
 21
117.3666223578
 72
1
 10
776.1692855314
 20
117.3666223578
 11
775.631679252
 21
117.6564950585
 72
1
 10
775.631679252
 20
117.6564950585
 11
775.1902184966
 21
117.9377347371
 72
1
 10
775.1902184966
 20
117.9377347371
 11
774.7749493677
 21
118.2563801609
 72
1
 10
774.7749493677
 20
118.2563801609
 11
774.389032333
 21
118.6100062316
 72
1
 10
774.389032333
 20
118.6100062316
 11
805.0594356148
 21
118.9677930768
 72
1
 10
805.0594356148
 20
118.9677930768
 11
805.6493996769
 21
118.8097136605
 72
1
 10
805.6493996769
 20
118.8097136605
 11
806.2291741785
 21
118.6175985293
 97
1
330
3E9
 75
0
 76
1
 98
1
 10
0.0
 20
0.0
  0
LWPOLYLINE
  5
3EB
100
AcDbEntity
  8
ALL_DETAIL_ITEM
100
AcDbPolyline
 62
4
  6
CONTINUOUS
 90
30
 70
0
 10
714.0797683667
 20
116.2636486204
 10
713.8839790782
 20
116.250800031
 10
686.7281536159
 20
116.250800031
 10
683.7281536159
 20
103.0457954544
 10
686.7281536159
 20
130.9577248817
 10
686.7281536159
 20
119.250815536
 10
713.8839790782
 20
119.250815536
 10
714.0797683667
 20
119.2379832075
 10
714.2722076462
 20
119.1997046548
 10
714.4580042273
 20
119.1366352141
 10
714.6339790789
 20
119.0498540209
 10
714.7971212226
 20
118.9408459255
 10
714.944639251
 20
118.8114760868
 10
715.0740090898
 20
118.6639580583
 10
715.1830171851
 20
118.5008159147
 10
715.2697983783
 20
118.324841063
 10
715.332867819
 20
118.139044482
 10
715.3711463717
 20
117.9466052024
 10
715.3839790797
 20
117.7508159139
 10
715.3711463717
 20
117.5550266254
 10
715.332867819
 20
117.3625873459
 10
715.2697983783
 20
117.1767907648
 10
715.1830171851
 20
117.0008159132
 10
715.0740090898
 20
116.8376737695
 10
714.944639251
 20
116.6901557411
 10
714.7971212226
 20
116.5607859023
 10
714.6339790789
 20
116.4517778069
 10
714.4580042273
 20
116.3649966138
 10
714.2722076462
 20
116.301927173
 10
714.0797683667
 20
116.2636486204
  0
HATCH
  5
3EC
100
AcDbEntity
  8
ALL_DETAIL_ITEM
100
AcDbHatch
 62
4
  6
CONTINUOUS
 10
0.0
 20
0.0
 30
0.0
210
0.0
220
0.0
230
1.0
  2
SOLID
 70
1
 71
1
 91
1
 92
1
 93
29
 72
1
 10
714.0797683667
 20
116.2636486204
 11
713.8839790782
 21
116.250800031
 72
1
 10
713.8839790782
 20
116.250800031
 11
686.7281536159
 21
116.250800031
 72
1
 10
686.7281536159
 20
116.250800031
 11
683.7281536159
 21
103.0457954544
 72
1
 10
683.7281536159
 20
103.0457954544
 11
686.7281536159
 21
130.9577248817
 72
1
 10
686.7281536159
 20
130.9577248817
 11
686.7281536159
 21
119.250815536
 72
1
 10
686.7281536159
 20
119.250815536
 11
713.8839790782
 21
119.250815536
 72
1
 10
713.8839790782
 20
119.250815536
 11
714.0797683667
 21
119.2379832075
 72
1
 10
714.0797683667
 20
119.2379832075
 11
714.2722076462
 21
119.1997046548
 72
1
 10
714.2722076462
 20
119.1997046548
 11
714.4580042273
 21
119.1366352141
 72
1
 10
714.4580042273
 20
119.1366352141
 11
714.6339790789
 21
119.0498540209
 72
1
 10
714.6339790789
 20
119.0498540209
 11
714.7971212226
 21
118.9408459255
 72
1
 10
714.7971212226
 20
118.9408459255
 11
714.944639251
 21
118.8114760868
 72
1
 10
714.944639251
 20
118.8114760868
 11
715.0740090898
 21
118.6639580583
 72
1
 10
715.0740090898
 20
118.6639580583
 11
715.1830171851
 21
118.5008159147
 72
1
 10
715.1830171851
 20
118.5008159147
 11
715.2697983783
 21
118.324841063
 72
1
 10
715.2697983783
 20
118.324841063
 11
715.332867819
 21
118.139044482
 72
1
 10
715.332867819
 20
118.139044482
 11
715.3711463717
 21
117.9466052024
 72
1
 10
715.3711463717
 20
117.9466052024
 11
715.3839790797
 21
117.7508159139
 72
1
 10
715.3839790797
 20
117.7508159139
 11
715.3711463717
 21
117.5550266254
 72
1
 10
715.3711463717
 20
117.5550266254
 11
715.332867819
 21
117.3625873459
 72
1
 10
715.332867819
 20
117.3625873459
 11
715.2697983783
 21
117.1767907648
 72
1
 10
715.2697983783
 20
117.1767907648
 11
715.1830171851
 21
117.0008159132
 72
1
 10
715.1830171851
 20
117.0008159132
 11
715.0740090898
 21
116.8376737695
 72
1
 10
715.0740090898
 20
116.8376737695
 11
714.944639251
 21
116.6901557411
 72
1
 10
714.944639251
 20
116.6901557411
 11
714.7971212226
 21
116.5607859023
 72
1
 10
714.7971212226
 20
116.5607859023
 11
714.6339790789
 21
116.4517778069
 72
1
 10
714.6339790789
 20
116.4517778069
 11
714.4580042273
 21
116.3649966138
 72
1
 10
714.4580042273
 20
116.3649966138
 11
714.2722076462
 21
116.301927173
 72
1
 10
714.2722076462
 20
116.301927173
 11
714.0797683667
 21
116.2636486204
 97
1
330
3EB
 75
0
 76
1
 98
1
 10
0.0
 20
0.0
  0
SOLID
  5
3ED
100
AcDbEntity
  8
ALL_DETAIL_ITEM
100
AcDbTrace
 62
4
  6
CONTINUOUS
 10
780.8816511214
 20
116.2497780407
 11
780.2711340209
 21
116.2675421682
 12
802.6379830129
 22
116.250800031
 13
802.6379830129
 23
116.250800031
  0
LWPOLYLINE
  5
3EE
100
AcDbEntity
  8
ALL_DETAIL_ITEM
100
AcDbPolyline
 62
4
  6
CONTINUOUS
 90
37
 70
0
 10
807.8423939525
 20
113.1688859341
 10
810.8651390194
 20
113.1708758755
 10
810.8879709657
 20
112.6479481107
 10
810.8879709657
 20
108.1457039654
 10
810.8651390194
 20
107.6227650841
 10
810.7968169467
 20
107.1038089692
 10
810.6835247228
 20
106.5927823292
 10
810.5261245749
 20
106.0935744083
 10
810.3258144204
 20
105.6099845027
 10
810.0841187494
 20
105.1456930453
 10
809.8028770229
 20
104.7042335952
 10
809.4842296727
 20
104.2889659453
 10
802.6379830129
 20
104.5428183953
 10
803.0740666572
 20
104.5555110193
 10
803.5086747499
 20
104.5935340748
 10
803.9403367321
 20
104.6567628662
 10
804.3675920137
 20
104.7449834497
 10
804.788994915
 20
104.8578973185
 10
805.2031195588
 20
104.9951224122
 10
805.6085646951
 20
105.1561944099
 10
806.0039584419
 20
105.3405683016
 10
806.3879629278
 20
105.5476202317
 10
806.608693305
 20
105.6882400707
 10
806.8163278689
 20
105.8475627826
 10
807.0092863857
 20
106.0243758178
 10
807.1861003159
 20
106.2173335144
 10
807.3454239909
 20
106.4249673393
 10
807.486044854
 20
106.6456970642
 10
807.6068926894
 20
106.8778427927
 10
807.7070477666
 20
107.1196377454
 10
807.7857478405
 20
107.3692417057
 10
807.8423939525
 20
107.6247550255
 10
807.8765549888
 20
107.8842330828
 10
807.8879709619
 20
108.1457039654
 10
807.8879709619
 20
112.6479481107
 10
807.8765549888
 20
112.9094078768
 10
807.8423939525
 20
113.1688859341
  0
HATCH
  5
3EF
100
AcDbEntity
  8
ALL_DETAIL_ITEM
100
AcDbHatch
 62
4
  6
CONTINUOUS
 10
0.0
 20
0.0
 30
0.0
210
0.0
220
0.0
230
1.0
  2
SOLID
 70
1
 71
1
 91
1
 92
1
 93
36
 72
1
 10
807.8423939525
 20
113.1688859341
 11
810.8651390194
 21
113.1708758755
 72
1
 10
810.8651390194
 20
113.1708758755
 11
810.8879709657
 21
112.6479481107
 72
1
 10
810.8879709657
 20
112.6479481107
 11
810.8879709657
 21
108.1457039654
 72
1
 10
810.8879709657
 20
108.1457039654
 11
810.8651390194
 21
107.6227650841
 72
1
 10
810.8651390194
 20
107.6227650841
 11
810.7968169467
 21
107.1038089692
 72
1
 10
810.7968169467
 20
107.1038089692
 11
810.6835247228
 21
106.5927823292
 72
1
 10
810.6835247228
 20
106.5927823292
 11
810.5261245749
 21
106.0935744083
 72
1
 10
810.5261245749
 20
106.0935744083
 11
810.3258144204
 21
105.6099845027
 72
1
 10
810.3258144204
 20
105.6099845027
 11
810.0841187494
 21
105.1456930453
 72
1
 10
810.0841187494
 20
105.1456930453
 11
809.8028770229
 21
104.7042335952
 72
1
 10
809.8028770229
 20
104.7042335952
 11
809.4842296727
 21
104.2889659453
 72
1
 10
809.4842296727
 20
104.2889659453
 11
802.6379830129
 21
104.5428183953
 72
1
 10
802.6379830129
 20
104.5428183953
 11
803.0740666572
 21
104.5555110193
 72
1
 10
803.0740666572
 20
104.5555110193
 11
803.5086747499
 21
104.5935340748
 72
1
 10
803.5086747499
 20
104.5935340748
 11
803.9403367321
 21
104.6567628662
 72
1
 10
803.9403367321
 20
104.6567628662
 11
804.3675920137
 21
104.7449834497
 72
1
 10
804.3675920137
 20
104.7449834497
 11
804.788994915
 21
104.8578973185
 72
1
 10
804.788994915
 20
104.8578973185
 11
805.2031195588
 21
104.9951224122
 72
1
 10
805.2031195588
 20
104.9951224122
 11
805.6085646951
 21
105.1561944099
 72
1
 10
805.6085646951
 20
105.1561944099
 11
806.0039584419
 21
105.3405683016
 72
1
 10
806.0039584419
 20
105.3405683016
 11
806.3879629278
 21
105.5476202317
 72
1
 10
806.3879629278
 20
105.5476202317
 11
806.608693305
 21
105.6882400707
 72
1
 10
806.608693305
 20
105.6882400707
 11
806.8163278689
 21
105.8475627826
 72
1
 10
806.8163278689
 20
105.8475627826
 11
807.0092863857
 21
106.0243758178
 72
1
 10
807.0092863857
 20
106.0243758178
 11
807.1861003159
 21
106.2173335144
 72
1
 10
807.1861003159
 20
106.2173335144
 11
807.3454239909
 21
106.4249673393
 72
1
 10
807.3454239909
 20
106.4249673393
 11
807.486044854
 21
106.6456970642
 72
1
 10
807.486044854
 20
106.6456970642
 11
807.6068926894
 21
106.8778427927
 72
1
 10
807.6068926894
 20
106.8778427927
 11
807.7070477666
 21
107.1196377454
 72
1
 10
807.7070477666
 20
107.1196377454
 11
807.7857478405
 21
107.3692417057
 72
1
 10
807.7857478405
 20
107.3692417057
 11
807.8423939525
 21
107.6247550255
 72
1
 10
807.8423939525
 20
107.6247550255
 11
807.8765549888
 21
107.8842330828
 72
1
 10
807.8765549888
 20
107.8842330828
 11
807.8879709619
 21
108.1457039654
 72
1
 10
807.8879709619
 20
108.1457039654
 11
807.8879709619
 21
112.6479481107
 72
1
 10
807.8879709619
 20
112.6479481107
 11
807.8765549888
 21
112.9094078768
 72
1
 10
807.8765549888
 20
112.9094078768
 11
807.8423939525
 21
113.1688859341
 97
1
330
3EE
 75
0
 76
1
 98
1
 10
0.0
 20
0.0
  0
LWPOLYLINE
  5
3F0
100
AcDbEntity
  8
ALL_DETAIL_ITEM
100
AcDbPolyline
 62
4
  6
CONTINUOUS
 90
6
 70
0
 10
728.4577516581
 20
108.1563373066
 10
728.4691604111
 20
107.8950128522
 10
725.4805691613
 20
107.6336547479
 10
725.4577516557
 20
108.156270007
 10
728.4571463787
 20
132.915500198
 10
728.4577516581
 20
108.1563373066
  0
HATCH
  5
3F1
100
AcDbEntity
  8
ALL_DETAIL_ITEM
100
AcDbHatch
 62
4
  6
CONTINUOUS
 10
0.0
 20
0.0
 30
0.0
210
0.0
220
0.0
230
1.0
  2
SOLID
 70
1
 71
1
 91
1
 92
1
 93
5
 72
1
 10
728.4577516581
 20
108.1563373066
 11
728.4691604111
 21
107.8950128522
 72
1
 10
728.4691604111
 20
107.8950128522
 11
725.4805691613
 21
107.6336547479
 72
1
 10
725.4805691613
 20
107.6336547479
 11
725.4577516557
 21
108.156270007
 72
1
 10
725.4577516557
 20
108.156270007
 11
728.4571463787
 21
132.915500198
 72
1
 10
728.4571463787
 20
132.915500198
 11
728.4577516581
 21
108.1563373066
 97
1
330
3F0
 75
0
 76
1
 98
1
 10
0.0
 20
0.0
  0
LWPOLYLINE
  5
3F2
100
AcDbEntity
  8
ALL_DETAIL_ITEM
100
AcDbPolyline
 62
4
  6
CONTINUOUS
 90
6
 70
0
 10
728.5032871693
 20
107.6357073866
 10
728.5598725155
 20
107.3803389492
 10
725.5488226777
 20
107.1149765171
 10
725.4805691613
 20
107.6336547479
 10
728.4691604111
 20
107.8950128522
 10
728.5032871693
 20
107.6357073866
  0
HATCH
  5
3F3
100
AcDbEntity
  8
ALL_DETAIL_ITEM
100
AcDbHatch
 62
4
  6
CONTINUOUS
 10
0.0
 20
0.0
 30
0.0
210
0.0
220
0.0
230
1.0
  2
SOLID
 70
1
 71
1
 91
1
 92
1
 93
5
 72
1
 10
728.5032871693
 20
107.6357073866
 11
728.5598725155
 21
107.3803389492
 72
1
 10
728.5598725155
 20
107.3803389492
 11
725.5488226777
 21
107.1149765171
 72
1
 10
725.5488226777
 20
107.1149765171
 11
725.4805691613
 21
107.6336547479
 72
1
 10
725.4805691613
 20
107.6336547479
 11
728.4691604111
 21
107.8950128522
 72
1
 10
728.4691604111
 20
107.8950128522
 11
728.5032871693
 21
107.6357073866
 97
1
330
3F2
 75
0
 76
1
 98
1
 10
0.0
 20
0.0
  0
LWPOLYLINE
  5
3F4
100
AcDbEntity
  8
ALL_DETAIL_ITEM
100
AcDbPolyline
 62
4
  6
CONTINUOUS
 90
6
 70
0
 10
728.6384863118
 20
107.1308592292
 10
728.7385309695
 20
106.889186266
 10
725.6619933702
 20
106.6042732921
 10
725.5488226777
 20
107.1149765171
 10
728.5598725155
 20
107.3803389492
 10
728.6384863118
 20
107.1308592292
  0
HATCH
  5
3F5
100
AcDbEntity
  8
ALL_DETAIL_ITEM
100
AcDbHatch
 62
4
  6
CONTINUOUS
 10
0.0
 20
0.0
 30
0.0
210
0.0
220
0.0
230
1.0
  2
SOLID
 70
1
 71
1
 91
1
 92
1
 93
5
 72
1
 10
728.6384863118
 20
107.1308592292
 11
728.7385309695
 21
106.889186266
 72
1
 10
728.7385309695
 20
106.889186266
 11
725.6619933702
 21
106.6042732921
 72
1
 10
725.6619933702
 20
106.6042732921
 11
725.5488226777
 21
107.1149765171
 72
1
 10
725.5488226777
 20
107.1149765171
 11
728.5598725155
 21
107.3803389492
 72
1
 10
728.5598725155
 20
107.3803389492
 11
728.6384863118
 21
107.1308592292
 97
1
330
3F4
 75
0
 76
1
 98
1
 10
0.0
 20
0.0
  0
LWPOLYLINE
  5
3F6
100
AcDbEntity
  8
ALL_DETAIL_ITEM
100
AcDbPolyline
 62
4
  6
CONTINUOUS
 90
6
 70
0
 10
728.8592459914
 20
106.6571707995
 10
728.9997137531
 20
106.43652897
 10
725.8192209629
 20
106.1053138521
 10
725.6619933702
 20
106.6042732921
 10
728.7385309695
 20
106.889186266
 10
728.8592459914
 20
106.6571707995
  0
HATCH
  5
3F7
100
AcDbEntity
  8
ALL_DETAIL_ITEM
100
AcDbHatch
 62
4
  6
CONTINUOUS
 10
0.0
 20
0.0
 30
0.0
210
0.0
220
0.0
230
1.0
  2
SOLID
 70
1
 71
1
 91
1
 92
1
 93
5
 72
1
 10
728.8592459914
 20
106.6571707995
 11
728.9997137531
 21
106.43652897
 72
1
 10
728.9997137531
 20
106.43652897
 11
725.8192209629
 21
106.1053138521
 72
1
 10
725.8192209629
 20
106.1053138521
 11
725.6619933702
 21
106.6042732921
 72
1
 10
725.6619933702
 20
106.6042732921
 11
728.7385309695
 21
106.889186266
 72
1
 10
728.7385309695
 20
106.889186266
 11
728.8592459914
 21
106.6571707995
 97
1
330
3F6
 75
0
 76
1
 98
1
 10
0.0
 20
0.0
  0
LWPOLYLINE
  5
3F8
100
AcDbEntity
  8
ALL_DETAIL_ITEM
100
AcDbPolyline
 62
4
  6
CONTINUOUS
 90
6
 70
0
 10
729.158866478
 20
106.2289432683
 10
729.3354943546
 20
106.0360288854
 10
726.0193102784
 20
105.6219679258
 10
725.8192209629
 20
106.1053138521
 10
728.9997137531
 20
106.43652897
 10
729.158866478
 20
106.2289432683
  0
HATCH
  5
3F9
100
AcDbEntity
  8
ALL_DETAIL_ITEM
100
AcDbHatch
 62
4
  6
CONTINUOUS
 10
0.0
 20
0.0
 30
0.0
210
0.0
220
0.0
230
1.0
  2
SOLID
 70
1
 71
1
 91
1
 92
1
 93
5
 72
1
 10
729.158866478
 20
106.2289432683
 11
729.3354943546
 21
106.0360288854
 72
1
 10
729.3354943546
 20
106.0360288854
 11
726.0193102784
 21
105.6219679258
 72
1
 10
726.0193102784
 20
105.6219679258
 11
725.8192209629
 21
106.1053138521
 72
1
 10
725.8192209629
 20
106.1053138521
 11
728.9997137531
 21
106.43652897
 72
1
 10
728.9997137531
 20
106.43652897
 11
729.158866478
 21
106.2289432683
 97
1
330
3F8
 75
0
 76
1
 98
1
 10
0.0
 20
0.0
  0
LWPOLYLINE
  5
3FA
100
AcDbEntity
  8
ALL_DETAIL_ITEM
100
AcDbPolyline
 62
4
  6
CONTINUOUS
 90
7
 70
0
 10
729.7356823292
 20
105.6999008947
 10
729.9562003678
 20
105.5592446728
 10
726.2607403223
 20
105.1579033429
 10
726.0193102784
 20
105.6219679258
 10
729.3354943546
 20
106.0360288854
 10
729.5282547326
 20
105.8592327634
 10
729.7356823292
 20
105.6999008947
  0
HATCH
  5
3FB
100
AcDbEntity
  8
ALL_DETAIL_ITEM
100
AcDbHatch
 62
4
  6
CONTINUOUS
 10
0.0
 20
0.0
 30
0.0
210
0.0
220
0.0
230
1.0
  2
SOLID
 70
1
 71
1
 91
1
 92
1
 93
6
 72
1
 10
729.7356823292
 20
105.6999008947
 11
729.9562003678
 21
105.5592446728
 72
1
 10
729.9562003678
 20
105.5592446728
 11
726.2607403223
 21
105.1579033429
 72
1
 10
726.2607403223
 20
105.1579033429
 11
726.0193102784
 21
105.6219679258
 72
1
 10
726.0193102784
 20
105.6219679258
 11
729.3354943546
 21
106.0360288854
 72
1
 10
729.3354943546
 20
106.0360288854
 11
729.5282547326
 21
105.8592327634
 72
1
 10
729.5282547326
 20
105.8592327634
 11
729.7356823292
 21
105.6999008947
 97
1
330
3FA
 75
0
 76
1
 98
1
 10
0.0
 20
0.0
  0
LWPOLYLINE
  5
3FC
100
AcDbEntity
  8
ALL_DETAIL_ITEM
100
AcDbPolyline
 62
4
  6
CONTINUOUS
 90
10
 70
0
 10
675.059830607
 20
132.2011482995
 10
655.6449574639
 20
105.4670922602
 10
675.1413753477
 20
133.5789399281
 10
675.2117021073
 20
133.3866648917
 10
675.2551932066
 20
133.1866167482
 10
675.2710384887
 20
132.9824969774
 10
675.258942786
 20
132.7781416578
 10
675.2191314186
 20
132.5773195687
 10
675.1523459969
 20
132.3837994891
 10
675.059830607
 20
132.2011482995
  0
HATCH
  5
3FD
100
AcDbEntity
  8
ALL_DETAIL_ITEM
100
AcDbHatch
 62
4
  6
CONTINUOUS
 10
0.0
 20
0.0
 30
0.0
210
0.0
220
0.0
230
1.0
  2
SOLID
 70
1
 71
1
 91
1
 92
1
 93
9
 72
1
 10
675.059830607
 20
132.2011482995
 11
655.6449574639
 21
105.4670922602
 72
1
 10
655.6449574639
 20
105.4670922602
 11
675.1413753477
 21
133.5789399281
 72
1
 10
675.1413753477
 20
133.5789399281
 11
675.2117021073
 21
133.3866648917
 72
1
 10
675.2117021073
 20
133.3866648917
 11
675.2551932066
 21
133.1866167482
 72
1
 10
675.2551932066
 20
133.1866167482
 11
675.2710384887
 21
132.9824969774
 72
1
 10
675.2710384887
 20
132.9824969774
 11
675.258942786
 21
132.7781416578
 72
1
 10
675.258942786
 20
132.7781416578
 11
675.2191314186
 21
132.5773195687
 72
1
 10
675.2191314186
 20
132.5773195687
 11
675.1523459969
 21
132.3837994891
 72
1
 10
675.1523459969
 20
132.3837994891
 11
675.059830607
 21
132.2011482995
 97
1
330
3FC
 75
0
 76
1
 98
1
 10
0.0
 20
0.0
  0
LWPOLYLINE
  5
3FE
100
AcDbEntity
  8
ALL_DETAIL_ITEM
100
AcDbPolyline
 62
4
  6
CONTINUOUS
 90
7
 70
0
 10
730.7357989755
 20
105.1671906915
 10
731.1413875996
 20
105.005839834
 10
726.5416758458
 20
104.7166196839
 10
726.2607403223
 20
105.1579033429
 10
729.9562003678
 20
105.5592446728
 10
730.3402894541
 20
105.35186087
 10
730.7357989755
 20
105.1671906915
  0
HATCH
  5
3FF
100
AcDbEntity
  8
ALL_DETAIL_ITEM
100
AcDbHatch
 62
4
  6
CONTINUOUS
 10
0.0
 20
0.0
 30
0.0
210
0.0
220
0.0
230
1.0
  2
SOLID
 70
1
 71
1
 91
1
 92
1
 93
6
 72
1
 10
730.7357989755
 20
105.1671906915
 11
731.1413875996
 21
105.005839834
 72
1
 10
731.1413875996
 20
105.005839834
 11
726.5416758458
 21
104.7166196839
 72
1
 10
726.5416758458
 20
104.7166196839
 11
726.2607403223
 21
105.1579033429
 72
1
 10
726.2607403223
 20
105.1579033429
 11
729.9562003678
 21
105.5592446728
 72
1
 10
729.9562003678
 20
105.5592446728
 11
730.3402894541
 21
105.35186087
 72
1
 10
730.3402894541
 20
105.35186087
 11
730.7357989755
 21
105.1671906915
 97
1
330
3FE
 75
0
 76
1
 98
1
 10
0.0
 20
0.0
  0
LWPOLYLINE
  5
400
100
AcDbEntity
  8
ALL_DETAIL_ITEM
100
AcDbPolyline
 62
4
  6
CONTINUOUS
 90
7
 70
0
 10
731.9772705783
 20
104.7553169698
 10
732.4047301158
 20
104.6669525586
 10
726.8599812959
 20
104.3014819303
 10
726.5416758458
 20
104.7166196839
 10
731.1413875996
 20
105.005839834
 10
731.5556798113
 20
104.8684139942
 10
731.9772705783
 20
104.7553169698
  0
HATCH
  5
401
100
AcDbEntity
  8
ALL_DETAIL_ITEM
100
AcDbHatch
 62
4
  6
CONTINUOUS
 10
0.0
 20
0.0
 30
0.0
210
0.0
220
0.0
230
1.0
  2
SOLID
 70
1
 71
1
 91
1
 92
1
 93
6
 72
1
 10
731.9772705783
 20
104.7553169698
 11
732.4047301158
 21
104.6669525586
 72
1
 10
732.4047301158
 20
104.6669525586
 11
726.8599812959
 21
104.3014819303
 72
1
 10
726.8599812959
 20
104.3014819303
 11
726.5416758458
 21
104.7166196839
 72
1
 10
726.5416758458
 20
104.7166196839
 11
731.1413875996
 21
105.005839834
 72
1
 10
731.1413875996
 20
105.005839834
 11
731.5556798113
 21
104.8684139942
 72
1
 10
731.5556798113
 20
104.8684139942
 11
731.9772705783
 21
104.7553169698
 97
1
330
400
 75
0
 76
1
 98
1
 10
0.0
 20
0.0
  0
LWPOLYLINE
  5
402
100
AcDbEntity
  8
ALL_DETAIL_ITEM
100
AcDbPolyline
 62
4
  6
CONTINUOUS
 90
10
 70
0
 10
757.2618338402
 20
104.8684139942
 10
762.5567733291
 20
105.1579033429
 10
762.2758378056
 20
104.7166196839
 10
761.9575323555
 20
104.3014819303
 10
755.1097591482
 20
104.55281239
 10
755.5460718884
 20
104.5655320197
 10
755.9809049158
 20
104.6035899591
 10
756.4127835358
 20
104.6669525586
 10
756.8402430733
 20
104.7553169698
 10
757.2618338402
 20
104.8684139942
  0
HATCH
  5
403
100
AcDbEntity
  8
ALL_DETAIL_ITEM
100
AcDbHatch
 62
4
  6
CONTINUOUS
 10
0.0
 20
0.0
 30
0.0
210
0.0
220
0.0
230
1.0
  2
SOLID
 70
1
 71
1
 91
1
 92
1
 93
9
 72
1
 10
757.2618338402
 20
104.8684139942
 11
762.5567733291
 21
105.1579033429
 72
1
 10
762.5567733291
 20
105.1579033429
 11
762.2758378056
 21
104.7166196839
 72
1
 10
762.2758378056
 20
104.7166196839
 11
761.9575323555
 21
104.3014819303
 72
1
 10
761.9575323555
 20
104.3014819303
 11
755.1097591482
 21
104.55281239
 72
1
 10
755.1097591482
 20
104.55281239
 11
755.5460718884
 21
104.5655320197
 72
1
 10
755.5460718884
 20
104.5655320197
 11
755.9809049158
 21
104.6035899591
 72
1
 10
755.9809049158
 20
104.6035899591
 11
756.4127835358
 21
104.6669525586
 72
1
 10
756.4127835358
 20
104.6669525586
 11
756.8402430733
 21
104.7553169698
 72
1
 10
756.8402430733
 20
104.7553169698
 11
757.2618338402
 21
104.8684139942
 97
1
330
402
 75
0
 76
1
 98
1
 10
0.0
 20
0.0
  0
LWPOLYLINE
  5
404
100
AcDbEntity
  8
ALL_DETAIL_ITEM
100
AcDbPolyline
 62
4
  6
CONTINUOUS
 90
6
 70
0
 10
715.3243530863
 20
104.5486133771
 10
715.5201435755
 20
104.535799001
 10
683.7281536159
 20
103.0457954544
 10
686.7281536159
 20
116.250800031
 10
686.7281536159
 20
104.5459359077
 10
715.3243530863
 20
104.5486133771
  0
HATCH
  5
405
100
AcDbEntity
  8
ALL_DETAIL_ITEM
100
AcDbHatch
 62
4
  6
CONTINUOUS
 10
0.0
 20
0.0
 30
0.0
210
0.0
220
0.0
230
1.0
  2
SOLID
 70
1
 71
1
 91
1
 92
1
 93
5
 72
1
 10
715.3243530863
 20
104.5486133771
 11
715.5201435755
 21
104.535799001
 72
1
 10
715.5201435755
 20
104.535799001
 11
683.7281536159
 21
103.0457954544
 72
1
 10
683.7281536159
 20
103.0457954544
 11
686.7281536159
 21
116.250800031
 72
1
 10
686.7281536159
 20
116.250800031
 11
686.7281536159
 21
104.5459359077
 72
1
 10
686.7281536159
 20
104.5459359077
 11
715.3243530863
 21
104.5486133771
 97
1
330
404
 75
0
 76
1
 98
1
 10
0.0
 20
0.0
  0
LWPOLYLINE
  5
406
100
AcDbEntity
  8
ALL_DETAIL_ITEM
100
AcDbPolyline
 62
4
  6
CONTINUOUS
 90
41
 70
0
 10
774.3253944134
 20
104.5299896482
 10
774.5211837019
 20
104.5428183953
 10
802.6379830129
 20
104.5428183953
 10
809.4842296727
 20
104.2889659453
 10
809.1306018121
 20
103.9030505518
 10
808.7446847783
 20
103.5494244811
 10
808.3294156503
 20
103.2307790572
 10
807.8879548957
 20
102.9495393784
 10
807.3503486152
 20
102.6596666765
 10
806.7967973694
 20
102.401543228
 10
806.2291741785
 20
102.176042431
 10
805.6493996769
 20
101.9839272998
 10
805.0594356148
 20
101.8258478835
 10
804.4612782205
 20
101.7023390665
 10
803.8569514451
 20
101.6138187585
 10
803.2485001151
 20
101.5605864808
 10
802.6379830129
 20
101.5428365401
 10
774.5211837019
 20
101.5428365401
 10
774.3253944134
 20
101.5556550611
 10
774.1329551339
 20
101.5939336138
 10
773.9471585528
 20
101.6570030545
 10
773.7711837012
 20
101.7437842477
 10
773.6080415575
 20
101.852792343
 10
773.4605235291
 20
101.9821621818
 10
773.3311536903
 20
102.1296802102
 10
773.2221455949
 20
102.2928223539
 10
773.1353644018
 20
102.4687972055
 10
773.072294961
 20
102.6545937866
 10
773.0340164084
 20
102.8470330661
 10
773.0211837004
 20
103.0428223547
 10
773.0340164084
 20
103.2386116432
 10
773.072294961
 20
103.4310509227
 10
773.1353644018
 20
103.6168475038
 10
773.2221455949
 20
103.7928223554
 10
773.3311536903
 20
103.9559644991
 10
773.4605235291
 20
104.1034825275
 10
773.6080415575
 20
104.2328523663
 10
773.7711837012
 20
104.3418604616
 10
773.9471585528
 20
104.4286416548
 10
774.1329551339
 20
104.4917110955
 10
774.3253944134
 20
104.5299896482
  0
HATCH
  5
407
100
AcDbEntity
  8
ALL_DETAIL_ITEM
100
AcDbHatch
 62
4
  6
CONTINUOUS
 10
0.0
 20
0.0
 30
0.0
210
0.0
220
0.0
230
1.0
  2
SOLID
 70
1
 71
1
 91
1
 92
1
 93
40
 72
1
 10
774.3253944134
 20
104.5299896482
 11
774.5211837019
 21
104.5428183953
 72
1
 10
774.5211837019
 20
104.5428183953
 11
802.6379830129
 21
104.5428183953
 72
1
 10
802.6379830129
 20
104.5428183953
 11
809.4842296727
 21
104.2889659453
 72
1
 10
809.4842296727
 20
104.2889659453
 11
809.1306018121
 21
103.9030505518
 72
1
 10
809.1306018121
 20
103.9030505518
 11
808.7446847783
 21
103.5494244811
 72
1
 10
808.7446847783
 20
103.5494244811
 11
808.3294156503
 21
103.2307790572
 72
1
 10
808.3294156503
 20
103.2307790572
 11
807.8879548957
 21
102.9495393784
 72
1
 10
807.8879548957
 20
102.9495393784
 11
807.3503486152
 21
102.6596666765
 72
1
 10
807.3503486152
 20
102.6596666765
 11
806.7967973694
 21
102.401543228
 72
1
 10
806.7967973694
 20
102.401543228
 11
806.2291741785
 21
102.176042431
 72
1
 10
806.2291741785
 20
102.176042431
 11
805.6493996769
 21
101.9839272998
 72
1
 10
805.6493996769
 20
101.9839272998
 11
805.0594356148
 21
101.8258478835
 72
1
 10
805.0594356148
 20
101.8258478835
 11
804.4612782205
 21
101.7023390665
 72
1
 10
804.4612782205
 20
101.7023390665
 11
803.8569514451
 21
101.6138187585
 72
1
 10
803.8569514451
 20
101.6138187585
 11
803.2485001151
 21
101.5605864808
 72
1
 10
803.2485001151
 20
101.5605864808
 11
802.6379830129
 21
101.5428365401
 72
1
 10
802.6379830129
 20
101.5428365401
 11
774.5211837019
 21
101.5428365401
 72
1
 10
774.5211837019
 20
101.5428365401
 11
774.3253944134
 21
101.5556550611
 72
1
 10
774.3253944134
 20
101.5556550611
 11
774.1329551339
 21
101.5939336138
 72
1
 10
774.1329551339
 20
101.5939336138
 11
773.9471585528
 21
101.6570030545
 72
1
 10
773.9471585528
 20
101.6570030545
 11
773.7711837012
 21
101.7437842477
 72
1
 10
773.7711837012
 20
101.7437842477
 11
773.6080415575
 21
101.852792343
 72
1
 10
773.6080415575
 20
101.852792343
 11
773.4605235291
 21
101.9821621818
 72
1
 10
773.4605235291
 20
101.9821621818
 11
773.3311536903
 21
102.1296802102
 72
1
 10
773.3311536903
 20
102.1296802102
 11
773.2221455949
 21
102.2928223539
 72
1
 10
773.2221455949
 20
102.2928223539
 11
773.1353644018
 21
102.4687972055
 72
1
 10
773.1353644018
 20
102.4687972055
 11
773.072294961
 21
102.6545937866
 72
1
 10
773.072294961
 20
102.6545937866
 11
773.0340164084
 21
102.8470330661
 72
1
 10
773.0340164084
 20
102.8470330661
 11
773.0211837004
 21
103.0428223547
 72
1
 10
773.0211837004
 20
103.0428223547
 11
773.0340164084
 21
103.2386116432
 72
1
 10
773.0340164084
 20
103.2386116432
 11
773.072294961
 21
103.4310509227
 72
1
 10
773.072294961
 20
103.4310509227
 11
773.1353644018
 21
103.6168475038
 72
1
 10
773.1353644018
 20
103.6168475038
 11
773.2221455949
 21
103.7928223554
 72
1
 10
773.2221455949
 20
103.7928223554
 11
773.3311536903
 21
103.9559644991
 72
1
 10
773.3311536903
 20
103.9559644991
 11
773.4605235291
 21
104.1034825275
 72
1
 10
773.4605235291
 20
104.1034825275
 11
773.6080415575
 21
104.2328523663
 72
1
 10
773.6080415575
 20
104.2328523663
 11
773.7711837012
 21
104.3418604616
 72
1
 10
773.7711837012
 20
104.3418604616
 11
773.9471585528
 21
104.4286416548
 72
1
 10
773.9471585528
 20
104.4286416548
 11
774.1329551339
 21
104.4917110955
 72
1
 10
774.1329551339
 20
104.4917110955
 11
774.3253944134
 21
104.5299896482
 97
1
330
406
 75
0
 76
1
 98
1
 10
0.0
 20
0.0
  0
LWPOLYLINE
  5
408
100
AcDbEntity
  8
ALL_DETAIL_ITEM
100
AcDbPolyline
 62
4
  6
CONTINUOUS
 90
34
 70
0
 10
755.1097591482
 20
104.55281239
 10
761.9575323555
 20
104.3014819303
 10
761.604276602
 20
103.9156531645
 10
761.2187558458
 20
103.5620609205
 10
760.8039006525
 20
103.2433635334
 10
760.3628645752
 20
102.9620510895
 10
759.825044677
 20
102.6716868457
 10
759.2712333394
 20
102.4130880262
 10
758.7033087606
 20
102.1871968257
 10
758.1231970024
 20
101.9947198904
 10
757.5328654582
 20
101.8363638664
 10
756.934316181
 20
101.7126335008
 10
756.3295790933
 20
101.6239325915
 10
755.7207051031
 20
101.5705976365
 10
755.1097591482
 20
101.552796885
 10
733.7077545034
 20
101.552796885
 10
733.0968085485
 20
101.5705976365
 10
732.4879345583
 20
101.6239325915
 10
731.8831974706
 20
101.7126335008
 10
731.2846481934
 20
101.8363638664
 10
730.6943166492
 20
101.9947198904
 10
730.114204891
 20
102.1871968257
 10
729.5462803122
 20
102.4130880262
 10
728.9924689746
 20
102.6716868457
 10
728.4546490762
 20
102.9620510895
 10
728.0136129991
 20
103.2433635334
 10
727.5987578057
 20
103.5620609205
 10
727.2132370494
 20
103.9156531645
 10
726.8599812959
 20
104.3014819303
 10
732.4047301158
 20
104.6669525586
 10
732.8366087357
 20
104.6035899591
 10
733.2714417631
 20
104.5655320197
 10
733.7077545034
 20
104.55281239
 10
755.1097591482
 20
104.55281239
  0
HATCH
  5
409
100
AcDbEntity
  8
ALL_DETAIL_ITEM
100
AcDbHatch
 62
4
  6
CONTINUOUS
 10
0.0
 20
0.0
 30
0.0
210
0.0
220
0.0
230
1.0
  2
SOLID
 70
1
 71
1
 91
1
 92
1
 93
33
 72
1
 10
755.1097591482
 20
104.55281239
 11
761.9575323555
 21
104.3014819303
 72
1
 10
761.9575323555
 20
104.3014819303
 11
761.604276602
 21
103.9156531645
 72
1
 10
761.604276602
 20
103.9156531645
 11
761.2187558458
 21
103.5620609205
 72
1
 10
761.2187558458
 20
103.5620609205
 11
760.8039006525
 21
103.2433635334
 72
1
 10
760.8039006525
 20
103.2433635334
 11
760.3628645752
 21
102.9620510895
 72
1
 10
760.3628645752
 20
102.9620510895
 11
759.825044677
 21
102.6716868457
 72
1
 10
759.825044677
 20
102.6716868457
 11
759.2712333394
 21
102.4130880262
 72
1
 10
759.2712333394
 20
102.4130880262
 11
758.7033087606
 21
102.1871968257
 72
1
 10
758.7033087606
 20
102.1871968257
 11
758.1231970024
 21
101.9947198904
 72
1
 10
758.1231970024
 20
101.9947198904
 11
757.5328654582
 21
101.8363638664
 72
1
 10
757.5328654582
 20
101.8363638664
 11
756.934316181
 21
101.7126335008
 72
1
 10
756.934316181
 20
101.7126335008
 11
756.3295790933
 21
101.6239325915
 72
1
 10
756.3295790933
 20
101.6239325915
 11
755.7207051031
 21
101.5705976365
 72
1
 10
755.7207051031
 20
101.5705976365
 11
755.1097591482
 21
101.552796885
 72
1
 10
755.1097591482
 20
101.552796885
 11
733.7077545034
 21
101.552796885
 72
1
 10
733.7077545034
 20
101.552796885
 11
733.0968085485
 21
101.5705976365
 72
1
 10
733.0968085485
 20
101.5705976365
 11
732.4879345583
 21
101.6239325915
 72
1
 10
732.4879345583
 20
101.6239325915
 11
731.8831974706
 21
101.7126335008
 72
1
 10
731.8831974706
 20
101.7126335008
 11
731.2846481934
 21
101.8363638664
 72
1
 10
731.2846481934
 20
101.8363638664
 11
730.6943166492
 21
101.9947198904
 72
1
 10
730.6943166492
 20
101.9947198904
 11
730.114204891
 21
102.1871968257
 72
1
 10
730.114204891
 20
102.1871968257
 11
729.5462803122
 21
102.4130880262
 72
1
 10
729.5462803122
 20
102.4130880262
 11
728.9924689746
 21
102.6716868457
 72
1
 10
728.9924689746
 20
102.6716868457
 11
728.4546490762
 21
102.9620510895
 72
1
 10
728.4546490762
 20
102.9620510895
 11
728.0136129991
 21
103.2433635334
 72
1
 10
728.0136129991
 20
103.2433635334
 11
727.5987578057
 21
103.5620609205
 72
1
 10
727.5987578057
 20
103.5620609205
 11
727.2132370494
 21
103.9156531645
 72
1
 10
727.2132370494
 20
103.9156531645
 11
726.8599812959
 21
104.3014819303
 72
1
 10
726.8599812959
 20
104.3014819303
 11
732.4047301158
 21
104.6669525586
 72
1
 10
732.4047301158
 20
104.6669525586
 11
732.8366087357
 21
104.6035899591
 72
1
 10
732.8366087357
 20
104.6035899591
 11
733.2714417631
 21
104.5655320197
 72
1
 10
733.2714417631
 20
104.5655320197
 11
733.7077545034
 21
104.55281239
 72
1
 10
733.7077545034
 20
104.55281239
 11
755.1097591482
 21
104.55281239
 97
1
330
408
 75
0
 76
1
 98
1
 10
0.0
 20
0.0
  0
LWPOLYLINE
  5
40A
100
AcDbEntity
  8
ALL_DETAIL_ITEM
100
AcDbPolyline
 62
4
  6
CONTINUOUS
 90
29
 70
0
 10
580.9999951887
 20
130.2408455402
 10
564.2138177454
 20
101.8822958623
 10
564.0977545486
 20
101.7136429953
 10
563.9598079643
 20
101.562387082
 10
563.8025476763
 20
101.4312874071
 10
563.6289031464
 20
101.3228340571
 10
563.4421090435
 20
101.2390460206
 10
563.2456449883
 20
101.181471189
 10
563.0431707345
 20
101.1511863566
 10
562.8384579943
 20
101.14876357
 10
562.6353201787
 20
101.1742028292
 10
562.4375413609
 20
101.2271003366
 10
562.2488057861
 20
101.3064129479
 10
562.0726292409
 20
101.4106937211
 10
561.9122935609
 20
101.5380246167
 10
561.7707854967
 20
101.6859491985
 10
561.6507410756
 20
101.851809131
 10
561.5543964981
 20
102.0324413318
 10
561.4835464813
 20
102.2245144693
 10
561.4395108271
 20
102.4244616633
 10
561.4231098363
 20
102.6285141345
 10
561.4346490284
 20
102.8329031039
 10
561.4739134501
 20
103.0338597923
 10
561.5401716794
 20
103.2275481209
 10
561.6321894514
 20
103.4104348592
 10
582.2908093362
 20
133.9496599274
 10
600.3678009256
 20
103.4104348592
 10
597.7861726309
 20
101.8822958623
 10
580.9999951887
 20
130.2408455402
  0
HATCH
  5
40B
100
AcDbEntity
  8
ALL_DETAIL_ITEM
100
AcDbHatch
 62
4
  6
CONTINUOUS
 10
0.0
 20
0.0
 30
0.0
210
0.0
220
0.0
230
1.0
  2
SOLID
 70
1
 71
1
 91
1
 92
1
 93
28
 72
1
 10
580.9999951887
 20
130.2408455402
 11
564.2138177454
 21
101.8822958623
 72
1
 10
564.2138177454
 20
101.8822958623
 11
564.0977545486
 21
101.7136429953
 72
1
 10
564.0977545486
 20
101.7136429953
 11
563.9598079643
 21
101.562387082
 72
1
 10
563.9598079643
 20
101.562387082
 11
563.8025476763
 21
101.4312874071
 72
1
 10
563.8025476763
 20
101.4312874071
 11
563.6289031464
 21
101.3228340571
 72
1
 10
563.6289031464
 20
101.3228340571
 11
563.4421090435
 21
101.2390460206
 72
1
 10
563.4421090435
 20
101.2390460206
 11
563.2456449883
 21
101.181471189
 72
1
 10
563.2456449883
 20
101.181471189
 11
563.0431707345
 21
101.1511863566
 72
1
 10
563.0431707345
 20
101.1511863566
 11
562.8384579943
 21
101.14876357
 72
1
 10
562.8384579943
 20
101.14876357
 11
562.6353201787
 21
101.1742028292
 72
1
 10
562.6353201787
 20
101.1742028292
 11
562.4375413609
 21
101.2271003366
 72
1
 10
562.4375413609
 20
101.2271003366
 11
562.2488057861
 21
101.3064129479
 72
1
 10
562.2488057861
 20
101.3064129479
 11
562.0726292409
 21
101.4106937211
 72
1
 10
562.0726292409
 20
101.4106937211
 11
561.9122935609
 21
101.5380246167
 72
1
 10
561.9122935609
 20
101.5380246167
 11
561.7707854967
 21
101.6859491985
 72
1
 10
561.7707854967
 20
101.6859491985
 11
561.6507410756
 21
101.851809131
 72
1
 10
561.6507410756
 20
101.851809131
 11
561.5543964981
 21
102.0324413318
 72
1
 10
561.5543964981
 20
102.0324413318
 11
561.4835464813
 21
102.2245144693
 72
1
 10
561.4835464813
 20
102.2245144693
 11
561.4395108271
 21
102.4244616633
 72
1
 10
561.4395108271
 20
102.4244616633
 11
561.4231098363
 21
102.6285141345
 72
1
 10
561.4231098363
 20
102.6285141345
 11
561.4346490284
 21
102.8329031039
 72
1
 10
561.4346490284
 20
102.8329031039
 11
561.4739134501
 21
103.0338597923
 72
1
 10
561.4739134501
 20
103.0338597923
 11
561.5401716794
 21
103.2275481209
 72
1
 10
561.5401716794
 20
103.2275481209
 11
561.6321894514
 21
103.4104348592
 72
1
 10
561.6321894514
 20
103.4104348592
 11
582.2908093362
 21
133.9496599274
 72
1
 10
582.2908093362
 20
133.9496599274
 11
600.3678009256
 21
103.4104348592
 72
1
 10
600.3678009256
 20
103.4104348592
 11
597.7861726309
 21
101.8822958623
 72
1
 10
597.7861726309
 20
101.8822958623
 11
580.9999951887
 21
130.2408455402
 97
1
330
40A
 75
0
 76
1
 98
1
 10
0.0
 20
0.0
  0
LWPOLYLINE
  5
40C
100
AcDbEntity
  8
ALL_DETAIL_ITEM
100
AcDbPolyline
 62
4
  6
CONTINUOUS
 90
41
 70
0
 10
716.8244935266
 20
103.0487538275
 10
716.8116791505
 20
102.8529633383
 10
716.7734186161
 20
102.6605204756
 10
716.7103665719
 20
102.4747179902
 10
716.6236018556
 20
102.298735014
 10
716.5146090358
 20
102.1355826646
 10
716.3852530097
 20
101.9880525239
 10
716.2377470949
 20
101.8586688735
 10
716.0746151584
 20
101.7496455036
 10
715.8986484329
 20
101.6628478342
 10
715.7128577578
 20
101.5997609976
 10
715.5204220632
 20
101.5614644269
 10
715.3246339767
 20
101.5486133867
 10
685.2282940628
 20
101.5457954595
 10
685.0714912872
 20
101.5539989137
 10
684.9164051414
 20
101.5785487498
 10
684.7647349839
 20
101.6191759625
 10
684.6181427427
 20
101.6754353787
 10
684.4782347043
 20
101.7467105348
 10
684.3465439131
 20
101.8322204325
 10
684.2245133728
 20
101.9310280958
 10
684.1134802348
 20
102.0420508382
 10
684.0146611462
 20
102.1640721266
 10
683.9291389186
 20
102.2957549109
 10
683.8578506632
 20
102.4356562752
 10
683.8015775218
 20
102.5822432482
 10
683.7609361083
 20
102.7339096011
 10
683.7363717516
 20
102.8889934476
 10
683.7281536159
 20
103.0457954544
 10
715.5201435755
 20
104.535799001
 10
715.7125864382
 20
104.4975384666
 10
715.8983889237
 20
104.4344864224
 10
716.0743718999
 20
104.3477217061
 10
716.2375242493
 20
104.2387288863
 10
716.38505439
 20
104.1093728602
 10
716.5144380403
 20
103.9618669454
 10
716.6234614103
 20
103.7987350089
 10
716.7102590796
 20
103.6227682834
 10
716.7733459163
 20
103.4369776083
 10
716.8116424869
 20
103.2445419137
 10
716.8244935266
 20
103.0487538275
  0
HATCH
  5
40D
100
AcDbEntity
  8
ALL_DETAIL_ITEM
100
AcDbHatch
 62
4
  6
CONTINUOUS
 10
0.0
 20
0.0
 30
0.0
210
0.0
220
0.0
230
1.0
  2
SOLID
 70
1
 71
1
 91
1
 92
1
 93
40
 72
1
 10
716.8244935266
 20
103.0487538275
 11
716.8116791505
 21
102.8529633383
 72
1
 10
716.8116791505
 20
102.8529633383
 11
716.7734186161
 21
102.6605204756
 72
1
 10
716.7734186161
 20
102.6605204756
 11
716.7103665719
 21
102.4747179902
 72
1
 10
716.7103665719
 20
102.4747179902
 11
716.6236018556
 21
102.298735014
 72
1
 10
716.6236018556
 20
102.298735014
 11
716.5146090358
 21
102.1355826646
 72
1
 10
716.5146090358
 20
102.1355826646
 11
716.3852530097
 21
101.9880525239
 72
1
 10
716.3852530097
 20
101.9880525239
 11
716.2377470949
 21
101.8586688735
 72
1
 10
716.2377470949
 20
101.8586688735
 11
716.0746151584
 21
101.7496455036
 72
1
 10
716.0746151584
 20
101.7496455036
 11
715.8986484329
 21
101.6628478342
 72
1
 10
715.8986484329
 20
101.6628478342
 11
715.7128577578
 21
101.5997609976
 72
1
 10
715.7128577578
 20
101.5997609976
 11
715.5204220632
 21
101.5614644269
 72
1
 10
715.5204220632
 20
101.5614644269
 11
715.3246339767
 21
101.5486133867
 72
1
 10
715.3246339767
 20
101.5486133867
 11
685.2282940628
 21
101.5457954595
 72
1
 10
685.2282940628
 20
101.5457954595
 11
685.0714912872
 21
101.5539989137
 72
1
 10
685.0714912872
 20
101.5539989137
 11
684.9164051414
 21
101.5785487498
 72
1
 10
684.9164051414
 20
101.5785487498
 11
684.7647349839
 21
101.6191759625
 72
1
 10
684.7647349839
 20
101.6191759625
 11
684.6181427427
 21
101.6754353787
 72
1
 10
684.6181427427
 20
101.6754353787
 11
684.4782347043
 21
101.7467105348
 72
1
 10
684.4782347043
 20
101.7467105348
 11
684.3465439131
 21
101.8322204325
 72
1
 10
684.3465439131
 20
101.8322204325
 11
684.2245133728
 21
101.9310280958
 72
1
 10
684.2245133728
 20
101.9310280958
 11
684.1134802348
 21
102.0420508382
 72
1
 10
684.1134802348
 20
102.0420508382
 11
684.0146611462
 21
102.1640721266
 72
1
 10
684.0146611462
 20
102.1640721266
 11
683.9291389186
 21
102.2957549109
 72
1
 10
683.9291389186
 20
102.2957549109
 11
683.8578506632
 21
102.4356562752
 72
1
 10
683.8578506632
 20
102.4356562752
 11
683.8015775218
 21
102.5822432482
 72
1
 10
683.8015775218
 20
102.5822432482
 11
683.7609361083
 21
102.7339096011
 72
1
 10
683.7609361083
 20
102.7339096011
 11
683.7363717516
 21
102.8889934476
 72
1
 10
683.7363717516
 20
102.8889934476
 11
683.7281536159
 21
103.0457954544
 72
1
 10
683.7281536159
 20
103.0457954544
 11
715.5201435755
 21
104.535799001
 72
1
 10
715.5201435755
 20
104.535799001
 11
715.7125864382
 21
104.4975384666
 72
1
 10
715.7125864382
 20
104.4975384666
 11
715.8983889237
 21
104.4344864224
 72
1
 10
715.8983889237
 20
104.4344864224
 11
716.0743718999
 21
104.3477217061
 72
1
 10
716.0743718999
 20
104.3477217061
 11
716.2375242493
 21
104.2387288863
 72
1
 10
716.2375242493
 20
104.2387288863
 11
716.38505439
 21
104.1093728602
 72
1
 10
716.38505439
 20
104.1093728602
 11
716.5144380403
 21
103.9618669454
 72
1
 10
716.5144380403
 20
103.9618669454
 11
716.6234614103
 21
103.7987350089
 72
1
 10
716.6234614103
 20
103.7987350089
 11
716.7102590796
 21
103.6227682834
 72
1
 10
716.7102590796
 20
103.6227682834
 11
716.7733459163
 21
103.4369776083
 72
1
 10
716.7733459163
 20
103.4369776083
 11
716.8116424869
 21
103.2445419137
 72
1
 10
716.8116424869
 20
103.2445419137
 11
716.8244935266
 21
103.0487538275
 97
1
330
40C
 75
0
 76
1
 98
1
 10
0.0
 20
0.0
  0
LWPOLYLINE
  5
40E
100
AcDbEntity
  8
ALL_DETAIL_ITEM
100
AcDbPolyline
 62
4
  6
CONTINUOUS
 90
44
 70
0
 10
639.917508052
 20
103.2379778992
 10
639.9303407599
 20
103.0422049461
 10
639.917508052
 20
102.8463993221
 10
639.8792294993
 20
102.6539600426
 10
639.8161600586
 20
102.4681634615
 10
639.7293788654
 20
102.292184245
 10
639.62037077
 20
102.1290464662
 10
639.4910009313
 20
101.9815284378
 10
639.3434829028
 20
101.852158599
 10
639.1803407592
 20
101.743153882
 10
639.0043659075
 20
101.6563693105
 10
638.8185693265
 20
101.5932998698
 10
638.6261300469
 20
101.5550213171
 10
638.4303407584
 20
101.5421971936
 10
611.5523405247
 20
101.5421971936
 10
611.3955478296
 20
101.5504057661
 10
611.2404729881
 20
101.5749672081
 10
611.0888150326
 20
101.6156038348
 10
610.9422355594
 20
101.6718704228
 10
610.8023405239
 20
101.743153882
 10
610.6706626453
 20
101.8286631179
 10
610.5486446141
 20
101.9274713713
 10
610.4376232853
 20
102.0384927001
 10
610.3388150319
 20
102.1605107313
 10
610.2533024177
 20
102.292184245
 10
610.1820223368
 20
102.4320836454
 10
610.1257557488
 20
102.5786631186
 10
610.0851191221
 20
102.7303210741
 10
610.0605576801
 20
102.8853959156
 10
610.0523405232
 20
103.0422049461
 10
613.0523405262
 20
132.8889841446
 10
613.0523405262
 20
104.5421790488
 10
638.4303407584
 20
104.5421790488
 10
638.6261300469
 20
104.5293559042
 10
638.8185693265
 20
104.4910773515
 10
639.0043659075
 20
104.4280079108
 10
639.1803407592
 20
104.3412267176
 10
639.3434829028
 20
104.2322186223
 10
639.4910009313
 20
104.1028487835
 10
639.62037077
 20
103.9553307551
 10
639.7293788654
 20
103.7921886114
 10
639.8161600586
 20
103.6162137598
 10
639.8792294993
 20
103.4304171787
 10
639.917508052
 20
103.2379778992
  0
HATCH
  5
40F
100
AcDbEntity
  8
ALL_DETAIL_ITEM
100
AcDbHatch
 62
4
  6
CONTINUOUS
 10
0.0
 20
0.0
 30
0.0
210
0.0
220
0.0
230
1.0
  2
SOLID
 70
1
 71
1
 91
1
 92
1
 93
43
 72
1
 10
639.917508052
 20
103.2379778992
 11
639.9303407599
 21
103.0422049461
 72
1
 10
639.9303407599
 20
103.0422049461
 11
639.917508052
 21
102.8463993221
 72
1
 10
639.917508052
 20
102.8463993221
 11
639.8792294993
 21
102.6539600426
 72
1
 10
639.8792294993
 20
102.6539600426
 11
639.8161600586
 21
102.4681634615
 72
1
 10
639.8161600586
 20
102.4681634615
 11
639.7293788654
 21
102.292184245
 72
1
 10
639.7293788654
 20
102.292184245
 11
639.62037077
 21
102.1290464662
 72
1
 10
639.62037077
 20
102.1290464662
 11
639.4910009313
 21
101.9815284378
 72
1
 10
639.4910009313
 20
101.9815284378
 11
639.3434829028
 21
101.852158599
 72
1
 10
639.3434829028
 20
101.852158599
 11
639.1803407592
 21
101.743153882
 72
1
 10
639.1803407592
 20
101.743153882
 11
639.0043659075
 21
101.6563693105
 72
1
 10
639.0043659075
 20
101.6563693105
 11
638.8185693265
 21
101.5932998698
 72
1
 10
638.8185693265
 20
101.5932998698
 11
638.6261300469
 21
101.5550213171
 72
1
 10
638.6261300469
 20
101.5550213171
 11
638.4303407584
 21
101.5421971936
 72
1
 10
638.4303407584
 20
101.5421971936
 11
611.5523405247
 21
101.5421971936
 72
1
 10
611.5523405247
 20
101.5421971936
 11
611.3955478296
 21
101.5504057661
 72
1
 10
611.3955478296
 20
101.5504057661
 11
611.2404729881
 21
101.5749672081
 72
1
 10
611.2404729881
 20
101.5749672081
 11
611.0888150326
 21
101.6156038348
 72
1
 10
611.0888150326
 20
101.6156038348
 11
610.9422355594
 21
101.6718704228
 72
1
 10
610.9422355594
 20
101.6718704228
 11
610.8023405239
 21
101.743153882
 72
1
 10
610.8023405239
 20
101.743153882
 11
610.6706626453
 21
101.8286631179
 72
1
 10
610.6706626453
 20
101.8286631179
 11
610.5486446141
 21
101.9274713713
 72
1
 10
610.5486446141
 20
101.9274713713
 11
610.4376232853
 21
102.0384927001
 72
1
 10
610.4376232853
 20
102.0384927001
 11
610.3388150319
 21
102.1605107313
 72
1
 10
610.3388150319
 20
102.1605107313
 11
610.2533024177
 21
102.292184245
 72
1
 10
610.2533024177
 20
102.292184245
 11
610.1820223368
 21
102.4320836454
 72
1
 10
610.1820223368
 20
102.4320836454
 11
610.1257557488
 21
102.5786631186
 72
1
 10
610.1257557488
 20
102.5786631186
 11
610.0851191221
 21
102.7303210741
 72
1
 10
610.0851191221
 20
102.7303210741
 11
610.0605576801
 21
102.8853959156
 72
1
 10
610.0605576801
 20
102.8853959156
 11
610.0523405232
 21
103.0422049461
 72
1
 10
610.0523405232
 20
103.0422049461
 11
613.0523405262
 21
132.8889841446
 72
1
 10
613.0523405262
 20
132.8889841446
 11
613.0523405262
 21
104.5421790488
 72
1
 10
613.0523405262
 20
104.5421790488
 11
638.4303407584
 21
104.5421790488
 72
1
 10
638.4303407584
 20
104.5421790488
 11
638.6261300469
 21
104.5293559042
 72
1
 10
638.6261300469
 20
104.5293559042
 11
638.8185693265
 21
104.4910773515
 72
1
 10
638.8185693265
 20
104.4910773515
 11
639.0043659075
 21
104.4280079108
 72
1
 10
639.0043659075
 20
104.4280079108
 11
639.1803407592
 21
104.3412267176
 72
1
 10
639.1803407592
 20
104.3412267176
 11
639.3434829028
 21
104.2322186223
 72
1
 10
639.3434829028
 20
104.2322186223
 11
639.4910009313
 21
104.1028487835
 72
1
 10
639.4910009313
 20
104.1028487835
 11
639.62037077
 21
103.9553307551
 72
1
 10
639.62037077
 20
103.9553307551
 11
639.7293788654
 21
103.7921886114
 72
1
 10
639.7293788654
 20
103.7921886114
 11
639.8161600586
 21
103.6162137598
 72
1
 10
639.8161600586
 20
103.6162137598
 11
639.8792294993
 21
103.4304171787
 72
1
 10
639.8792294993
 20
103.4304171787
 11
639.917508052
 21
103.2379778992
 97
1
330
40E
 75
0
 76
1
 98
1
 10
0.0
 20
0.0
  0
LWPOLYLINE
  5
410
100
AcDbEntity
  8
ALL_DETAIL_ITEM
100
AcDbPolyline
 62
4
  6
CONTINUOUS
 90
25
 70
0
 10
600.4455938785
 20
102.0324413318
 10
600.349249301
 20
101.851809131
 10
600.2292048799
 20
101.6859491985
 10
600.0876968156
 20
101.5380246167
 10
599.9273611357
 20
101.4106937211
 10
599.7511845905
 20
101.3064129479
 10
599.5624490157
 20
101.2271003366
 10
599.3646701979
 20
101.1742028292
 10
599.1615323823
 20
101.14876357
 10
598.9568196421
 20
101.1511863566
 10
598.7543453883
 20
101.181471189
 10
598.5578813331
 20
101.2390460206
 10
598.3710872302
 20
101.3228340571
 10
598.1974427003
 20
101.4312874071
 10
598.0401824123
 20
101.562387082
 10
597.902235828
 20
101.7136429953
 10
597.7861726309
 20
101.8822958623
 10
600.3678009256
 20
103.4104348592
 10
600.4598186972
 20
103.2275481209
 10
600.5260769265
 20
103.0338597923
 10
600.5653413482
 20
102.8329031039
 10
600.5768805403
 20
102.6285141345
 10
600.5604795495
 20
102.4244616633
 10
600.5164438953
 20
102.2245144693
 10
600.4455938785
 20
102.0324413318
  0
HATCH
  5
411
100
AcDbEntity
  8
ALL_DETAIL_ITEM
100
AcDbHatch
 62
4
  6
CONTINUOUS
 10
0.0
 20
0.0
 30
0.0
210
0.0
220
0.0
230
1.0
  2
SOLID
 70
1
 71
1
 91
1
 92
1
 93
24
 72
1
 10
600.4455938785
 20
102.0324413318
 11
600.349249301
 21
101.851809131
 72
1
 10
600.349249301
 20
101.851809131
 11
600.2292048799
 21
101.6859491985
 72
1
 10
600.2292048799
 20
101.6859491985
 11
600.0876968156
 21
101.5380246167
 72
1
 10
600.0876968156
 20
101.5380246167
 11
599.9273611357
 21
101.4106937211
 72
1
 10
599.9273611357
 20
101.4106937211
 11
599.7511845905
 21
101.3064129479
 72
1
 10
599.7511845905
 20
101.3064129479
 11
599.5624490157
 21
101.2271003366
 72
1
 10
599.5624490157
 20
101.2271003366
 11
599.3646701979
 21
101.1742028292
 72
1
 10
599.3646701979
 20
101.1742028292
 11
599.1615323823
 21
101.14876357
 72
1
 10
599.1615323823
 20
101.14876357
 11
598.9568196421
 21
101.1511863566
 72
1
 10
598.9568196421
 20
101.1511863566
 11
598.7543453883
 21
101.181471189
 72
1
 10
598.7543453883
 20
101.181471189
 11
598.5578813331
 21
101.2390460206
 72
1
 10
598.5578813331
 20
101.2390460206
 11
598.3710872302
 21
101.3228340571
 72
1
 10
598.3710872302
 20
101.3228340571
 11
598.1974427003
 21
101.4312874071
 72
1
 10
598.1974427003
 20
101.4312874071
 11
598.0401824123
 21
101.562387082
 72
1
 10
598.0401824123
 20
101.562387082
 11
597.902235828
 21
101.7136429953
 72
1
 10
597.902235828
 20
101.7136429953
 11
597.7861726309
 21
101.8822958623
 72
1
 10
597.7861726309
 20
101.8822958623
 11
600.3678009256
 21
103.4104348592
 72
1
 10
600.3678009256
 20
103.4104348592
 11
600.4598186972
 21
103.2275481209
 72
1
 10
600.4598186972
 20
103.2275481209
 11
600.5260769265
 21
103.0338597923
 72
1
 10
600.5260769265
 20
103.0338597923
 11
600.5653413482
 21
102.8329031039
 72
1
 10
600.5653413482
 20
102.8329031039
 11
600.5768805403
 21
102.6285141345
 72
1
 10
600.5768805403
 20
102.6285141345
 11
600.5604795495
 21
102.4244616633
 72
1
 10
600.5604795495
 20
102.4244616633
 11
600.5164438953
 21
102.2245144693
 72
1
 10
600.5164438953
 20
102.2245144693
 11
600.4455938785
 21
102.0324413318
 97
1
330
410
 75
0
 76
1
 98
1
 10
0.0
 20
0.0
  0
LINE
  5
412
100
AcDbEntity
  8
ALL_DETAIL_ITEM
100
AcDbLine
 62
4
  6
CONTINUOUS
 10
807.7643381761
 20
102.8828863019
 11
810.1459812324
 21
105.2645293582
  0
LINE
  5
413
100
AcDbEntity
  8
ALL_DETAIL_ITEM
100
AcDbLine
 62
4
  6
CONTINUOUS
 10
799.3532064147
 20
101.5428223524
 11
802.3532064185
 21
104.5428223562
  0
LINE
  5
414
100
AcDbEntity
  8
ALL_DETAIL_ITEM
100
AcDbLine
 62
4
  6
CONTINUOUS
 10
807.8879709619
 20
110.0775868996
 11
810.8699968837
 21
113.0596128213
  0
LINE
  5
415
100
AcDbEntity
  8
ALL_DETAIL_ITEM
100
AcDbLine
 62
4
  6
CONTINUOUS
 10
792.2821386029
 20
101.5428223524
 11
795.2821386066
 21
104.5428223562
  0
LINE
  5
416
100
AcDbEntity
  8
ALL_DETAIL_ITEM
100
AcDbLine
 62
4
  6
CONTINUOUS
 10
806.1263801646
 20
115.3870639141
 11
808.3127776553
 21
117.5734614049
  0
LINE
  5
417
100
AcDbEntity
  8
ALL_DETAIL_ITEM
100
AcDbLine
 62
4
  6
CONTINUOUS
 10
785.211070791
 20
101.5428223524
 11
788.2110707948
 21
104.5428223562
  0
LINE
  5
418
100
AcDbEntity
  8
ALL_DETAIL_ITEM
100
AcDbLine
 62
4
  6
CONTINUOUS
 10
799.918936996
 20
116.2506885574
 11
802.9111196292
 21
119.2428711906
  0
LINE
  5
419
100
AcDbEntity
  8
ALL_DETAIL_ITEM
100
AcDbLine
 62
4
  6
CONTINUOUS
 10
778.1400029792
 20
101.5428223524
 11
781.1400029829
 21
104.5428223562
  0
LINE
  5
41A
100
AcDbEntity
  8
ALL_DETAIL_ITEM
100
AcDbLine
 62
4
  6
CONTINUOUS
 10
792.8475309724
 20
116.2503503457
 11
795.8476744665
 21
119.2504938398
  0
LINE
  5
41B
100
AcDbEntity
  8
ALL_DETAIL_ITEM
100
AcDbLine
 62
4
  6
CONTINUOUS
 10
807.5549549124
 20
130.9577742857
 11
809.0553944909
 21
132.4582138642
  0
LINE
  5
41C
100
AcDbEntity
  8
ALL_DETAIL_ITEM
100
AcDbLine
 62
4
  6
CONTINUOUS
 10
773.1358501133
 20
103.6097372984
 11
773.9564242313
 21
104.4303114165
  0
LINE
  5
41D
100
AcDbEntity
  8
ALL_DETAIL_ITEM
100
AcDbLine
 62
4
  6
CONTINUOUS
 10
785.7761249488
 20
116.2500121339
 11
788.7762684429
 21
119.250155628
  0
LINE
  5
41E
100
AcDbEntity
  8
ALL_DETAIL_ITEM
100
AcDbLine
 62
4
  6
CONTINUOUS
 10
800.4838871003
 20
130.9577742855
 11
803.4838871035
 21
133.9577742887
  0
LINE
  5
41F
100
AcDbEntity
  8
ALL_DETAIL_ITEM
100
AcDbLine
 62
4
  6
CONTINUOUS
 10
778.8975444514
 20
116.4424994484
 11
781.7048624193
 21
119.2498174163
  0
LINE
  5
420
100
AcDbEntity
  8
ALL_DETAIL_ITEM
100
AcDbLine
 62
4
  6
CONTINUOUS
 10
793.4128192883
 20
130.9577742853
 11
796.4128192917
 21
133.9577742887
  0
LINE
  5
421
100
AcDbEntity
  8
ALL_DETAIL_ITEM
100
AcDbLine
 62
4
  6
CONTINUOUS
 10
757.1388842623
 20
101.7549070711
 11
763.3515225285
 21
107.9675453373
  0
LINE
  5
422
100
AcDbEntity
  8
ALL_DETAIL_ITEM
100
AcDbLine
 62
4
  6
CONTINUOUS
 10
774.2001315481
 20
118.816154357
 11
776.3225633429
 21
120.9385861518
  0
LINE
  5
423
100
AcDbEntity
  8
ALL_DETAIL_ITEM
100
AcDbLine
 62
4
  6
CONTINUOUS
 10
786.3417514762
 20
130.9577742851
 11
789.3417514798
 21
133.9577742887
  0
LINE
  5
424
100
AcDbEntity
  8
ALL_DETAIL_ITEM
100
AcDbLine
 62
4
  6
CONTINUOUS
 10
749.8657159514
 20
101.5528065722
 11
752.8657159552
 21
104.5528065759
  0
LINE
  5
425
100
AcDbEntity
  8
ALL_DETAIL_ITEM
100
AcDbLine
 62
4
  6
CONTINUOUS
 10
760.3598571067
 20
112.0469477274
 11
763.3599304531
 21
115.0470210738
  0
LINE
  5
426
100
AcDbEntity
  8
ALL_DETAIL_ITEM
100
AcDbLine
 62
4
  6
CONTINUOUS
 10
772.6316631747
 20
124.3187537954
 11
775.6316631784
 21
127.3187537991
  0
LINE
  5
427
100
AcDbEntity
  8
ALL_DETAIL_ITEM
100
AcDbLine
 62
4
  6
CONTINUOUS
 10
779.0379525518
 20
130.7250431725
 11
782.2706836679
 21
133.9577742887
  0
LINE
  5
428
100
AcDbEntity
  8
ALL_DETAIL_ITEM
100
AcDbLine
 62
4
  6
CONTINUOUS
 10
742.7946481396
 20
101.5528065722
 11
745.7946481433
 21
104.5528065759
  0
LINE
  5
429
100
AcDbEntity
  8
ALL_DETAIL_ITEM
100
AcDbLine
 62
4
  6
CONTINUOUS
 10
760.3600299761
 20
119.1181884087
 11
763.3601033221
 21
122.1182617547
  0
LINE
  5
42A
100
AcDbEntity
  8
ALL_DETAIL_ITEM
100
AcDbLine
 62
4
  6
CONTINUOUS
 10
735.7235803277
 20
101.5528065722
 11
738.7235803315
 21
104.5528065759
  0
LINE
  5
42B
100
AcDbEntity
  8
ALL_DETAIL_ITEM
100
AcDbLine
 62
4
  6
CONTINUOUS
 10
760.3602028456
 20
126.18942909
 11
763.3602761911
 21
129.1895024355
  0
LINE
  5
42C
100
AcDbEntity
  8
ALL_DETAIL_ITEM
100
AcDbLine
 62
4
  6
CONTINUOUS
 10
729.5234536316
 20
102.4237476879
 11
731.8808709356
 21
104.7811649919
  0
LINE
  5
42D
100
AcDbEntity
  8
ALL_DETAIL_ITEM
100
AcDbLine
 62
4
  6
CONTINUOUS
 10
760.4149658226
 20
133.3152598789
 11
761.4560584053
 21
134.3563524616
  0
LINE
  5
42E
100
AcDbEntity
  8
ALL_DETAIL_ITEM
100
AcDbLine
 62
4
  6
CONTINUOUS
 10
725.9113676906
 20
105.8827295588
 11
728.4577449898
 21
108.429106858
  0
LINE
  5
42F
100
AcDbEntity
  8
ALL_DETAIL_ITEM
100
AcDbLine
 62
4
  6
CONTINUOUS
 10
714.5061070677
 20
101.5485367478
 11
716.668417122
 21
103.7108468021
  0
LINE
  5
430
100
AcDbEntity
  8
ALL_DETAIL_ITEM
100
AcDbLine
 62
4
  6
CONTINUOUS
 10
725.4576454642
 20
112.5000751442
 11
728.4575721299
 21
115.5000018099
  0
LINE
  5
431
100
AcDbEntity
  8
ALL_DETAIL_ITEM
100
AcDbLine
 62
4
  6
CONTINUOUS
 10
707.4343771282
 20
101.5478746201
 11
710.4346580618
 21
104.5481555537
  0
LINE
  5
432
100
AcDbEntity
  8
ALL_DETAIL_ITEM
100
AcDbLine
 62
4
  6
CONTINUOUS
 10
725.4574726045
 20
119.5709700965
 11
728.4573992699
 21
122.5708967618
  0
LINE
  5
433
100
AcDbEntity
  8
ALL_DETAIL_ITEM
100
AcDbLine
 62
4
  6
CONTINUOUS
 10
700.3626471886
 20
101.5472124924
 11
703.362928122
 21
104.5474934258
  0
LINE
  5
434
100
AcDbEntity
  8
ALL_DETAIL_ITEM
100
AcDbLine
 62
4
  6
CONTINUOUS
 10
725.4572997449
 20
126.6418650487
 11
728.45722641
 21
129.6417917138
  0
LINE
  5
435
100
AcDbEntity
  8
ALL_DETAIL_ITEM
100
AcDbLine
 62
4
  6
CONTINUOUS
 10
693.2909172491
 20
101.5465503647
 11
696.2911981823
 21
104.546831298
  0
LINE
  5
436
100
AcDbEntity
  8
ALL_DETAIL_ITEM
100
AcDbLine
 62
4
  6
CONTINUOUS
 10
707.9951827968
 20
116.2508159124
 11
710.9951827998
 21
119.2508159154
  0
LINE
  5
437
100
AcDbEntity
  8
ALL_DETAIL_ITEM
100
AcDbLine
 62
4
  6
CONTINUOUS
 10
686.2191873095
 20
101.5458882371
 11
689.2194682426
 21
104.5461691701
  0
LINE
  5
438
100
AcDbEntity
  8
ALL_DETAIL_ITEM
100
AcDbLine
 62
4
  6
CONTINUOUS
 10
700.9241149849
 20
116.2508159124
 11
703.9241149879
 21
119.2508159154
  0
LINE
  5
439
100
AcDbEntity
  8
ALL_DETAIL_ITEM
100
AcDbLine
 62
4
  6
CONTINUOUS
 10
715.6738381613
 20
131.0005390889
 11
716.7832610218
 21
132.1099619493
  0
LINE
  5
43A
100
AcDbEntity
  8
ALL_DETAIL_ITEM
100
AcDbLine
 62
4
  6
CONTINUOUS
 10
683.7281536159
 20
106.1259223553
 11
686.7281536159
 21
109.1259223553
  0
LINE
  5
43B
100
AcDbEntity
  8
ALL_DETAIL_ITEM
100
AcDbLine
 62
4
  6
CONTINUOUS
 10
693.853047173
 20
116.2508159124
 11
696.853047176
 21
119.2508159154
  0
LINE
  5
43C
100
AcDbEntity
  8
ALL_DETAIL_ITEM
100
AcDbLine
 62
4
  6
CONTINUOUS
 10
708.5592457604
 20
130.9570144998
 11
711.5591481485
 21
133.9569168878
  0
LINE
  5
43D
100
AcDbEntity
  8
ALL_DETAIL_ITEM
100
AcDbLine
 62
4
  6
CONTINUOUS
 10
683.7281536159
 20
113.1969901672
 11
686.7281536159
 21
116.1969901672
  0
LINE
  5
43E
100
AcDbEntity
  8
ALL_DETAIL_ITEM
100
AcDbLine
 62
4
  6
CONTINUOUS
 10
686.7819793612
 20
116.2508159124
 11
689.7819793642
 21
119.2508159154
  0
LINE
  5
43F
100
AcDbEntity
  8
ALL_DETAIL_ITEM
100
AcDbLine
 62
4
  6
CONTINUOUS
 10
701.488408033
 20
130.9572445843
 11
704.4883104211
 21
133.9571469723
  0
LINE
  5
440
100
AcDbEntity
  8
ALL_DETAIL_ITEM
100
AcDbLine
 62
4
  6
CONTINUOUS
 10
683.7281536159
 20
120.268057979
 11
686.7281536159
 21
123.268057979
  0
LINE
  5
441
100
AcDbEntity
  8
ALL_DETAIL_ITEM
100
AcDbLine
 62
4
  6
CONTINUOUS
 10
694.4175703056
 20
130.9574746687
 11
697.4174726937
 21
133.9573770568
  0
LINE
  5
442
100
AcDbEntity
  8
ALL_DETAIL_ITEM
100
AcDbLine
 62
4
  6
CONTINUOUS
 10
683.7281536159
 20
127.3391257909
 11
686.7281536159
 21
130.3391257909
  0
LINE
  5
443
100
AcDbEntity
  8
ALL_DETAIL_ITEM
100
AcDbLine
 62
4
  6
CONTINUOUS
 10
687.3467325782
 20
130.9577047532
 11
690.3466349663
 21
133.9576071413
  0
LINE
  5
444
100
AcDbEntity
  8
ALL_DETAIL_ITEM
100
AcDbLine
 62
4
  6
CONTINUOUS
 10
653.1355838165
 20
103.8176238034
 11
655.3239718578
 21
106.0060118446
  0
LINE
  5
445
100
AcDbEntity
  8
ALL_DETAIL_ITEM
100
AcDbLine
 62
4
  6
CONTINUOUS
 10
656.9114749245
 20
107.5935149114
 11
665.5462286695
 21
116.2282686563
  0
LINE
  5
446
100
AcDbEntity
  8
ALL_DETAIL_ITEM
100
AcDbLine
 62
4
  6
CONTINUOUS
 10
650.4960940072
 20
108.2492018059
 11
652.6844820484
 21
110.4375898471
  0
LINE
  5
447
100
AcDbEntity
  8
ALL_DETAIL_ITEM
100
AcDbLine
 62
4
  6
CONTINUOUS
 10
667.3261473174
 20
125.0792551161
 11
675.2672267631
 21
133.0203345618
  0
LINE
  5
448
100
AcDbEntity
  8
ALL_DETAIL_ITEM
100
AcDbLine
 62
4
  6
CONTINUOUS
 10
636.7180129986
 20
101.5421886092
 11
639.379355001
 21
104.2035306115
  0
LINE
  5
449
100
AcDbEntity
  8
ALL_DETAIL_ITEM
100
AcDbLine
 62
4
  6
CONTINUOUS
 10
647.8566041979
 20
112.6807798085
 11
650.0449922391
 21
114.8691678496
  0
LINE
  5
44A
100
AcDbEntity
  8
ALL_DETAIL_ITEM
100
AcDbLine
 62
4
  6
CONTINUOUS
 10
629.6469451867
 20
101.5421886092
 11
632.6469451899
 21
104.5421886123
  0
LINE
  5
44B
100
AcDbEntity
  8
ALL_DETAIL_ITEM
100
AcDbLine
 62
4
  6
CONTINUOUS
 10
645.2171143887
 20
117.1123578111
 11
647.4055024297
 21
119.3007458521
  0
LINE
  5
44C
100
AcDbEntity
  8
ALL_DETAIL_ITEM
100
AcDbLine
 62
4
  6
CONTINUOUS
 10
622.5758773749
 20
101.5421886092
 11
625.5758773782
 21
104.5421886125
  0
LINE
  5
44D
100
AcDbEntity
  8
ALL_DETAIL_ITEM
100
AcDbLine
 62
4
  6
CONTINUOUS
 10
642.5776245794
 20
121.5439358137
 11
644.7660126203
 21
123.7323238547
  0
LINE
  5
44E
100
AcDbEntity
  8
ALL_DETAIL_ITEM
100
AcDbLine
 62
4
  6
CONTINUOUS
 10
615.504809563
 20
101.5421886092
 11
618.5048095666
 21
104.5421886128
  0
LINE
  5
44F
100
AcDbEntity
  8
ALL_DETAIL_ITEM
100
AcDbLine
 62
4
  6
CONTINUOUS
 10
639.9381347701
 20
125.9755138163
 11
642.126522811
 21
128.1639018572
  0
LINE
  5
450
100
AcDbEntity
  8
ALL_DETAIL_ITEM
100
AcDbLine
 62
4
  6
CONTINUOUS
 10
610.0523405232
 20
103.1607873812
 11
613.0523405262
 21
106.1607873842
  0
LINE
  5
451
100
AcDbEntity
  8
ALL_DETAIL_ITEM
100
AcDbLine
 62
4
  6
CONTINUOUS
 10
637.2986449608
 20
130.4070918188
 11
639.4870330016
 21
132.5954798597
  0
LINE
  5
452
100
AcDbEntity
  8
ALL_DETAIL_ITEM
100
AcDbLine
 62
4
  6
CONTINUOUS
 10
610.0523405232
 20
110.2318551931
 11
613.0523405262
 21
113.2318551961
  0
LINE
  5
453
100
AcDbEntity
  8
ALL_DETAIL_ITEM
100
AcDbLine
 62
4
  6
CONTINUOUS
 10
596.6132514629
 20
103.8638339447
 11
598.8031588228
 21
106.0537413046
  0
LINE
  5
454
100
AcDbEntity
  8
ALL_DETAIL_ITEM
100
AcDbLine
 62
4
  6
CONTINUOUS
 10
610.0523405232
 20
117.3029230049
 11
613.0523405262
 21
120.3029230079
  0
LINE
  5
455
100
AcDbEntity
  8
ALL_DETAIL_ITEM
100
AcDbLine
 62
4
  6
CONTINUOUS
 10
593.9840137972
 20
108.3056640908
 11
596.1739211571
 21
110.4955714507
  0
LINE
  5
456
100
AcDbEntity
  8
ALL_DETAIL_ITEM
100
AcDbLine
 62
4
  6
CONTINUOUS
 10
610.0523405232
 20
124.3739908168
 11
613.0523405262
 21
127.3739908198
  0
LINE
  5
457
100
AcDbEntity
  8
ALL_DETAIL_ITEM
100
AcDbLine
 62
4
  6
CONTINUOUS
 10
591.3547761314
 20
112.7474942369
 11
593.5446834914
 21
114.9374015969
  0
LINE
  5
458
100
AcDbEntity
  8
ALL_DETAIL_ITEM
100
AcDbLine
 62
4
  6
CONTINUOUS
 10
610.0523405232
 20
131.4450586287
 11
612.5840739524
 21
133.9767920579
  0
LINE
  5
459
100
AcDbEntity
  8
ALL_DETAIL_ITEM
100
AcDbLine
 62
4
  6
CONTINUOUS
 10
588.7255384656
 20
117.189324383
 11
590.9154458257
 21
119.3792317431
  0
LINE
  5
45A
100
AcDbEntity
  8
ALL_DETAIL_ITEM
100
AcDbLine
 62
4
  6
CONTINUOUS
 10
586.0963007998
 20
121.631154529
 11
588.28620816
 21
123.8210618893
  0
LINE
  5
45B
100
AcDbEntity
  8
ALL_DETAIL_ITEM
100
AcDbLine
 62
4
  6
CONTINUOUS
 10
562.8327631489
 20
105.43868469
 11
571.3757663951
 21
113.9816879362
  0
LINE
  5
45C
100
AcDbEntity
  8
ALL_DETAIL_ITEM
100
AcDbLine
 62
4
  6
CONTINUOUS
 10
583.467063134
 20
126.0729846751
 11
585.6569704943
 21
128.2628920354
  0
LINE
  5
45D
100
AcDbEntity
  8
ALL_DETAIL_ITEM
100
AcDbLine
 62
4
  6
CONTINUOUS
 10
573.0896289531
 20
122.7666183061
 11
583.0277328287
 21
132.7047221816
  0
ENDBLK
  5
45E
100
AcDbEntity
  8
0
  6
BYBLOCK
 62
0
100
AcDbBlockEnd
  0
BLOCK
  5
45F
100
AcDbEntity
  8
0
100
AcDbBlockBegin
  2
_FILLED
 70
64
 10
0.0
 20
0.0
  3
_FILLED
  1

  0
SOLID
  5
460
100
AcDbEntity
  8
0
  6
BYBLOCK
 62
0
100
AcDbTrace
 10
0.0
 20
0.0
 11
-1.0
 21
0.2142857143
 12
-1.0
 22
-0.2142857143
 13
-1.0
 23
-0.2142857143
  0
ENDBLK
  5
461
100
AcDbEntity
  8
0
  6
BYBLOCK
 62
0
100
AcDbBlockEnd
  0
BLOCK
  5
462
100
AcDbEntity
  8
0
100
AcDbBlockBegin
  2
_DOTBLANK
 70
64
 10
0.0
 20
0.0
  3
_DOTBLANK
  1

  0
CIRCLE
  5
463
100
AcDbEntity
  8
0
  6
BYBLOCK
 62
0
100
AcDbCircle
 10
0.0
 20
0.0
 40
0.2142857143
  0
LINE
  5
464
100
AcDbEntity
  8
0
  6
BYBLOCK
 62
0
100
AcDbLine
 10
-1.0
 20
0.0
 11
0.0
 21
0.0
  0
ENDBLK
  5
465
100
AcDbEntity
  8
0
  6
BYBLOCK
 62
0
100
AcDbBlockEnd
  0
BLOCK
  5
466
100
AcDbEntity
  8
ALL_DIM
100
AcDbBlockBegin
 62
2
  6
CONTINUOUS
  2
*D0
 70
65
 10
0.0
 20
0.0
  3
*D0
  1

  0
MTEXT
  5
467
100
AcDbEntity
  8
ALL_DIM
100
AcDbMText
 62
5
  6
CONTINUOUS
  7
STANDARD
 71
1
 72
1
 10
207.0094855605
 20
1213.6826946664
 30
0.0
 11
0.6637148485
 21
-0.747985695
 31
0.0
 44
0.9
  1
R8
 40
17.5
 41
41.25
  0
LINE
  5
468
100
AcDbEntity
  8
ALL_DIM
100
AcDbLine
 62
2
  6
CONTINUOUS
 10
164.7762187119
 20
1228.3198230597
 11
208.8994568173
 21
1178.5943257438
  0
INSERT
  5
469
100
AcDbEntity
  8
ALL_DIM
100
AcDbBlockReference
 62
2
  6
CONTINUOUS
  2
_FILLED
 10
164.7762187119
 20
1228.3198230597
 41
17.5
 42
17.5
 43
17.5
 50
131.583807455
  0
ENDBLK
  5
46A
100
AcDbEntity
  8
0
  6
BYBLOCK
 62
0
100
AcDbBlockEnd
  0
BLOCK
  5
46B
100
AcDbEntity
  8
ALL_DIM
100
AcDbBlockBegin
 62
2
  6
CONTINUOUS
  2
*D1
 70
65
 10
0.0
 20
0.0
  3
*D1
  1

  0
MTEXT
  5
46C
100
AcDbEntity
  8
ALL_DIM
100
AcDbMText
 62
5
  6
CONTINUOUS
  7
STANDARD
 71
2
 72
1
 10
90.2109375
 20
1015.3359375
 30
0.0
 11
0.0
 21
1.0
 31
0.0
 44
0.9
  1
430
 40
17.5
 41
60.0
  0
LINE
  5
46D
100
AcDbEntity
  8
ALL_DIM
100
AcDbLine
 62
2
  6
CONTINUOUS
 10
884.0859375
 20
800.3359375
 11
107.0859375
 21
800.3359375
  0
LINE
  5
46E
100
AcDbEntity
  8
ALL_DIM
100
AcDbLine
 62
2
  6
CONTINUOUS
 10
884.0859375
 20
1230.3359375
 11
107.0859375
 21
1230.3359375
  0
LINE
  5
46F
100
AcDbEntity
  8
ALL_DIM
100
AcDbLine
 62
2
  6
CONTINUOUS
 10
112.0859375
 20
800.3359375
 11
112.0859375
 21
1015.3359375
  0
LINE
  5
470
100
AcDbEntity
  8
ALL_DIM
100
AcDbLine
 62
2
  6
CONTINUOUS
 10
112.0859375
 20
1230.3359375
 11
112.0859375
 21
1015.3359375
  0
INSERT
  5
471
100
AcDbEntity
  8
ALL_DIM
100
AcDbBlockReference
 62
2
  6
CONTINUOUS
  2
_FILLED
 10
112.0859375
 20
800.3359375
 41
17.5
 42
17.5
 43
17.5
 50
270.0
  0
INSERT
  5
472
100
AcDbEntity
  8
ALL_DIM
100
AcDbBlockReference
 62
2
  6
CONTINUOUS
  2
_FILLED
 10
112.0859375
 20
1230.3359375
 41
17.5
 42
17.5
 43
17.5
 50
90.0
  0
ENDBLK
  5
473
100
AcDbEntity
  8
0
  6
BYBLOCK
 62
0
100
AcDbBlockEnd
  0
BLOCK
  5
474
100
AcDbEntity
  8
ALL_DIM
100
AcDbBlockBegin
 62
2
  6
CONTINUOUS
  2
*D2
 70
65
 10
0.0
 20
0.0
  3
*D2
  1

  0
MTEXT
  5
475
100
AcDbEntity
  8
ALL_DIM
100
AcDbMText
 62
5
  6
CONTINUOUS
  7
STANDARD
 71
2
 72
1
 10
527.0859375
 20
772.2109375
 30
0.0
 11
1.0
 21
0.0
 31
0.0
 44
0.9
  1
730
 40
17.5
 41
60.0
  0
LINE
  5
476
100
AcDbEntity
  8
ALL_DIM
100
AcDbLine
 62
2
  6
CONTINUOUS
 10
162.0859375
 20
839.5039374999
 11
162.0859375
 21
745.3359375
  0
LINE
  5
477
100
AcDbEntity
  8
ALL_DIM
100
AcDbLine
 62
2
  6
CONTINUOUS
 10
892.0859375
 20
849.4879375
 11
892.0859375
 21
745.3359375
  0
LINE
  5
478
100
AcDbEntity
  8
ALL_DIM
100
AcDbLine
 62
2
  6
CONTINUOUS
 10
162.0859375
 20
750.3359375
 11
527.0859375
 21
750.3359375
  0
LINE
  5
479
100
AcDbEntity
  8
ALL_DIM
100
AcDbLine
 62
2
  6
CONTINUOUS
 10
892.0859375
 20
750.3359375
 11
527.0859375
 21
750.3359375
  0
INSERT
  5
47A
100
AcDbEntity
  8
ALL_DIM
100
AcDbBlockReference
 62
2
  6
CONTINUOUS
  2
_FILLED
 10
162.0859375
 20
750.3359375
 41
17.5
 42
17.5
 43
17.5
 50
180.0
  0
INSERT
  5
47B
100
AcDbEntity
  8
ALL_DIM
100
AcDbBlockReference
 62
2
  6
CONTINUOUS
  2
_FILLED
 10
892.0859375
 20
750.3359375
 41
17.5
 42
17.5
 43
17.5
  0
ENDBLK
  5
47C
100
AcDbEntity
  8
0
  6
BYBLOCK
 62
0
100
AcDbBlockEnd
  0
ENDSEC
  0
SECTION
  2
ENTITIES
  0
DIMENSION
  5
47D
100
AcDbEntity
  8
ALL_DIM
100
AcDbDimension
 62
2
  6
CONTINUOUS
  2
*D0
 10
170.0859375
 20
1222.3359375
 11
209.5906898966
 21
1197.5903864362
 70
164
 71
1
 42
8.0
  1
R<>
  3
DIMSTYLE_1
100
AcDbRadialDimension
 15
164.7762187119
 25
1228.3198230597
  0
DIMENSION
  5
47E
100
AcDbEntity
  8
ALL_DIM
100
AcDbDimension
 62
2
  6
CONTINUOUS
  2
*D1
 10
112.0859375
 20
1230.3359375
 11
112.0859375
 21
1012.8359350586
 70
160
 71
2
 42
430.0
  3
DIMSTYLE_2
100
AcDbAlignedDimension
 13
884.0859375
 23
800.3359375
 14
884.0859375
 24
1230.3359375
 50
90.0
100
AcDbRotatedDimension
  0
DIMENSION
  5
47F
100
AcDbEntity
  8
ALL_DIM
100
AcDbDimension
 62
2
  6
CONTINUOUS
  2
*D2
 10
892.0859375
 20
750.3359375
 11
524.5859423828
 21
750.3359375
 70
160
 71
2
 42
730.0
  3
DIMSTYLE_2
100
AcDbAlignedDimension
 13
162.0859375
 23
839.5039374999
 14
892.0859375
 24
849.4879375
100
AcDbRotatedDimension
  0
INSERT
  5
480
100
AcDbEntity
  8
ALL_DETAIL_ITEM
100
AcDbBlockReference
 62
2
  6
CONTINUOUS
  2
B2B_NASLOV_RISBE_BL0
 10
689.3997256125
 20
179.8017686006
  0
INSERT
  5
481
100
AcDbEntity
  8
ALL_DETAIL_ITEM
100
AcDbBlockReference
 62
2
  6
CONTINUOUS
  2
U-GRANITAL_INTERMEZZO_B2_BL1
 10
297.2803125
 20
473.74125
  0
LEADER
  5
482
100
AcDbEntity
  8
ALL_DETAIL_ITEM
100
AcDbLeader
 62
2
  6
CONTINUOUS
  3
STANDARD
 71
1
 72
0
 73
2
 75
0
 76
2
 10
891.3950249796
 20
1059.8826351028
 30
0.0
 10
929.6482619974
 20
1117.5576868208
 30
0.0
340
483
212
-12.8630816745
222
-19.393885555
232
0.0
1001
ACAD
1000
DSTYLE
1002
{
1070
77
1070
0
1070
341
1005
219
1002
}
  0
INSERT
  5
483
102
{ACAD_REACTORS
330
482
102
}
100
AcDbEntity
  8
ALL_DETAIL_ITEM
100
AcDbBlockReference
 62
2
  6
CONTINUOUS
  2
POZ_FS_B2B_BL2
 10
942.5113436719
 20
1136.9515723758
  0
LINE
  5
484
100
AcDbEntity
  8
0
100
AcDbLine
 62
7
  6
CONTINUOUS
 10
0.0
 20
0.0
 11
1050.0
 21
0.0
  0
LINE
  5
485
100
AcDbEntity
  8
0
100
AcDbLine
 62
7
  6
CONTINUOUS
 10
0.0
 20
0.0
 11
0.0
 21
1485.0
  0
LINE
  5
486
100
AcDbEntity
  8
0
100
AcDbLine
 62
7
  6
CONTINUOUS
 10
1050.0
 20
0.0
 11
1050.0
 21
1485.0
  0
LINE
  5
487
100
AcDbEntity
  8
0
100
AcDbLine
 62
7
  6
CONTINUOUS
 10
0.0
 20
1485.0
 11
1050.0
 21
1485.0
  0
LINE
  5
488
100
AcDbEntity
  8
03___PRT_ALL_CURVES
100
AcDbLine
 62
7
  6
CONTINUOUS
 10
162.0859375
 20
808.3359375
 11
162.0859375
 21
1222.3359375
  0
LINE
  5
489
100
AcDbEntity
  8
03___PRT_ALL_CURVES
100
AcDbLine
 62
7
  6
CONTINUOUS
 10
170.0859375
 20
800.3359375
 11
884.0859375
 21
800.3359375
  0
LINE
  5
48A
100
AcDbEntity
  8
03___PRT_ALL_CURVES
100
AcDbLine
 62
7
  6
CONTINUOUS
 10
170.0859375
 20
1230.3359375
 11
884.0859375
 21
1230.3359375
  0
LINE
  5
48B
100
AcDbEntity
  8
03___PRT_ALL_CURVES
100
AcDbLine
 62
7
  6
CONTINUOUS
 10
892.0859375
 20
808.3359375
 11
892.0859375
 21
1222.3359375
  0
ARC
  5
48C
100
AcDbEntity
  8
03___PRT_ALL_CURVES
100
AcDbCircle
 62
7
  6
CONTINUOUS
 10
170.0859375
 20
808.3359375
 40
8.0
100
AcDbArc
 50
180.0
 51
270.0
  0
ARC
  5
48D
100
AcDbEntity
  8
03___PRT_ALL_CURVES
100
AcDbCircle
 62
7
  6
CONTINUOUS
 10
884.0859375
 20
808.3359375
 40
8.0
100
AcDbArc
 50
270.0
 51
360.0
  0
ARC
  5
48E
100
AcDbEntity
  8
03___PRT_ALL_CURVES
100
AcDbCircle
 62
7
  6
CONTINUOUS
 10
884.0859375
 20
1222.3359375
 40
8.0
100
AcDbArc
 50
0.0
 51
90.0
  0
ARC
  5
48F
100
AcDbEntity
  8
03___PRT_ALL_CURVES
100
AcDbCircle
 62
7
  6
CONTINUOUS
 10
170.0859375
 20
1222.3359375
 40
8.0
100
AcDbArc
 50
90.0
 51
180.0
  0
ENDSEC
  0
SECTION
  2
OBJECTS
  0
DICTIONARY
  5
C
100
AcDbDictionary
280
0
281
1
  3
ACAD_GROUP
350
D
  3
ACAD_MLINESTYLE
350
17
  3
ACAD_LAYOUT
350
1A
  3
ACAD_PLOTSETTINGS
350
19
  3
ACAD_PLOTSTYLENAME
350
E
  0
DICTIONARY
  5
D
102
{ACAD_REACTORS
330
C
102
}
100
AcDbDictionary
280
0
281
1
  0
ACDBDICTIONARYWDFLT
  5
E
102
{ACAD_REACTORS
330
C
102
}
100
AcDbDictionary
281
1
  3
Normal
350
F
100
AcDbDictionaryWithDefault
340
F
  0
DICTIONARY
  5
17
102
{ACAD_REACTORS
330
C
102
}
100
AcDbDictionary
280
0
281
1
  3
Standard
350
18
  0
DICTIONARY
  5
19
102
{ACAD_REACTORS
330
C
102
}
100
AcDbDictionary
281
1
  0
DICTIONARY
  5
1A
102
{ACAD_REACTORS
330
C
102
}
100
AcDbDictionary
281
1
  3
Model
350
490
  3
Layout1
350
491
  0
ACDBPLACEHOLDER
  5
F
102
{ACAD_REACTORS
330
E
102
}
  0
MLINESTYLE
  5
18
102
{ACAD_REACTORS
330
17
102
}
100
AcDbMlineStyle
  2
STANDARD
 70
0
  3

 62
256
 51
90.0
 52
90.0
 71
2
 49
0.5
 62
256
  6
BYLAYER
 49
-0.5
 62
256
  6
BYLAYER
  0
LAYOUT
  5
490
102
{ACAD_REACTORS
330
1A
102
}
100
AcDbPlotSettings
  1

  2
none_device
  4

  6

 40
0.0
 41
0.0
 42
0.0
 43
0.0
 44
210.0
 45
297.0
 46
0.0
 47
0.0
 48
0.0
 49
0.0
140
0.0
141
0.0
142
1.0
143
1.0
 70
1024
 72
1
 73
0
 74
0
  7

 75
0
147
1.0
148
0.0
149
0.0
100
AcDbLayout
  1
Model
 70
0
 71
0
 10
0.0
 20
0.0
 11
210.0
 21
297.0
 12
0.0
 22
0.0
 32
0.0
 14
0.0
 24
0.0
 34
0.0
 15
0.0
 25
0.0
 35
0.0
146
0.0
 13
0.0
 23
0.0
 33
0.0
 16
1.0
 26
0.0
 36
0.0
 17
0.0
 27
1.0
 37
0.0
 76
0
330
216
345
0
346
0
  0
LAYOUT
  5
491
102
{ACAD_REACTORS
330
1A
102
}
100
AcDbPlotSettings
  1

  2
none_device
  4

  6

 40
0.0
 41
0.0
 42
0.0
 43
0.0
 44
210.0
 45
297.0
 46
0.0
 47
0.0
 48
0.0
 49
0.0
140
0.0
141
0.0
142
1.0
143
1.0
 70
0
 72
1
 73
0
 74
0
  7

 75
0
147
1.0
148
0.0
149
0.0
100
AcDbLayout
  1
Layout1
 70
0
 71
1
 10
0.0
 20
0.0
 11
210.0
 21
297.0
 12
0.0
 22
0.0
 32
0.0
 14
0.0
 24
0.0
 34
0.0
 15
0.0
 25
0.0
 35
0.0
146
0.0
 13
0.0
 23
0.0
 33
0.0
 16
1.0
 26
0.0
 36
0.0
 17
0.0
 27
1.0
 37
0.0
 76
0
330
217
345
0
346
0
  0
ENDSEC
  0
EOF
