999
DXF file: 1135199-izrez-440x470-r10.dxf
999
Pro/ENGINEER 2017170 by Parametric Technology Corporation
  0
SECTION
  2
HEADER
  9
$ACADVER
  1
AC1018
  9
$DWGCODEPAGE
  3
ANSI_1250
  9
$EXTMAX
 10
1050.0
 20
1485.0
 30
0.0
  9
$EXTMIN
 10
0.0
 20
0.0
 30
0.0
  9
$LIMMIN
 10
0.0
 20
0.0
  9
$LIMMAX
 10
1050.0
 20
1485.0
  9
$VIEWCTR
 10
525.0
 20
742.5
  9
$VIEWSIZE
 40
1485.0
  9
$CLAYER
  8
0
  9
$LTSCALE
 40
96.8
  9
$CELTYPE
  6
BYLAYER
  9
$DIMSCALE
 40
1.0
  9
$DIMASZ
 40
17.5
  9
$DIMEXO
 40
0.0
  9
$DIMDLI
 40
66.88
  9
$DIMEXE
 40
1.0
  9
$DIMCEN
 40
15.84
  9
$DIMLFAC
 40
1.0
  9
$DIMBLK
  1
_FILLED
  9
$DIMALT
 70
0
  9
$DIMALTF
 40
25.4
  9
$DIMTXT
 40
17.5
  9
$DIMTOL
 70
1
  9
$DIMLIM
 70
0
  9
$DIMTFAC
 40
1.0
  9
$DIMTP
 40
0.005
  9
$DIMTM
 40
0.005
  9
$DIMGAP
 40
0.625
  9
$DIMDSEP
 70
46
  9
$AUNITS
 70
0
  9
$PDMODE
 70
3
  9
$PDSIZE
 40
1.0
  9
$HANDSEED
  5
41C
  9
$TILEMODE
 70
1
  9
$MEASUREMENT
 70
1
  9
$INSUNITS
 70
4
  0
ENDSEC
  0
SECTION
  2
CLASSES
  0
CLASS
  1
ACDBDICTIONARYWDFLT
  2
AcDbDictionaryWithDefault
  3
AutoCAD 2000
 90
0
 91
1
280
0
281
0
  0
CLASS
  1
ACDBPLACEHOLDER
  2
AcDbPlaceHolder
  3
AutoCAD 2000
 90
0
 91
1
280
0
281
0
  0
CLASS
  1
LAYOUT
  2
AcDbLayout
  3
AutoCAD 2000
 90
0
 91
0
280
0
281
0
  0
ENDSEC
  0
SECTION
  2
TABLES
  0
TABLE
  2
VPORT
  5
8
100
AcDbSymbolTable
 70
2
  0
VPORT
  5
1F4
100
AcDbSymbolTableRecord
100
AcDbViewportTableRecord
  2
*ACTIVE
 70
0
 10
0.0
 20
0.0
 11
1.0
 21
1.0
 12
525.0
 22
742.5
 13
0.0
 23
0.0
 14
1.0
 24
1.0
 15
0.0
 25
0.0
 16
0.0
 26
0.0
 36
1.0
 17
0.0
 27
0.0
 37
0.0
 40
1485.0
 41
0.7070707071
 42
50.0
 43
0.0
 44
0.0
 50
0.0
 51
0.0
 71
0
 72
100
 73
1
 74
1
 75
0
 76
0
 77
0
 78
0
  0
ENDTAB
  0
TABLE
  2
LTYPE
  5
5
100
AcDbSymbolTable
 70
6
  0
LTYPE
  5
14
100
AcDbSymbolTableRecord
100
AcDbLinetypeTableRecord
  2
BYBLOCK
 70
0
  3

 72
65
 73
0
 40
0.0
  0
LTYPE
  5
15
100
AcDbSymbolTableRecord
100
AcDbLinetypeTableRecord
  2
BYLAYER
 70
0
  3

 72
65
 73
0
 40
0.0
  0
LTYPE
  5
16
100
AcDbSymbolTableRecord
100
AcDbLinetypeTableRecord
  2
CONTINUOUS
 70
64
  3
Solid line
 72
65
 73
0
 40
0.0
  0
LTYPE
  5
1F5
100
AcDbSymbolTableRecord
100
AcDbLinetypeTableRecord
  2
CENTER
 70
64
  3
____ _ ____ _ ____ _ ____ _ ____ _ ____ _ ____
 72
65
 73
4
 40
0.6
 49
0.375
 74
0
 49
-0.075
 74
0
 49
0.075
 74
0
 49
-0.075
 74
0
  0
LTYPE
  5
1F6
100
AcDbSymbolTableRecord
100
AcDbLinetypeTableRecord
  2
HIDDEN
 70
64
  3
- - - - - - - - - - - - - - - - - - - -
 72
65
 73
2
 40
0.2
 49
0.1
 74
0
 49
-0.1
 74
0
  0
LTYPE
  5
1F7
100
AcDbSymbolTableRecord
100
AcDbLinetypeTableRecord
  2
PHANTOM
 70
64
  3
_____ _ _ _____ _ _ _____ _ _ _____
 72
65
 73
6
 40
0.8
 49
0.45
 74
0
 49
-0.05
 74
0
 49
0.1
 74
0
 49
-0.05
 74
0
 49
0.1
 74
0
 49
-0.05
 74
0
  0
LTYPE
  5
1F8
100
AcDbSymbolTableRecord
100
AcDbLinetypeTableRecord
  2
DOT
 70
64
  3
. . . . . . . . . . . . . . . . . . . .
 72
65
 73
2
 40
0.2
 49
0.1
 74
0
 49
-0.1
 74
0
  0
LTYPE
  5
1F9
100
AcDbSymbolTableRecord
100
AcDbLinetypeTableRecord
  2
DASHED
 70
64
  3
- - - - - - - - - - - - - - - - - - - -
 72
65
 73
2
 40
0.2
 49
0.1
 74
0
 49
-0.1
 74
0
  0
ENDTAB
  0
TABLE
  2
LAYER
  5
2
100
AcDbSymbolTable
 70
36
  0
LAYER
  5
10
100
AcDbSymbolTableRecord
100
AcDbLayerTableRecord
  2
0
 70
0
 62
7
  6
CONTINUOUS
370
-3
390
F
  0
LAYER
  5
1FA
100
AcDbSymbolTableRecord
100
AcDbLayerTableRecord
  2
DEFAULT_1
 70
0
 62
7
  6
CENTER
370
-3
390
F
  0
LAYER
  5
1FB
100
AcDbSymbolTableRecord
100
AcDbLayerTableRecord
  2
DEFAULT_2
 70
0
 62
8
  6
HIDDEN
370
-3
390
F
  0
LAYER
  5
1FC
100
AcDbSymbolTableRecord
100
AcDbLayerTableRecord
  2
DEFAULT_3
 70
0
 62
7
  6
PHANTOM
370
-3
390
F
  0
LAYER
  5
1FD
100
AcDbSymbolTableRecord
100
AcDbLayerTableRecord
  2
01___PRT_ALL_DTM_PLN
 70
0
 62
7
  6
CONTINUOUS
370
-3
390
F
  0
LAYER
  5
1FE
100
AcDbSymbolTableRecord
100
AcDbLayerTableRecord
  2
01___PRT_DEF_DTM_PLN
 70
0
 62
7
  6
CONTINUOUS
370
-3
390
F
  0
LAYER
  5
1FF
100
AcDbSymbolTableRecord
100
AcDbLayerTableRecord
  2
02___PRT_ALL_AXES
 70
0
 62
7
  6
CONTINUOUS
370
-3
390
F
  0
LAYER
  5
200
100
AcDbSymbolTableRecord
100
AcDbLayerTableRecord
  2
03___PRT_ALL_CURVES
 70
0
 62
7
  6
CONTINUOUS
370
-3
390
F
  0
LAYER
  5
201
100
AcDbSymbolTableRecord
100
AcDbLayerTableRecord
  2
04___PRT_ALL_DTM_PNT
 70
0
 62
7
  6
CONTINUOUS
370
-3
390
F
  0
LAYER
  5
202
100
AcDbSymbolTableRecord
100
AcDbLayerTableRecord
  2
05___PRT_ALL_DTM_CSYS
 70
0
 62
7
  6
CONTINUOUS
370
-3
390
F
  0
LAYER
  5
203
100
AcDbSymbolTableRecord
100
AcDbLayerTableRecord
  2
05___PRT_DEF_DTM_CSYS
 70
0
 62
7
  6
CONTINUOUS
370
-3
390
F
  0
LAYER
  5
204
100
AcDbSymbolTableRecord
100
AcDbLayerTableRecord
  2
06___PRT_ALL_SURFS
 70
0
 62
7
  6
CONTINUOUS
370
-3
390
F
  0
LAYER
  5
205
100
AcDbSymbolTableRecord
100
AcDbLayerTableRecord
  2
ALL_AXIS
 70
0
 62
7
  6
CONTINUOUS
370
-3
390
F
  0
LAYER
  5
206
100
AcDbSymbolTableRecord
100
AcDbLayerTableRecord
  2
ALL_CURVE
 70
0
 62
7
  6
CONTINUOUS
370
-3
390
F
  0
LAYER
  5
207
100
AcDbSymbolTableRecord
100
AcDbLayerTableRecord
  2
ALL_CURVE_ENT
 70
0
 62
7
  6
CONTINUOUS
370
-3
390
F
  0
LAYER
  5
208
100
AcDbSymbolTableRecord
100
AcDbLayerTableRecord
  2
ALL_DETAIL_ITEM
 70
0
 62
7
  6
CONTINUOUS
370
-3
390
F
  0
LAYER
  5
209
100
AcDbSymbolTableRecord
100
AcDbLayerTableRecord
  2
ALL_DIM
 70
0
 62
7
  6
CONTINUOUS
370
-3
390
F
  0
LAYER
  5
20A
100
AcDbSymbolTableRecord
100
AcDbLayerTableRecord
  2
ALL_FEATURE
 70
0
 62
7
  6
CONTINUOUS
370
-3
390
F
  0
LAYER
  5
20B
100
AcDbSymbolTableRecord
100
AcDbLayerTableRecord
  2
ALL_GEOM_FEAT
 70
0
 62
7
  6
CONTINUOUS
370
-3
390
F
  0
LAYER
  5
20C
100
AcDbSymbolTableRecord
100
AcDbLayerTableRecord
  2
ALL_NOGEOM_FEAT
 70
0
 62
7
  6
CONTINUOUS
370
-3
390
F
  0
LAYER
  5
20D
100
AcDbSymbolTableRecord
100
AcDbLayerTableRecord
  2
ALL_NOTE
 70
0
 62
7
  6
CONTINUOUS
370
-3
390
F
  0
LAYER
  5
20E
100
AcDbSymbolTableRecord
100
AcDbLayerTableRecord
  2
ALL_PARAMETER_DIM
 70
0
 62
7
  6
CONTINUOUS
370
-3
390
F
  0
LAYER
  5
20F
100
AcDbSymbolTableRecord
100
AcDbLayerTableRecord
  2
ALL_PROTRUSION_FEAT
 70
0
 62
7
  6
CONTINUOUS
370
-3
390
F
  0
LAYER
  5
210
100
AcDbSymbolTableRecord
100
AcDbLayerTableRecord
  2
ALL_SNAP_LINE
 70
0
 62
7
  6
CONTINUOUS
370
-3
390
F
  0
LAYER
  5
211
100
AcDbSymbolTableRecord
100
AcDbLayerTableRecord
  2
ALL_SYMBOL
 70
0
 62
7
  6
CONTINUOUS
370
-3
390
F
  0
ENDTAB
  0
TABLE
  2
STYLE
  5
3
100
AcDbSymbolTable
 70
1
  0
STYLE
  5
11
100
AcDbSymbolTableRecord
100
AcDbTextStyleTableRecord
  2
STANDARD
 70
0
 40
0.0
 41
0.6
 50
0.0
 71
0
 42
0.2
  3
txt
  4

  0
STYLE
  5
212
100
AcDbSymbolTableRecord
100
AcDbTextStyleTableRecord
  2
TEXTSTYLE_1
 70
0
 40
0.0
 41
0.8
 50
0.0
 71
0
 42
0.2
  3
gdt
  4

  0
STYLE
  5
213
100
AcDbSymbolTableRecord
100
AcDbTextStyleTableRecord
  2
TEXTSTYLE_2
 70
0
 40
0.0
 41
0.7619047619
 50
0.0
 71
0
 42
0.2
  3
txt
  4

  0
ENDTAB
  0
TABLE
  2
VIEW
  5
6
100
AcDbSymbolTable
 70
0
  0
ENDTAB
  0
TABLE
  2
UCS
  5
7
100
AcDbSymbolTable
 70
0
  0
ENDTAB
  0
TABLE
  2
APPID
  5
9
100
AcDbSymbolTable
 70
1
  0
APPID
  5
214
100
AcDbSymbolTableRecord
100
AcDbRegAppTableRecord
  2
ACAD
 70
0
  0
ENDTAB
  0
TABLE
  2
BLOCK_RECORD
  5
1
100
AcDbSymbolTable
 70
0
  0
BLOCK_RECORD
  5
215
100
AcDbSymbolTableRecord
100
AcDbBlockTableRecord
  2
*Model_Space
  0
BLOCK_RECORD
  5
216
100
AcDbSymbolTableRecord
100
AcDbBlockTableRecord
  2
*Paper_Space
  0
BLOCK_RECORD
  5
217
100
AcDbSymbolTableRecord
100
AcDbBlockTableRecord
  2
_FILLED
  0
BLOCK_RECORD
  5
218
100
AcDbSymbolTableRecord
100
AcDbBlockTableRecord
  2
_DOTBLANK
  0
BLOCK_RECORD
  5
219
100
AcDbSymbolTableRecord
100
AcDbBlockTableRecord
  2
*D0
  0
BLOCK_RECORD
  5
21A
100
AcDbSymbolTableRecord
100
AcDbBlockTableRecord
  2
*D1
  0
BLOCK_RECORD
  5
21B
100
AcDbSymbolTableRecord
100
AcDbBlockTableRecord
  2
*D2
  0
BLOCK_RECORD
  5
21C
100
AcDbSymbolTableRecord
100
AcDbBlockTableRecord
  2
POZ_FS_B2B_BL2
  0
BLOCK_RECORD
  5
21D
100
AcDbSymbolTableRecord
100
AcDbBlockTableRecord
  2
STEKLO_B2B_BL1
  0
BLOCK_RECORD
  5
21E
100
AcDbSymbolTableRecord
100
AcDbBlockTableRecord
  2
B2B_NASLOV_RISBE_BL0
  0
ENDTAB
  0
TABLE
  2
DIMSTYLE
  5
A
100
AcDbSymbolTable
 70
1
100
AcDbDimStyleTable
 71
0
  0
DIMSTYLE
105
21F
100
AcDbSymbolTableRecord
100
AcDbDimStyleTableRecord
  2
STANDARD
 70
0
  3

  4

 40
1.0
 41
17.5
 42
0.0
 43
0.38
 44
1.0
 45
0.0
 46
0.0
 47
0.005
 48
0.005
140
17.5
141
0.09
142
0.0
143
25.4
144
1.0
145
0.0
146
1.0
147
0.625
 71
1.0
 72
0.0
 73
0
 74
0
 75
0
 76
0
 77
1
 78
8
 79
2
170
0
171
2
172
0
173
0
174
0
175
0
176
0
177
0
178
5
270
2
179
3
271
3
272
3
273
2
274
2
275
0
280
0
281
0
282
0
283
1
284
8
285
0
286
0
287
3
288
0
340
11
278
46
341
217
342
217
343
217
344
217
  0
DIMSTYLE
105
220
100
AcDbSymbolTableRecord
100
AcDbDimStyleTableRecord
  2
DIMSTYLE_1
 70
0
  3
<>
  4

 40
1.0
 41
17.5
 42
0.0
 43
0.38
 44
1.0
 45
0.0
 46
0.0
 47
0.2
 48
0.2
140
17.5
141
0.09
142
0.0
143
25.4
144
1.0
145
0.0
146
1.0
147
0.625
 71
0.0
 72
0.0
 73
0
 74
0
 75
0
 76
0
 77
1
 78
8
 79
2
170
0
171
2
172
0
173
0
174
0
175
0
176
0
177
0
178
5
270
2
179
3
271
3
272
3
273
2
274
2
275
0
280
0
281
0
282
0
283
1
284
8
285
0
286
0
287
3
288
0
340
11
278
46
341
217
342
217
343
217
344
217
  0
DIMSTYLE
105
221
100
AcDbSymbolTableRecord
100
AcDbDimStyleTableRecord
  2
DIMSTYLE_2
 70
0
  3

  4

 40
1.0
 41
17.5
 42
0.0
 43
0.38
 44
1.0
 45
0.0
 46
0.0
 47
2.0
 48
0.0
140
17.5
141
0.09
142
0.0
143
25.4
144
1.0
145
0.0
146
0.6
147
0.875
 71
1.0
 72
0.0
 73
0
 74
0
 75
0
 76
0
 77
1
 78
8
 79
2
170
0
171
2
172
0
173
0
174
0
175
0
176
0
177
0
178
5
270
2
179
3
271
3
272
3
273
2
274
2
275
0
280
0
281
0
282
0
283
1
284
8
285
0
286
0
287
3
288
0
340
11
278
46
341
217
342
217
343
217
344
217
  0
ENDTAB
  0
ENDSEC
  0
SECTION
  2
BLOCKS
  0
BLOCK
  5
20
100
AcDbEntity
  8
0
100
AcDbBlockBegin
  2
*Model_Space
 70
0
 10
0.0
 20
0.0
 30
0.0
  3
*Model_Space
  1

  0
ENDBLK
  5
21
100
AcDbEntity
  8
0
100
AcDbBlockEnd
  0
BLOCK
  5
1C
100
AcDbEntity
  8
0
100
AcDbBlockBegin
  2
*Paper_Space
 70
0
 10
0.0
 20
0.0
 30
0.0
  3
*Paper_Space
  1

  0
ENDBLK
  5
1D
100
AcDbEntity
  8
0
100
AcDbBlockEnd
  0
BLOCK
  5
222
100
AcDbEntity
  8
ALL_DETAIL_ITEM
100
AcDbBlockBegin
 62
2
  6
CONTINUOUS
  2
POZ_FS_B2B_BL2
 70
64
 10
779.9332186719
 20
1142.4052796898
  3
POZ_FS_B2B_BL2
  1

  0
TEXT
  5
223
100
AcDbEntity
  8
ALL_DETAIL_ITEM
100
AcDbText
 62
5
  6
CONTINUOUS
 10
771.3713596241
 20
1130.3081276898
  7
TEXTSTYLE_2
 40
25.0
  1
1
 41
0.7619047619
 72
0
100
AcDbText
  0
CIRCLE
  5
224
100
AcDbEntity
  8
ALL_DETAIL_ITEM
100
AcDbCircle
 62
2
  6
CONTINUOUS
 10
779.9332186719
 20
1142.4052796898
 40
23.2719072507
  0
ENDBLK
  5
225
100
AcDbEntity
  8
0
  6
BYBLOCK
 62
0
100
AcDbBlockEnd
  0
BLOCK
  5
226
100
AcDbEntity
  8
ALL_DETAIL_ITEM
100
AcDbBlockBegin
 62
2
  6
CONTINUOUS
  2
STEKLO_B2B_BL1
 70
64
 10
342.3859460627
 20
438.0606055365
  3
STEKLO_B2B_BL1
  1

  0
TEXT
  5
227
100
AcDbEntity
  8
ALL_DETAIL_ITEM
100
AcDbText
 62
5
  6
CONTINUOUS
 10
274.2608825699
 20
589.9805035611
  7
TEXTSTYLE_2
 40
25.0
  1
1
 41
0.5714285714
 72
0
100
AcDbText
  0
CIRCLE
  5
228
100
AcDbEntity
  8
ALL_DETAIL_ITEM
100
AcDbCircle
 62
2
  6
CONTINUOUS
 10
280.0265389512
 20
602.0776555611
 40
23.2719072505
  0
LINE
  5
229
100
AcDbEntity
  8
ALL_DETAIL_ITEM
100
AcDbLine
 62
2
  6
CONTINUOUS
 10
356.9335236252
 20
438.1848478476
 11
289.704360558
 21
580.9135467396
  0
CIRCLE
  5
22A
100
AcDbEntity
  8
ALL_DETAIL_ITEM
100
AcDbCircle
 62
2
  6
CONTINUOUS
 10
356.9334335157
 20
438.1907419704
 40
1.9328519331
  0
LINE
  5
22B
100
AcDbEntity
  8
ALL_DETAIL_ITEM
100
AcDbLine
 62
9
  6
CONTINUOUS
 10
306.9213541667
 20
494.6238746884
 11
306.9213541667
 21
349.6238746884
  0
LINE
  5
22C
100
AcDbEntity
  8
ALL_DETAIL_ITEM
100
AcDbLine
 62
9
  6
CONTINUOUS
 10
247.9140976862
 20
484.8856607849
 11
187.2141377697
 21
484.8856607849
  0
LINE
  5
22D
100
AcDbEntity
  8
ALL_DETAIL_ITEM
100
AcDbLine
 62
2
  6
CONTINUOUS
 10
261.9213541667
 20
349.1238746884
 11
361.9213541667
 21
349.1238746884
  0
LINE
  5
22E
100
AcDbEntity
  8
ALL_DETAIL_ITEM
100
AcDbLine
 62
2
  6
CONTINUOUS
 10
361.9213541667
 20
349.1238746884
 11
361.9213541667
 21
250.7716482614
  0
SPLINE
  5
22F
100
AcDbEntity
  8
ALL_DETAIL_ITEM
100
AcDbSpline
 62
2
  6
CONTINUOUS
 70
0
 71
3
 72
11
 73
7
 74
0
 42
0.0000001
 43
0.0000001
 44
0.0000000001
 40
0.0
 40
0.0
 40
0.0
 40
0.0
 40
0.25
 40
0.5
 40
0.75
 40
1.0
 40
1.0
 40
1.0
 40
1.0
 10
361.9213541667
 20
250.7716482614
 30
0.0
 10
358.4975148247
 20
251.1283618099
 30
0.0
 10
351.1968780117
 20
252.0171698934
 30
0.0
 10
338.8185376897
 20
253.9181441124
 30
0.0
 10
325.2183444137
 20
256.2620230269
 30
0.0
 10
315.2836754977
 20
257.8539197919
 30
0.0
 10
310.1038147537
 20
258.6793591284
 30
0.0
  0
SPLINE
  5
230
100
AcDbEntity
  8
ALL_DETAIL_ITEM
100
AcDbSpline
 62
2
  6
CONTINUOUS
 70
0
 71
3
 72
11
 73
7
 74
0
 42
0.0000001
 43
0.0000001
 44
0.0000000001
 40
0.0
 40
0.0
 40
0.0
 40
0.0
 40
0.25
 40
0.5
 40
0.75
 40
1.0
 40
1.0
 40
1.0
 40
1.0
 10
310.1038147537
 20
258.6793591284
 30
0.0
 10
305.1280478887
 20
259.3733477834
 30
0.0
 10
295.6781222687
 20
260.6902499944
 30
0.0
 10
283.1403264862
 20
262.3227852379
 30
0.0
 10
271.8428184072
 20
264.0012807309
 30
0.0
 10
265.0954297342
 20
265.2210301409
 30
0.0
 10
261.9213541667
 20
265.8502502624
 30
0.0
  0
LINE
  5
231
100
AcDbEntity
  8
ALL_DETAIL_ITEM
100
AcDbLine
 62
2
  6
CONTINUOUS
 10
261.9213541667
 20
265.8502502624
 11
261.9213541667
 21
349.1238746884
  0
LINE
  5
232
100
AcDbEntity
  8
ALL_DETAIL_ITEM
100
AcDbLine
 62
2
  6
CONTINUOUS
 10
356.9213541667
 20
499.6238746884
 11
506.2113911277
 21
499.6238746884
  0
SPLINE
  5
233
100
AcDbEntity
  8
ALL_DETAIL_ITEM
100
AcDbSpline
 62
2
  6
CONTINUOUS
 70
0
 71
3
 72
31
 73
27
 74
0
 42
0.0000001
 43
0.0000001
 44
0.0000000001
 40
0.0
 40
0.0
 40
0.0
 40
0.0
 40
0.0416666667
 40
0.0833333333
 40
0.125
 40
0.1666666667
 40
0.2083333333
 40
0.25
 40
0.2916666667
 40
0.3333333333
 40
0.375
 40
0.4166666667
 40
0.4583333333
 40
0.5
 40
0.5416666667
 40
0.5833333333
 40
0.625
 40
0.6666666667
 40
0.7083333333
 40
0.75
 40
0.7916666667
 40
0.8333333333
 40
0.875
 40
0.9166666667
 40
0.9583333333
 40
1.0
 40
1.0
 40
1.0
 40
1.0
 10
506.2113911277
 20
499.6238746884
 30
0.0
 10
506.0909477227
 20
497.4339553869
 30
0.0
 10
505.8502649247
 20
493.0067134019
 30
0.0
 10
505.5242220467
 20
485.8180939454
 30
0.0
 10
505.1300526452
 20
479.2983570139
 30
0.0
 10
504.5595093792
 20
473.7735903259
 30
0.0
 10
503.7945685652
 20
468.9251555234
 30
0.0
 10
502.8712710882
 20
464.7731073254
 30
0.0
 10
501.8028285672
 20
461.1125925309
 30
0.0
 10
500.4212546207
 20
457.2492150214
 30
0.0
 10
498.7381647927
 20
452.9184164739
 30
0.0
 10
497.2040025897
 20
448.7732321954
 30
0.0
 10
496.1171839112
 20
445.2150274219
 30
0.0
 10
495.3602375142
 20
441.8929497029
 30
0.0
 10
494.7781149187
 20
438.2823040069
 30
0.0
 10
494.4048657982
 20
434.2997087994
 30
0.0
 10
494.2684445737
 20
429.7848703159
 30
0.0
 10
494.4306295987
 20
424.5082464709
 30
0.0
 10
494.9597778087
 20
418.3753894879
 30
0.0
 10
495.8686965932
 20
411.2803581589
 30
0.0
 10
497.1801203047
 20
403.1325600299
 30
0.0
 10
498.9206554307
 20
393.8381173694
 30
0.0
 10
501.0210650637
 20
383.5485385524
 30
0.0
 10
503.4458325947
 20
371.9257506729
 30
0.0
 10
505.8016624827
 20
359.8989678489
 30
0.0
 10
506.9514718632
 20
352.9455929294
 30
0.0
 10
507.4524227047
 20
349.6238746884
 30
0.0
  0
LINE
  5
234
100
AcDbEntity
  8
ALL_DETAIL_ITEM
100
AcDbLine
 62
2
  6
CONTINUOUS
 10
507.4524227047
 20
349.6238746884
 11
356.9213541667
 21
349.6238746884
  0
LINE
  5
235
100
AcDbEntity
  8
ALL_DETAIL_ITEM
100
AcDbLine
 62
2
  6
CONTINUOUS
 10
356.9213541667
 20
349.6238746884
 11
356.9213541667
 21
499.6238746884
  0
LINE
  5
236
100
AcDbEntity
  8
ALL_DETAIL_ITEM
100
AcDbLine
 62
2
  6
CONTINUOUS
 10
488.9201029227
 20
349.6238746884
 11
504.7081188259
 21
365.4118905916
  0
LINE
  5
237
100
AcDbEntity
  8
ALL_DETAIL_ITEM
100
AcDbLine
 62
2
  6
CONTINUOUS
 10
467.7068994867
 20
349.6238746884
 11
501.1324132378
 21
383.0493884395
  0
LINE
  5
238
100
AcDbEntity
  8
ALL_DETAIL_ITEM
100
AcDbLine
 62
2
  6
CONTINUOUS
 10
349.2335264462
 20
252.3637050839
 11
361.9213541667
 21
265.0515328044
  0
LINE
  5
239
100
AcDbEntity
  8
ALL_DETAIL_ITEM
100
AcDbLine
 62
2
  6
CONTINUOUS
 10
446.4936960507
 20
349.6238746884
 11
497.6441539976
 21
400.7743326353
  0
LINE
  5
23A
100
AcDbEntity
  8
ALL_DETAIL_ITEM
100
AcDbLine
 62
2
  6
CONTINUOUS
 10
330.9306289706
 20
255.2740110443
 11
361.9213541667
 21
286.2647362404
  0
LINE
  5
23B
100
AcDbEntity
  8
ALL_DETAIL_ITEM
100
AcDbLine
 62
2
  6
CONTINUOUS
 10
425.2804926147
 20
349.6238746884
 11
494.9315206117
 21
419.2749026854
  0
LINE
  5
23C
100
AcDbEntity
  8
ALL_DETAIL_ITEM
100
AcDbLine
 62
2
  6
CONTINUOUS
 10
312.7060009651
 20
258.2625864748
 11
361.9213541667
 21
307.4779396764
  0
LINE
  5
23D
100
AcDbEntity
  8
ALL_DETAIL_ITEM
100
AcDbLine
 62
2
  6
CONTINUOUS
 10
404.0672891787
 20
349.6238746884
 11
495.2193782258
 21
440.7759637355
  0
LINE
  5
23E
100
AcDbEntity
  8
ALL_DETAIL_ITEM
100
AcDbLine
 62
2
  6
CONTINUOUS
 10
294.1099925798
 20
260.8797815255
 11
361.9213541667
 21
328.6911431124
  0
LINE
  5
23F
100
AcDbEntity
  8
ALL_DETAIL_ITEM
100
AcDbLine
 62
2
  6
CONTINUOUS
 10
382.8540857427
 20
349.6238746884
 11
504.0461705213
 21
470.8159594669
  0
LINE
  5
240
100
AcDbEntity
  8
ALL_DETAIL_ITEM
100
AcDbLine
 62
2
  6
CONTINUOUS
 10
275.5020541258
 20
263.4850465075
 11
361.1408823067
 21
349.1238746884
  0
LINE
  5
241
100
AcDbEntity
  8
ALL_DETAIL_ITEM
100
AcDbLine
 62
2
  6
CONTINUOUS
 10
361.6408823067
 20
349.6238746884
 11
505.9077505774
 21
493.8907429591
  0
LINE
  5
242
100
AcDbEntity
  8
ALL_DETAIL_ITEM
100
AcDbLine
 62
2
  6
CONTINUOUS
 10
261.9213541667
 20
271.1175499844
 11
339.9276788707
 21
349.1238746884
  0
LINE
  5
243
100
AcDbEntity
  8
ALL_DETAIL_ITEM
100
AcDbLine
 62
2
  6
CONTINUOUS
 10
356.9213541667
 20
366.1175499844
 11
490.4276788707
 21
499.6238746884
  0
LINE
  5
244
100
AcDbEntity
  8
ALL_DETAIL_ITEM
100
AcDbLine
 62
2
  6
CONTINUOUS
 10
261.9213541667
 20
292.3307534204
 11
318.7144754347
 21
349.1238746884
  0
LINE
  5
245
100
AcDbEntity
  8
ALL_DETAIL_ITEM
100
AcDbLine
 62
2
  6
CONTINUOUS
 10
356.9213541667
 20
387.3307534204
 11
469.2144754347
 21
499.6238746884
  0
LINE
  5
246
100
AcDbEntity
  8
ALL_DETAIL_ITEM
100
AcDbLine
 62
2
  6
CONTINUOUS
 10
261.9213541667
 20
313.5439568564
 11
297.5012719987
 21
349.1238746884
  0
LINE
  5
247
100
AcDbEntity
  8
ALL_DETAIL_ITEM
100
AcDbLine
 62
2
  6
CONTINUOUS
 10
356.9213541667
 20
408.5439568564
 11
448.0012719987
 21
499.6238746884
  0
LINE
  5
248
100
AcDbEntity
  8
ALL_DETAIL_ITEM
100
AcDbLine
 62
2
  6
CONTINUOUS
 10
261.9213541667
 20
334.7571602924
 11
276.2880685627
 21
349.1238746884
  0
LINE
  5
249
100
AcDbEntity
  8
ALL_DETAIL_ITEM
100
AcDbLine
 62
2
  6
CONTINUOUS
 10
356.9213541667
 20
429.7571602924
 11
426.7880685627
 21
499.6238746884
  0
LINE
  5
24A
100
AcDbEntity
  8
ALL_DETAIL_ITEM
100
AcDbLine
 62
2
  6
CONTINUOUS
 10
356.9213541667
 20
450.9703637284
 11
405.5748651267
 21
499.6238746884
  0
LINE
  5
24B
100
AcDbEntity
  8
ALL_DETAIL_ITEM
100
AcDbLine
 62
2
  6
CONTINUOUS
 10
356.9213541667
 20
472.1835671644
 11
384.3616616907
 21
499.6238746884
  0
LINE
  5
24C
100
AcDbEntity
  8
ALL_DETAIL_ITEM
100
AcDbLine
 62
2
  6
CONTINUOUS
 10
356.9213541667
 20
493.3967706004
 11
363.1484582547
 21
499.6238746884
  0
LINE
  5
24D
100
AcDbEntity
  8
ALL_DETAIL_ITEM
100
AcDbLine
 62
2
  6
CONTINUOUS
 10
505.5728953466
 20
487.1513424524
 11
493.1003631107
 21
499.6238746884
  0
LINE
  5
24E
100
AcDbEntity
  8
ALL_DETAIL_ITEM
100
AcDbLine
 62
2
  6
CONTINUOUS
 10
503.5340171969
 20
467.9770171661
 11
471.8871596747
 21
499.6238746884
  0
LINE
  5
24F
100
AcDbEntity
  8
ALL_DETAIL_ITEM
100
AcDbLine
 62
2
  6
CONTINUOUS
 10
498.3855208745
 20
451.9123100525
 11
450.6739562387
 21
499.6238746884
  0
LINE
  5
250
100
AcDbEntity
  8
ALL_DETAIL_ITEM
100
AcDbLine
 62
2
  6
CONTINUOUS
 10
494.4804803665
 20
434.6041471246
 11
429.4607528027
 21
499.6238746884
  0
LINE
  5
251
100
AcDbEntity
  8
ALL_DETAIL_ITEM
100
AcDbLine
 62
2
  6
CONTINUOUS
 10
495.8134349369
 20
412.0579891181
 11
408.2475493667
 21
499.6238746884
  0
LINE
  5
252
100
AcDbEntity
  8
ALL_DETAIL_ITEM
100
AcDbLine
 62
2
  6
CONTINUOUS
 10
500.493380845
 20
386.164839774
 11
387.0343459307
 21
499.6238746884
  0
LINE
  5
253
100
AcDbEntity
  8
ALL_DETAIL_ITEM
100
AcDbLine
 62
2
  6
CONTINUOUS
 10
505.7842899954
 20
359.6607271876
 11
365.8211424947
 21
499.6238746884
  0
LINE
  5
254
100
AcDbEntity
  8
ALL_DETAIL_ITEM
100
AcDbLine
 62
2
  6
CONTINUOUS
 10
494.6079390587
 20
349.6238746884
 11
356.9213541667
 21
487.3104595804
  0
LINE
  5
255
100
AcDbEntity
  8
ALL_DETAIL_ITEM
100
AcDbLine
 62
2
  6
CONTINUOUS
 10
473.3947356227
 20
349.6238746884
 11
356.9213541667
 21
466.0972561444
  0
LINE
  5
256
100
AcDbEntity
  8
ALL_DETAIL_ITEM
100
AcDbLine
 62
2
  6
CONTINUOUS
 10
452.1815321867
 20
349.6238746884
 11
356.9213541667
 21
444.8840527084
  0
LINE
  5
257
100
AcDbEntity
  8
ALL_DETAIL_ITEM
100
AcDbLine
 62
2
  6
CONTINUOUS
 10
430.9683287507
 20
349.6238746884
 11
356.9213541667
 21
423.6708492724
  0
LINE
  5
258
100
AcDbEntity
  8
ALL_DETAIL_ITEM
100
AcDbLine
 62
2
  6
CONTINUOUS
 10
409.7551253147
 20
349.6238746884
 11
356.9213541667
 21
402.4576458364
  0
LINE
  5
259
100
AcDbEntity
  8
ALL_DETAIL_ITEM
100
AcDbLine
 62
2
  6
CONTINUOUS
 10
388.5419218787
 20
349.6238746884
 11
356.9213541667
 21
381.2444424004
  0
LINE
  5
25A
100
AcDbEntity
  8
ALL_DETAIL_ITEM
100
AcDbLine
 62
2
  6
CONTINUOUS
 10
367.3287184427
 20
349.6238746884
 11
356.9213541667
 21
360.0312389644
  0
LINE
  5
25B
100
AcDbEntity
  8
ALL_DETAIL_ITEM
100
AcDbLine
 62
2
  6
CONTINUOUS
 10
361.9213541667
 20
333.8180355284
 11
346.6155150067
 21
349.1238746884
  0
LINE
  5
25C
100
AcDbEntity
  8
ALL_DETAIL_ITEM
100
AcDbLine
 62
2
  6
CONTINUOUS
 10
361.9213541667
 20
312.6048320924
 11
325.4023115707
 21
349.1238746884
  0
LINE
  5
25D
100
AcDbEntity
  8
ALL_DETAIL_ITEM
100
AcDbLine
 62
2
  6
CONTINUOUS
 10
361.9213541667
 20
291.3916286564
 11
304.1891081347
 21
349.1238746884
  0
LINE
  5
25E
100
AcDbEntity
  8
ALL_DETAIL_ITEM
100
AcDbLine
 62
2
  6
CONTINUOUS
 10
361.9213541667
 20
270.1784252204
 11
282.9759046987
 21
349.1238746884
  0
LINE
  5
25F
100
AcDbEntity
  8
ALL_DETAIL_ITEM
100
AcDbLine
 62
2
  6
CONTINUOUS
 10
359.8839271188
 20
251.0026488322
 11
261.9213541667
 21
348.9652217844
  0
LINE
  5
260
100
AcDbEntity
  8
ALL_DETAIL_ITEM
100
AcDbLine
 62
2
  6
CONTINUOUS
 10
335.0946547282
 20
254.5787177868
 11
261.9213541667
 21
327.7520183484
  0
LINE
  5
261
100
AcDbEntity
  8
ALL_DETAIL_ITEM
100
AcDbLine
 62
2
  6
CONTINUOUS
 10
309.7285352026
 20
258.7316338764
 11
261.9213541667
 21
306.5388149124
  0
LINE
  5
262
100
AcDbEntity
  8
ALL_DETAIL_ITEM
100
AcDbLine
 62
2
  6
CONTINUOUS
 10
285.1644595363
 20
262.0825061067
 11
261.9213541667
 21
285.3256114764
  0
LINE
  5
263
100
AcDbEntity
  8
ALL_DETAIL_ITEM
100
AcDbLine
 62
2
  6
CONTINUOUS
 10
473.1713541667
 20
499.6238746884
 11
258.1713541667
 21
499.6238746884
  0
LINE
  5
264
100
AcDbEntity
  8
ALL_DETAIL_ITEM
100
AcDbLine
 62
2
  6
CONTINUOUS
 10
258.1713541667
 20
499.6238746884
 11
253.1713541667
 21
504.6238746884
  0
LINE
  5
265
100
AcDbEntity
  8
ALL_DETAIL_ITEM
100
AcDbLine
 62
2
  6
CONTINUOUS
 10
253.1713541667
 20
504.6238746884
 11
253.1713541667
 21
534.6238746884
  0
LINE
  5
266
100
AcDbEntity
  8
ALL_DETAIL_ITEM
100
AcDbLine
 62
2
  6
CONTINUOUS
 10
253.1713541667
 20
534.6238746884
 11
258.1713541667
 21
539.6238746884
  0
LINE
  5
267
100
AcDbEntity
  8
ALL_DETAIL_ITEM
100
AcDbLine
 62
2
  6
CONTINUOUS
 10
258.1713541667
 20
539.6238746884
 11
448.1713541667
 21
539.6238746884
  0
LINE
  5
268
100
AcDbEntity
  8
ALL_DETAIL_ITEM
100
AcDbLine
 62
2
  6
CONTINUOUS
 10
448.1713541667
 20
539.6238746884
 11
478.1713541667
 21
524.6238746884
  0
LINE
  5
269
100
AcDbEntity
  8
ALL_DETAIL_ITEM
100
AcDbLine
 62
2
  6
CONTINUOUS
 10
478.1713541667
 20
524.6238746884
 11
478.1713541667
 21
504.6238746884
  0
LINE
  5
26A
100
AcDbEntity
  8
ALL_DETAIL_ITEM
100
AcDbLine
 62
2
  6
CONTINUOUS
 10
478.1713541667
 20
504.6238746884
 11
473.1713541667
 21
499.6238746884
  0
LINE
  5
26B
100
AcDbEntity
  8
ALL_DETAIL_ITEM
100
AcDbLine
 62
2
  6
CONTINUOUS
 10
469.2144754437
 20
499.6238746884
 11
478.1713541667
 21
508.5807534114
  0
LINE
  5
26C
100
AcDbEntity
  8
ALL_DETAIL_ITEM
100
AcDbLine
 62
2
  6
CONTINUOUS
 10
440.9302041967
 20
499.6238746884
 11
470.01058752
 21
528.7042580117
  0
LINE
  5
26D
100
AcDbEntity
  8
ALL_DETAIL_ITEM
100
AcDbLine
 62
2
  6
CONTINUOUS
 10
412.6459329497
 20
499.6238746884
 11
451.1544066887
 21
538.1323484274
  0
LINE
  5
26E
100
AcDbEntity
  8
ALL_DETAIL_ITEM
100
AcDbLine
 62
2
  6
CONTINUOUS
 10
384.3616617027
 20
499.6238746884
 11
424.3616617027
 21
539.6238746884
  0
LINE
  5
26F
100
AcDbEntity
  8
ALL_DETAIL_ITEM
100
AcDbLine
 62
2
  6
CONTINUOUS
 10
356.0773904557
 20
499.6238746884
 11
396.0773904557
 21
539.6238746884
  0
LINE
  5
270
100
AcDbEntity
  8
ALL_DETAIL_ITEM
100
AcDbLine
 62
2
  6
CONTINUOUS
 10
327.7931192087
 20
499.6238746884
 11
367.7931192087
 21
539.6238746884
  0
LINE
  5
271
100
AcDbEntity
  8
ALL_DETAIL_ITEM
100
AcDbLine
 62
2
  6
CONTINUOUS
 10
299.5088479617
 20
499.6238746884
 11
339.5088479617
 21
539.6238746884
  0
LINE
  5
272
100
AcDbEntity
  8
ALL_DETAIL_ITEM
100
AcDbLine
 62
2
  6
CONTINUOUS
 10
271.2245767147
 20
499.6238746884
 11
311.2245767147
 21
539.6238746884
  0
LINE
  5
273
100
AcDbEntity
  8
ALL_DETAIL_ITEM
100
AcDbLine
 62
2
  6
CONTINUOUS
 10
253.1713541667
 20
509.8549233874
 11
282.9403054677
 21
539.6238746884
  0
LINE
  5
274
100
AcDbEntity
  8
ALL_DETAIL_ITEM
100
AcDbLine
 62
2
  6
CONTINUOUS
 10
462.1434076317
 20
499.6238746884
 11
478.1713541667
 21
515.6518212234
  0
LINE
  5
275
100
AcDbEntity
  8
ALL_DETAIL_ITEM
100
AcDbLine
 62
2
  6
CONTINUOUS
 10
433.8591363847
 20
499.6238746884
 11
465.296542312
 21
531.0612806157
  0
LINE
  5
276
100
AcDbEntity
  8
ALL_DETAIL_ITEM
100
AcDbLine
 62
2
  6
CONTINUOUS
 10
405.5748651377
 20
499.6238746884
 11
445.5748651377
 21
539.6238746884
  0
LINE
  5
277
100
AcDbEntity
  8
ALL_DETAIL_ITEM
100
AcDbLine
 62
2
  6
CONTINUOUS
 10
377.2905938907
 20
499.6238746884
 11
417.2905938907
 21
539.6238746884
  0
LINE
  5
278
100
AcDbEntity
  8
ALL_DETAIL_ITEM
100
AcDbLine
 62
2
  6
CONTINUOUS
 10
349.0063226437
 20
499.6238746884
 11
389.0063226437
 21
539.6238746884
  0
LINE
  5
279
100
AcDbEntity
  8
ALL_DETAIL_ITEM
100
AcDbLine
 62
2
  6
CONTINUOUS
 10
320.7220513967
 20
499.6238746884
 11
360.7220513967
 21
539.6238746884
  0
LINE
  5
27A
100
AcDbEntity
  8
ALL_DETAIL_ITEM
100
AcDbLine
 62
2
  6
CONTINUOUS
 10
292.4377801497
 20
499.6238746884
 11
332.4377801497
 21
539.6238746884
  0
LINE
  5
27B
100
AcDbEntity
  8
ALL_DETAIL_ITEM
100
AcDbLine
 62
2
  6
CONTINUOUS
 10
264.1535089027
 20
499.6238746884
 11
304.1535089027
 21
539.6238746884
  0
LINE
  5
27C
100
AcDbEntity
  8
ALL_DETAIL_ITEM
100
AcDbLine
 62
2
  6
CONTINUOUS
 10
253.1713541667
 20
516.9259911994
 11
275.8692376557
 21
539.6238746884
  0
LINE
  5
27D
100
AcDbEntity
  8
ALL_DETAIL_ITEM
100
AcDbLine
 62
2
  6
CONTINUOUS
 10
252.9133361617
 20
484.7983987529
 11
249.1429361677
 21
268.7923277459
  0
ARC
  5
27E
100
AcDbEntity
  8
ALL_DETAIL_ITEM
100
AcDbCircle
 62
2
  6
CONTINUOUS
 10
297.7254409212
 20
451.6371935219
 40
189.189071325
100
AcDbArc
 50
253.5548526363
 51
255.1201214853
  0
LINE
  5
27F
100
AcDbEntity
  8
ALL_DETAIL_ITEM
100
AcDbLine
 62
2
  6
CONTINUOUS
 10
244.1665294452
 20
270.1876200579
 11
247.9140976862
 21
484.8856607849
  0
ARC
  5
280
100
AcDbEntity
  8
ALL_DETAIL_ITEM
100
AcDbCircle
 62
2
  6
CONTINUOUS
 10
262.9118131132
 20
484.6238746884
 40
15.0
100
AcDbArc
 50
90.0
 51
179.0
  0
LINE
  5
281
100
AcDbEntity
  8
ALL_DETAIL_ITEM
100
AcDbLine
 62
2
  6
CONTINUOUS
 10
262.9118131132
 20
499.6238746884
 11
346.9213541667
 21
499.6238746884
  0
LINE
  5
282
100
AcDbEntity
  8
ALL_DETAIL_ITEM
100
AcDbLine
 62
2
  6
CONTINUOUS
 10
346.9213541667
 20
499.6238746884
 11
346.9213541667
 21
494.6238746884
  0
LINE
  5
283
100
AcDbEntity
  8
ALL_DETAIL_ITEM
100
AcDbLine
 62
2
  6
CONTINUOUS
 10
346.9213541667
 20
494.6238746884
 11
262.9118131132
 21
494.6238746884
  0
ARC
  5
284
100
AcDbEntity
  8
ALL_DETAIL_ITEM
100
AcDbCircle
 62
2
  6
CONTINUOUS
 10
262.9118131132
 20
484.6238746884
 40
10.0
100
AcDbArc
 50
90.0
 51
179.0
  0
LINE
  5
285
100
AcDbEntity
  8
ALL_DETAIL_ITEM
100
AcDbLine
 62
2
  6
CONTINUOUS
 10
342.7120461247
 20
494.6238746884
 11
337.7120461247
 21
499.6238746884
  0
LINE
  5
286
100
AcDbEntity
  8
ALL_DETAIL_ITEM
100
AcDbLine
 62
2
  6
CONTINUOUS
 10
330.2493022357
 20
494.6238746884
 11
325.2493022357
 21
499.6238746884
  0
LINE
  5
287
100
AcDbEntity
  8
ALL_DETAIL_ITEM
100
AcDbLine
 62
2
  6
CONTINUOUS
 10
317.7865583467
 20
494.6238746884
 11
312.7865583467
 21
499.6238746884
  0
LINE
  5
288
100
AcDbEntity
  8
ALL_DETAIL_ITEM
100
AcDbLine
 62
2
  6
CONTINUOUS
 10
305.3238144577
 20
494.6238746884
 11
300.3238144577
 21
499.6238746884
  0
LINE
  5
289
100
AcDbEntity
  8
ALL_DETAIL_ITEM
100
AcDbLine
 62
2
  6
CONTINUOUS
 10
292.8610705687
 20
494.6238746884
 11
287.8610705687
 21
499.6238746884
  0
LINE
  5
28A
100
AcDbEntity
  8
ALL_DETAIL_ITEM
100
AcDbLine
 62
2
  6
CONTINUOUS
 10
280.3983266797
 20
494.6238746884
 11
275.3983266797
 21
499.6238746884
  0
LINE
  5
28B
100
AcDbEntity
  8
ALL_DETAIL_ITEM
100
AcDbLine
 62
2
  6
CONTINUOUS
 10
267.9355827907
 20
494.6238746884
 11
262.9355827907
 21
499.6238746884
  0
LINE
  5
28C
100
AcDbEntity
  8
ALL_DETAIL_ITEM
100
AcDbLine
 62
2
  6
CONTINUOUS
 10
257.2437509577
 20
492.8529626324
 11
253.6772020468
 21
496.4195115432
  0
LINE
  5
28D
100
AcDbEntity
  8
ALL_DETAIL_ITEM
100
AcDbLine
 62
2
  6
CONTINUOUS
 10
252.9120020518
 20
484.7219676492
 11
248.5936576144
 21
489.0403120866
  0
LINE
  5
28E
100
AcDbEntity
  8
ALL_DETAIL_ITEM
100
AcDbLine
 62
2
  6
CONTINUOUS
 10
252.6981960458
 20
472.4730297663
 11
247.7832255352
 21
477.3880002768
  0
LINE
  5
28F
100
AcDbEntity
  8
ALL_DETAIL_ITEM
100
AcDbLine
 62
2
  6
CONTINUOUS
 10
252.4843900397
 20
460.2240918833
 11
247.5694195291
 21
465.1390623939
  0
LINE
  5
290
100
AcDbEntity
  8
ALL_DETAIL_ITEM
100
AcDbLine
 62
2
  6
CONTINUOUS
 10
252.2705840337
 20
447.9751540003
 11
247.3556135231
 21
452.8901245109
  0
LINE
  5
291
100
AcDbEntity
  8
ALL_DETAIL_ITEM
100
AcDbLine
 62
2
  6
CONTINUOUS
 10
252.0567780277
 20
435.7262161174
 11
247.141807517
 21
440.641186628
  0
LINE
  5
292
100
AcDbEntity
  8
ALL_DETAIL_ITEM
100
AcDbLine
 62
2
  6
CONTINUOUS
 10
251.8429720216
 20
423.4772782344
 11
246.928001511
 21
428.392248745
  0
LINE
  5
293
100
AcDbEntity
  8
ALL_DETAIL_ITEM
100
AcDbLine
 62
2
  6
CONTINUOUS
 10
251.6291660156
 20
411.2283403514
 11
246.7141955049
 21
416.1433108621
  0
LINE
  5
294
100
AcDbEntity
  8
ALL_DETAIL_ITEM
100
AcDbLine
 62
2
  6
CONTINUOUS
 10
251.4153600096
 20
398.9794024685
 11
246.5003894989
 21
403.8943729791
  0
LINE
  5
295
100
AcDbEntity
  8
ALL_DETAIL_ITEM
100
AcDbLine
 62
2
  6
CONTINUOUS
 10
251.2015540035
 20
386.7304645855
 11
246.2865834928
 21
391.6454350962
  0
LINE
  5
296
100
AcDbEntity
  8
ALL_DETAIL_ITEM
100
AcDbLine
 62
2
  6
CONTINUOUS
 10
250.9877479975
 20
374.4815267025
 11
246.0727774868
 21
379.3964972132
  0
LINE
  5
297
100
AcDbEntity
  8
ALL_DETAIL_ITEM
100
AcDbLine
 62
2
  6
CONTINUOUS
 10
250.7739419915
 20
362.2325888195
 11
245.8589714807
 21
367.1475593303
  0
LINE
  5
298
100
AcDbEntity
  8
ALL_DETAIL_ITEM
100
AcDbLine
 62
2
  6
CONTINUOUS
 10
250.5601359854
 20
349.9836509366
 11
245.6451654747
 21
354.8986214473
  0
LINE
  5
299
100
AcDbEntity
  8
ALL_DETAIL_ITEM
100
AcDbLine
 62
2
  6
CONTINUOUS
 10
250.3463299794
 20
337.7347130536
 11
245.4313594686
 21
342.6496835644
  0
LINE
  5
29A
100
AcDbEntity
  8
ALL_DETAIL_ITEM
100
AcDbLine
 62
2
  6
CONTINUOUS
 10
250.1325239734
 20
325.4857751706
 11
245.2175534626
 21
330.4007456814
  0
LINE
  5
29B
100
AcDbEntity
  8
ALL_DETAIL_ITEM
100
AcDbLine
 62
2
  6
CONTINUOUS
 10
249.9187179674
 20
313.2368372877
 11
245.0037474565
 21
318.1518077985
  0
LINE
  5
29C
100
AcDbEntity
  8
ALL_DETAIL_ITEM
100
AcDbLine
 62
2
  6
CONTINUOUS
 10
249.7049119613
 20
300.9878994047
 11
244.7899414505
 21
305.9028699155
  0
LINE
  5
29D
100
AcDbEntity
  8
ALL_DETAIL_ITEM
100
AcDbLine
 62
2
  6
CONTINUOUS
 10
249.4911059553
 20
288.7389615217
 11
244.5761354444
 21
293.6539320326
  0
LINE
  5
29E
100
AcDbEntity
  8
ALL_DETAIL_ITEM
100
AcDbLine
 62
2
  6
CONTINUOUS
 10
249.2772999493
 20
276.4900236388
 11
244.3623294384
 21
281.4049941496
  0
LINE
  5
29F
100
AcDbEntity
  8
ALL_DETAIL_ITEM
100
AcDbLine
 62
2
  6
CONTINUOUS
 10
179.0970973702
 20
539.6238746884
 11
178.5838147537
 21
538.9993591284
  0
LINE
  5
2A0
100
AcDbEntity
  8
ALL_DETAIL_ITEM
100
AcDbLine
 62
2
  6
CONTINUOUS
 10
185.3997106237
 20
350.3683356364
 11
186.2638147537
 21
328.7593591284
  0
LINE
  5
2A1
100
AcDbEntity
  8
ALL_DETAIL_ITEM
100
AcDbLine
 62
2
  6
CONTINUOUS
 10
178.5838147537
 20
538.9993591284
 11
177.3194694207
 21
519.8451880284
  0
LINE
  5
2A2
100
AcDbEntity
  8
ALL_DETAIL_ITEM
100
AcDbLine
 62
2
  6
CONTINUOUS
 10
206.0816927057
 20
288.7873678069
 11
222.5147532142
 21
278.4307734879
  0
LINE
  5
2A3
100
AcDbEntity
  8
ALL_DETAIL_ITEM
100
AcDbLine
 62
2
  6
CONTINUOUS
 10
193.9438147537
 20
302.8393591284
 11
206.0816927057
 21
288.7873678069
  0
LINE
  5
2A4
100
AcDbEntity
  8
ALL_DETAIL_ITEM
100
AcDbLine
 62
2
  6
CONTINUOUS
 10
190.2418702982
 20
310.9485513724
 11
193.9438147537
 21
302.8393591284
  0
LINE
  5
2A5
100
AcDbEntity
  8
ALL_DETAIL_ITEM
100
AcDbLine
 62
2
  6
CONTINUOUS
 10
187.7687058687
 20
319.7004305174
 11
190.2418702982
 21
310.9485513724
  0
LINE
  5
2A6
100
AcDbEntity
  8
ALL_DETAIL_ITEM
100
AcDbLine
 62
2
  6
CONTINUOUS
 10
186.2638147537
 20
328.7593591284
 11
187.7687058687
 21
319.7004305174
  0
LINE
  5
2A7
100
AcDbEntity
  8
ALL_DETAIL_ITEM
100
AcDbLine
 62
2
  6
CONTINUOUS
 10
194.2801906722
 20
447.5032162274
 11
193.5111614767
 21
420.1646239279
  0
LINE
  5
2A8
100
AcDbEntity
  8
ALL_DETAIL_ITEM
100
AcDbLine
 62
2
  6
CONTINUOUS
 10
187.1488827442
 20
371.8099779954
 11
185.3997106237
 21
350.3683356364
  0
LINE
  5
2A9
100
AcDbEntity
  8
ALL_DETAIL_ITEM
100
AcDbLine
 62
2
  6
CONTINUOUS
 10
193.5111614767
 20
420.1646239279
 11
190.1038147537
 21
393.0793591284
  0
LINE
  5
2AA
100
AcDbEntity
  8
ALL_DETAIL_ITEM
100
AcDbLine
 62
2
  6
CONTINUOUS
 10
190.1038147537
 20
393.0793591284
 11
187.1488827442
 21
371.8099779954
  0
LINE
  5
2AB
100
AcDbEntity
  8
ALL_DETAIL_ITEM
100
AcDbLine
 62
2
  6
CONTINUOUS
 10
222.5147532142
 20
278.4307734879
 11
240.9838147537
 21
271.1593591284
  0
LINE
  5
2AC
100
AcDbEntity
  8
ALL_DETAIL_ITEM
100
AcDbLine
 62
2
  6
CONTINUOUS
 10
337.4143567657
 20
254.1907822499
 11
361.9213541667
 21
250.8774022914
  0
LINE
  5
2AD
100
AcDbEntity
  8
ALL_DETAIL_ITEM
100
AcDbLine
 62
2
  6
CONTINUOUS
 10
287.0150716222
 20
261.8291135939
 11
310.1038147537
 21
258.6793591284
  0
LINE
  5
2AE
100
AcDbEntity
  8
ALL_DETAIL_ITEM
100
AcDbLine
 62
2
  6
CONTINUOUS
 10
264.0532835837
 20
265.4319376869
 11
287.0150716222
 21
261.8291135939
  0
LINE
  5
2AF
100
AcDbEntity
  8
ALL_DETAIL_ITEM
100
AcDbLine
 62
2
  6
CONTINUOUS
 10
310.1038147537
 20
258.6793591284
 11
337.4143567657
 21
254.1907822499
  0
LINE
  5
2B0
100
AcDbEntity
  8
ALL_DETAIL_ITEM
100
AcDbLine
 62
2
  6
CONTINUOUS
 10
240.9838147537
 20
271.1593591284
 11
249.1488692472
 21
269.1322336439
  0
LINE
  5
2B1
100
AcDbEntity
  8
ALL_DETAIL_ITEM
100
AcDbLine
 62
2
  6
CONTINUOUS
 10
261.9213541667
 20
265.9612285144
 11
264.0532835837
 21
265.4319376869
  0
LINE
  5
2B2
100
AcDbEntity
  8
ALL_DETAIL_ITEM
100
AcDbLine
 62
2
  6
CONTINUOUS
 10
190.1038147537
 20
475.6393591284
 11
194.2801906722
 21
447.5032162274
  0
LINE
  5
2B3
100
AcDbEntity
  8
ALL_DETAIL_ITEM
100
AcDbLine
 62
2
  6
CONTINUOUS
 10
183.0628754572
 20
498.1687452969
 11
190.1038147537
 21
475.6393591284
  0
LINE
  5
2B4
100
AcDbEntity
  8
ALL_DETAIL_ITEM
100
AcDbLine
 62
2
  6
CONTINUOUS
 10
177.3194694207
 20
519.8451880284
 11
183.0628754572
 21
498.1687452969
  0
LINE
  5
2B5
100
AcDbEntity
  8
ALL_DETAIL_ITEM
100
AcDbLine
 62
2
  6
CONTINUOUS
 10
496.3438147537
 20
445.8793591284
 11
498.1495013522
 21
451.3247855029
  0
LINE
  5
2B6
100
AcDbEntity
  8
ALL_DETAIL_ITEM
100
AcDbLine
 62
2
  6
CONTINUOUS
 10
500.2074670227
 20
456.7413553789
 11
502.1038147537
 21
462.1993591284
  0
LINE
  5
2B7
100
AcDbEntity
  8
ALL_DETAIL_ITEM
100
AcDbLine
 62
2
  6
CONTINUOUS
 10
498.1495013522
 20
451.3247855029
 11
500.2074670227
 21
456.7413553789
  0
LINE
  5
2B8
100
AcDbEntity
  8
ALL_DETAIL_ITEM
100
AcDbLine
 62
2
  6
CONTINUOUS
 10
494.5750822537
 20
435.9815237954
 11
496.3438147537
 21
445.8793591284
  0
LINE
  5
2B9
100
AcDbEntity
  8
ALL_DETAIL_ITEM
100
AcDbLine
 62
2
  6
CONTINUOUS
 10
502.1038147537
 20
462.1993591284
 11
504.3859633557
 21
472.8301161354
  0
LINE
  5
2BA
100
AcDbEntity
  8
ALL_DETAIL_ITEM
100
AcDbLine
 62
2
  6
CONTINUOUS
 10
495.3838147537
 20
415.1593591284
 11
494.4181533487
 21
425.7488914684
  0
LINE
  5
2BB
100
AcDbEntity
  8
ALL_DETAIL_ITEM
100
AcDbLine
 62
2
  6
CONTINUOUS
 10
494.4181533487
 20
425.7488914684
 11
494.5750822537
 21
435.9815237954
  0
LINE
  5
2BC
100
AcDbEntity
  8
ALL_DETAIL_ITEM
100
AcDbLine
 62
2
  6
CONTINUOUS
 10
505.3976516427
 20
483.7485290909
 11
505.9438147537
 21
494.8393591284
  0
LINE
  5
2BD
100
AcDbEntity
  8
ALL_DETAIL_ITEM
100
AcDbLine
 62
2
  6
CONTINUOUS
 10
505.9438147537
 20
494.8393591284
 11
506.1970096697
 21
499.6238746884
  0
LINE
  5
2BE
100
AcDbEntity
  8
ALL_DETAIL_ITEM
100
AcDbLine
 62
2
  6
CONTINUOUS
 10
504.3859633557
 20
472.8301161354
 11
505.3976516427
 21
483.7485290909
  0
LINE
  5
2BF
100
AcDbEntity
  8
ALL_DETAIL_ITEM
100
AcDbLine
 62
2
  6
CONTINUOUS
 10
503.8973836177
 20
369.5506965554
 11
495.3838147537
 21
415.1593591284
  0
LINE
  5
2C0
100
AcDbEntity
  8
ALL_DETAIL_ITEM
100
AcDbLine
 62
2
  6
CONTINUOUS
 10
506.3611100502
 20
349.6238746884
 11
503.8973836177
 21
369.5506965554
  0
LINE
  5
2C1
100
AcDbEntity
  8
ALL_DETAIL_ITEM
100
AcDbLine
 62
7
  6
CONTINUOUS
 10
258.1713541667
 20
539.6238746884
 11
253.1713541667
 21
534.6238746884
  0
LINE
  5
2C2
100
AcDbEntity
  8
ALL_DETAIL_ITEM
100
AcDbLine
 62
7
  6
CONTINUOUS
 10
253.1713541667
 20
504.6238746884
 11
253.1713541667
 21
534.6238746884
  0
LINE
  5
2C3
100
AcDbEntity
  8
ALL_DETAIL_ITEM
100
AcDbLine
 62
7
  6
CONTINUOUS
 10
247.9140976862
 20
484.8856607849
 11
244.1696851107
 21
270.3684080089
  0
LINE
  5
2C4
100
AcDbEntity
  8
ALL_DETAIL_ITEM
100
AcDbLine
 62
7
  6
CONTINUOUS
 10
252.9133361617
 20
484.7983987529
 11
249.1488692472
 21
269.1322336439
  0
LINE
  5
2C5
100
AcDbEntity
  8
ALL_DETAIL_ITEM
100
AcDbLine
 62
7
  6
CONTINUOUS
 10
261.9213541667
 20
349.1238746884
 11
261.9213541667
 21
265.9612285144
  0
LINE
  5
2C6
100
AcDbEntity
  8
ALL_DETAIL_ITEM
100
AcDbLine
 62
7
  6
CONTINUOUS
 10
361.9213541667
 20
349.1238746884
 11
261.9213541667
 21
349.1238746884
  0
LINE
  5
2C7
100
AcDbEntity
  8
ALL_DETAIL_ITEM
100
AcDbLine
 62
7
  6
CONTINUOUS
 10
506.3611100502
 20
349.6238746884
 11
250.5538560677
 21
349.6238746884
  0
LINE
  5
2C8
100
AcDbEntity
  8
ALL_DETAIL_ITEM
100
AcDbLine
 62
7
  6
CONTINUOUS
 10
346.9213541667
 20
494.6238746884
 11
346.9213541667
 21
499.6238746884
  0
LINE
  5
2C9
100
AcDbEntity
  8
ALL_DETAIL_ITEM
100
AcDbLine
 62
7
  6
CONTINUOUS
 10
356.9213541667
 20
349.6238746884
 11
356.9213541667
 21
499.6238746884
  0
LINE
  5
2CA
100
AcDbEntity
  8
ALL_DETAIL_ITEM
100
AcDbLine
 62
7
  6
CONTINUOUS
 10
258.1713541667
 20
499.6238746884
 11
253.1713541667
 21
504.6238746884
  0
LINE
  5
2CB
100
AcDbEntity
  8
ALL_DETAIL_ITEM
100
AcDbLine
 62
7
  6
CONTINUOUS
 10
361.9213541667
 20
349.1238746884
 11
361.9213541667
 21
250.8774022914
  0
LINE
  5
2CC
100
AcDbEntity
  8
ALL_DETAIL_ITEM
100
AcDbLine
 62
7
  6
CONTINUOUS
 10
473.1713541667
 20
499.6238746884
 11
478.1713541667
 21
504.6238746884
  0
LINE
  5
2CD
100
AcDbEntity
  8
ALL_DETAIL_ITEM
100
AcDbLine
 62
7
  6
CONTINUOUS
 10
262.9118131132
 20
494.6238746884
 11
346.9213541667
 21
494.6238746884
  0
LINE
  5
2CE
100
AcDbEntity
  8
ALL_DETAIL_ITEM
100
AcDbLine
 62
7
  6
CONTINUOUS
 10
506.1970096697
 20
499.6238746884
 11
182.6773233152
 21
499.6238746884
  0
LINE
  5
2CF
100
AcDbEntity
  8
ALL_DETAIL_ITEM
100
AcDbLine
 62
7
  6
CONTINUOUS
 10
253.1713541667
 20
504.6238746884
 11
181.3525196777
 21
504.6238746884
  0
LINE
  5
2D0
100
AcDbEntity
  8
ALL_DETAIL_ITEM
100
AcDbLine
 62
7
  6
CONTINUOUS
 10
478.1713541667
 20
504.6238746884
 11
478.1713541667
 21
524.6238746884
  0
LINE
  5
2D1
100
AcDbEntity
  8
ALL_DETAIL_ITEM
100
AcDbLine
 62
7
  6
CONTINUOUS
 10
178.2949939377
 20
534.6238746884
 11
253.1713541667
 21
534.6238746884
  0
LINE
  5
2D2
100
AcDbEntity
  8
ALL_DETAIL_ITEM
100
AcDbLine
 62
7
  6
CONTINUOUS
 10
179.0970973702
 20
539.6238746884
 11
448.1713541667
 21
539.6238746884
  0
LINE
  5
2D3
100
AcDbEntity
  8
ALL_DETAIL_ITEM
100
AcDbLine
 62
7
  6
CONTINUOUS
 10
448.1713541667
 20
539.6238746884
 11
478.1713541667
 21
524.6238746884
  0
ARC
  5
2D4
100
AcDbEntity
  8
ALL_DETAIL_ITEM
100
AcDbCircle
 62
7
  6
CONTINUOUS
 10
262.9118131132
 20
484.6238746884
 40
15.0
100
AcDbArc
 50
90.0
 51
179.0
  0
ARC
  5
2D5
100
AcDbEntity
  8
ALL_DETAIL_ITEM
100
AcDbCircle
 62
7
  6
CONTINUOUS
 10
262.9118131132
 20
484.6238746884
 40
10.0
100
AcDbArc
 50
90.0
 51
179.0
  0
ENDBLK
  5
2D6
100
AcDbEntity
  8
0
  6
BYBLOCK
 62
0
100
AcDbBlockEnd
  0
BLOCK
  5
2D7
100
AcDbEntity
  8
ALL_DETAIL_ITEM
100
AcDbBlockBegin
 62
2
  6
CONTINUOUS
  2
B2B_NASLOV_RISBE_BL0
 70
64
 10
739.0904398982
 20
192.7917686006
  3
B2B_NASLOV_RISBE_BL0
  1

  0
TEXT
  5
2D8
100
AcDbEntity
  8
ALL_DETAIL_ITEM
100
AcDbText
 62
7
  6
CONTINUOUS
 10
637.0608769173
 20
272.5188430933
  7
STANDARD
 40
25.0
  1
Cut-out 440x470-R10
 41
0.7418546366
 72
0
100
AcDbText
  0
TEXT
  5
2D9
100
AcDbEntity
  8
ALL_DETAIL_ITEM
100
AcDbText
 62
7
  6
CONTINUOUS
 10
722.4271734933
 20
241.4375351467
  7
STANDARD
 40
17.5
  1
1:5
 41
0.6111111111
 72
0
100
AcDbText
  0
TEXT
  5
2DA
100
AcDbEntity
  8
ALL_DETAIL_ITEM
100
AcDbText
 62
7
  6
CONTINUOUS
 10
722.20347728
 20
211.1722167467
  7
STANDARD
 40
17.5
  1
A4
 41
0.9166666667
 72
0
100
AcDbText
  0
TEXT
  5
2DB
100
AcDbEntity
  8
ALL_DETAIL_ITEM
100
AcDbText
 62
7
  6
CONTINUOUS
 10
637.325839364
 20
166.4529435142
  7
STANDARD
 40
12.5
  1
1135199_01
 41
0.7047619048
 72
0
100
AcDbText
  0
TEXT
  5
2DC
100
AcDbEntity
  8
ALL_DETAIL_ITEM
100
AcDbText
 62
7
  6
CONTINUOUS
 10
637.2214328782
 20
187.4366141953
  7
STANDARD
 40
12.5
  1
07.04.2020
 41
0.7619047619
 72
0
100
AcDbText
  0
TEXT
  5
2DD
100
AcDbEntity
  8
ALL_DETAIL_ITEM
100
AcDbText
 62
5
  6
CONTINUOUS
 10
637.019890464
 20
241.78706048
  7
STANDARD
 40
17.5
  1
Scale:
 41
0.6507936508
 72
0
100
AcDbText
  0
TEXT
  5
2DE
100
AcDbEntity
  8
ALL_DETAIL_ITEM
100
AcDbText
 62
5
  6
CONTINUOUS
 10
636.8800803307
 20
211.47979904
  7
STANDARD
 40
17.5
  1
Format:
 41
0.6904761905
 72
0
100
AcDbText
  0
TEXT
  5
2DF
100
AcDbEntity
  8
ALL_DETAIL_ITEM
100
AcDbText
 62
5
  6
CONTINUOUS
 10
488.7390504982
 20
88.064694108
  7
STANDARD
 40
10.0
  1
Subject to modifications. Latest version is on the internet.
 41
0.676984127
 72
0
100
AcDbText
  0
LINE
  5
2E0
100
AcDbEntity
  8
ALL_DETAIL_ITEM
100
AcDbLine
 62
4
  6
CONTINUOUS
 10
658.8641810412
 20
146.9396796182
 11
640.7871894514
 21
116.4004372967
  0
LINE
  5
2E1
100
AcDbEntity
  8
ALL_DETAIL_ITEM
100
AcDbLine
 62
4
  6
CONTINUOUS
 10
660.1549951887
 20
143.2308455402
 11
643.3688177457
 21
114.8723026929
  0
LINE
  5
2E2
100
AcDbEntity
  8
ALL_DETAIL_ITEM
100
AcDbLine
 62
4
  6
CONTINUOUS
 10
660.1549951887
 20
143.2308455402
 11
676.9411726309
 21
114.8723026929
  0
LINE
  5
2E3
100
AcDbEntity
  8
ALL_DETAIL_ITEM
100
AcDbLine
 62
4
  6
CONTINUOUS
 10
689.2073405232
 20
145.8790009194
 11
689.2073405232
 21
116.0321886107
  0
LINE
  5
2E4
100
AcDbEntity
  8
ALL_DETAIL_ITEM
100
AcDbLine
 62
4
  6
CONTINUOUS
 10
661.4458093362
 20
146.9396796182
 11
679.5228009259
 21
116.4004372967
  0
LINE
  5
2E5
100
AcDbEntity
  8
ALL_DETAIL_ITEM
100
AcDbLine
 62
4
  6
CONTINUOUS
 10
692.2073405262
 20
145.8790009194
 11
692.2073405262
 21
117.5321886129
  0
LINE
  5
2E6
100
AcDbEntity
  8
ALL_DETAIL_ITEM
100
AcDbLine
 62
4
  6
CONTINUOUS
 10
733.5112285347
 20
114.7582193079
 11
715.3850843209
 21
145.1911543719
  0
LINE
  5
2E7
100
AcDbEntity
  8
ALL_DETAIL_ITEM
100
AcDbLine
 62
4
  6
CONTINUOUS
 10
734.7999574639
 20
118.4570922602
 11
717.9625421802
 21
146.7263126717
  0
LINE
  5
2E8
100
AcDbEntity
  8
ALL_DETAIL_ITEM
100
AcDbLine
 62
4
  6
CONTINUOUS
 10
734.7999574639
 20
118.4570922602
 11
751.6373727477
 21
146.7263126717
  0
LINE
  5
2E9
100
AcDbEntity
  8
ALL_DETAIL_ITEM
100
AcDbLine
 62
4
  6
CONTINUOUS
 10
736.0886863932
 20
114.7582193079
 11
754.2148306069
 21
145.1911543719
  0
LINE
  5
2EA
100
AcDbEntity
  8
ALL_DETAIL_ITEM
100
AcDbLine
 62
4
  6
CONTINUOUS
 10
690.7073405247
 20
114.5321886092
 11
717.5853407584
 21
114.5321886092
  0
LINE
  5
2EB
100
AcDbEntity
  8
ALL_DETAIL_ITEM
100
AcDbLine
 62
4
  6
CONTINUOUS
 10
881.7929830129
 20
114.5328223524
 11
853.6761837019
 21
114.5328223524
  0
LINE
  5
2EC
100
AcDbEntity
  8
ALL_DETAIL_ITEM
100
AcDbLine
 62
4
  6
CONTINUOUS
 10
764.3832940624
 20
114.5357954589
 11
794.4796339767
 21
114.5386133867
  0
LINE
  5
2ED
100
AcDbEntity
  8
ALL_DETAIL_ITEM
100
AcDbLine
 62
4
  6
CONTINUOUS
 10
812.8627545034
 20
114.5428065722
 11
834.2647591482
 21
114.5428065722
  0
LINE
  5
2EE
100
AcDbEntity
  8
ALL_DETAIL_ITEM
100
AcDbLine
 62
4
  6
CONTINUOUS
 10
717.5853407584
 20
117.5321886129
 11
692.2073405262
 21
117.5321886129
  0
LINE
  5
2EF
100
AcDbEntity
  8
ALL_DETAIL_ITEM
100
AcDbLine
 62
4
  6
CONTINUOUS
 10
881.7929830129
 20
117.5328223562
 11
853.6761837019
 21
117.5328223562
  0
LINE
  5
2F0
100
AcDbEntity
  8
ALL_DETAIL_ITEM
100
AcDbLine
 62
4
  6
CONTINUOUS
 10
765.8831536159
 20
117.5359359077
 11
794.4793530859
 21
117.5386133769
  0
LINE
  5
2F1
100
AcDbEntity
  8
ALL_DETAIL_ITEM
100
AcDbLine
 62
4
  6
CONTINUOUS
 10
834.2647591482
 20
117.5428065759
 11
812.8627545034
 21
117.5428065759
  0
LINE
  5
2F2
100
AcDbEntity
  8
ALL_DETAIL_ITEM
100
AcDbLine
 62
4
  6
CONTINUOUS
 10
762.8831536159
 20
145.4477736939
 11
762.8831536159
 21
116.0357954544
  0
LINE
  5
2F3
100
AcDbEntity
  8
ALL_DETAIL_ITEM
100
AcDbLine
 62
4
  6
CONTINUOUS
 10
765.8831536159
 20
143.9477248817
 11
765.8831536159
 21
132.2408159154
  0
LINE
  5
2F4
100
AcDbEntity
  8
ALL_DETAIL_ITEM
100
AcDbLine
 62
4
  6
CONTINUOUS
 10
765.8831536159
 20
129.2408159124
 11
765.8831536159
 21
117.5359359077
  0
LINE
  5
2F5
100
AcDbEntity
  8
ALL_DETAIL_ITEM
100
AcDbLine
 62
4
  6
CONTINUOUS
 10
860.0366511214
 20
129.2397780407
 11
881.7929830129
 21
129.2408186042
  0
LINE
  5
2F6
100
AcDbEntity
  8
ALL_DETAIL_ITEM
100
AcDbLine
 62
4
  6
CONTINUOUS
 10
765.8831536159
 20
129.2408159124
 11
793.0389790782
 21
129.2408159124
  0
LINE
  5
2F7
100
AcDbEntity
  8
ALL_DETAIL_ITEM
100
AcDbLine
 62
4
  6
CONTINUOUS
 10
881.7929830129
 20
132.2408186072
 11
860.0366511214
 21
132.2397780437
  0
LINE
  5
2F8
100
AcDbEntity
  8
ALL_DETAIL_ITEM
100
AcDbLine
 62
4
  6
CONTINUOUS
 10
765.8831536159
 20
132.2408159154
 11
793.0389790782
 21
132.2408159154
  0
LINE
  5
2F9
100
AcDbEntity
  8
ALL_DETAIL_ITEM
100
AcDbLine
 62
4
  6
CONTINUOUS
 10
765.8831536159
 20
143.9477248817
 11
794.4812533962
 21
143.9467943019
  0
LINE
  5
2FA
100
AcDbEntity
  8
ALL_DETAIL_ITEM
100
AcDbLine
 62
4
  6
CONTINUOUS
 10
860.0366511214
 20
143.9477742849
 11
886.7138913357
 21
143.9477742849
  0
LINE
  5
2FB
100
AcDbEntity
  8
ALL_DETAIL_ITEM
100
AcDbLine
 62
4
  6
CONTINUOUS
 10
764.3832024274
 20
146.9477736947
 11
794.4813510162
 21
146.9467943042
  0
LINE
  5
2FC
100
AcDbEntity
  8
ALL_DETAIL_ITEM
100
AcDbLine
 62
4
  6
CONTINUOUS
 10
860.0366511214
 20
146.9477742887
 11
886.7138913357
 21
146.9477742887
  0
LINE
  5
2FD
100
AcDbEntity
  8
ALL_DETAIL_ITEM
100
AcDbLine
 62
4
  6
CONTINUOUS
 10
804.6127516557
 20
121.1462664797
 11
804.6121463757
 21
145.9054998099
  0
LINE
  5
2FE
100
AcDbEntity
  8
ALL_DETAIL_ITEM
100
AcDbLine
 62
4
  6
CONTINUOUS
 10
807.6127516579
 20
121.1463398199
 11
807.6121463787
 21
145.9054998099
  0
LINE
  5
2FF
100
AcDbEntity
  8
ALL_DETAIL_ITEM
100
AcDbLine
 62
4
  6
CONTINUOUS
 10
839.5153672767
 20
145.9054998099
 11
839.5147619937
 21
121.1463398192
  0
LINE
  5
300
100
AcDbEntity
  8
ALL_DETAIL_ITEM
100
AcDbLine
 62
4
  6
CONTINUOUS
 10
842.5153672797
 20
145.9054998099
 11
842.5147619959
 21
121.1462664789
  0
LINE
  5
301
100
AcDbEntity
  8
ALL_DETAIL_ITEM
100
AcDbLine
 62
4
  6
CONTINUOUS
 10
851.7866631747
 20
135.8426567657
 11
851.7866631747
 21
140.3448955629
  0
LINE
  5
302
100
AcDbEntity
  8
ALL_DETAIL_ITEM
100
AcDbLine
 62
4
  6
CONTINUOUS
 10
854.7866631784
 20
135.8426567657
 11
854.7866631784
 21
140.3448955629
  0
LINE
  5
303
100
AcDbEntity
  8
ALL_DETAIL_ITEM
100
AcDbLine
 62
4
  6
CONTINUOUS
 10
887.0429709619
 20
125.6379398784
 11
887.0429709619
 21
121.1357010812
  0
LINE
  5
304
100
AcDbEntity
  8
ALL_DETAIL_ITEM
100
AcDbLine
 62
4
  6
CONTINUOUS
 10
890.0429709657
 20
125.6379398784
 11
890.0429709657
 21
121.1357010812
  0
ARC
  5
305
100
AcDbEntity
  8
ALL_DETAIL_ITEM
100
AcDbCircle
 62
4
  6
CONTINUOUS
 10
764.3831536174
 20
116.0357954544
 40
1.5000000015
100
AcDbArc
 50
180.0
 51
270.0053646182
  0
ARC
  5
306
100
AcDbEntity
  8
ALL_DETAIL_ITEM
100
AcDbCircle
 62
4
  6
CONTINUOUS
 10
690.7073405247
 20
116.0321886107
 40
1.5000000015
100
AcDbArc
 50
180.0
 51
270.0
  0
ARC
  5
307
100
AcDbEntity
  8
ALL_DETAIL_ITEM
100
AcDbCircle
 62
4
  6
CONTINUOUS
 10
717.5853407584
 20
116.0321886107
 40
1.5000000015
100
AcDbArc
 50
270.0
 51
90.0
  0
ARC
  5
308
100
AcDbEntity
  8
ALL_DETAIL_ITEM
100
AcDbCircle
 62
4
  6
CONTINUOUS
 10
734.7999574639
 20
115.5257984574
 40
1.5000000015
100
AcDbArc
 50
210.7784283087
 51
329.2215716913
  0
ARC
  5
309
100
AcDbEntity
  8
ALL_DETAIL_ITEM
100
AcDbCircle
 62
4
  6
CONTINUOUS
 10
642.0780035982
 20
115.6363699944
 40
1.5000000015
100
AcDbArc
 50
149.3775791193
 51
329.3775791193
  0
ARC
  5
30A
100
AcDbEntity
  8
ALL_DETAIL_ITEM
100
AcDbCircle
 62
4
  6
CONTINUOUS
 10
678.2319867784
 20
115.6363699944
 40
1.5000000015
100
AcDbArc
 50
210.6224208807
 51
30.6224208807
  0
ARC
  5
30B
100
AcDbEntity
  8
ALL_DETAIL_ITEM
100
AcDbCircle
 62
4
  6
CONTINUOUS
 10
764.3831536174
 20
145.4477736939
 40
1.5000000015
100
AcDbArc
 50
89.9981356008
 51
180.0
  0
ARC
  5
30C
100
AcDbEntity
  8
ALL_DETAIL_ITEM
100
AcDbCircle
 62
4
  6
CONTINUOUS
 10
690.7073405247
 20
145.8790009194
 40
1.5000000015
100
AcDbArc
 50
0.0
 51
180.0
  0
ARC
  5
30D
100
AcDbEntity
  8
ALL_DETAIL_ITEM
100
AcDbCircle
 62
4
  6
CONTINUOUS
 10
752.9261016777
 20
145.9587335214
 40
1.5000000015
100
AcDbArc
 50
329.2215716913
 51
149.2215716913
  0
ARC
  5
30E
100
AcDbEntity
  8
ALL_DETAIL_ITEM
100
AcDbCircle
 62
4
  6
CONTINUOUS
 10
716.6738132502
 20
145.9587335214
 40
1.5000000015
100
AcDbArc
 50
30.7784283087
 51
210.7784283087
  0
ARC
  5
30F
100
AcDbEntity
  8
ALL_DETAIL_ITEM
100
AcDbCircle
 62
4
  6
CONTINUOUS
 10
660.1549951887
 20
146.1756123159
 40
1.5000000015
100
AcDbArc
 50
30.6224208807
 51
149.3775791193
  0
ARC
  5
310
100
AcDbEntity
  8
ALL_DETAIL_ITEM
100
AcDbCircle
 62
4
  6
CONTINUOUS
 10
881.7929830129
 20
125.0328223562
 40
10.5000000038
100
AcDbArc
 50
270.0
 51
299.9998228245
  0
ARC
  5
311
100
AcDbEntity
  8
ALL_DETAIL_ITEM
100
AcDbCircle
 62
4
  6
CONTINUOUS
 10
881.7929830129
 20
121.7408186042
 40
10.5000000038
100
AcDbArc
 50
60.0001771755
 51
90.0000000001
  0
ARC
  5
312
100
AcDbEntity
  8
ALL_DETAIL_ITEM
100
AcDbCircle
 62
4
  6
CONTINUOUS
 10
812.8627545034
 20
125.0381632014
 40
10.4953566293
100
AcDbArc
 50
239.9657832688
 51
270.0
  0
ARC
  5
313
100
AcDbEntity
  8
ALL_DETAIL_ITEM
100
AcDbCircle
 62
4
  6
CONTINUOUS
 10
834.2647591482
 20
125.0381632014
 40
10.4953566293
100
AcDbArc
 50
270.0
 51
300.0342167312
  0
ARC
  5
314
100
AcDbEntity
  8
ALL_DETAIL_ITEM
100
AcDbCircle
 62
4
  6
CONTINUOUS
 10
881.7929830129
 20
121.7408186042
 40
7.5
100
AcDbArc
 50
60.0001771755
 51
89.9999999999
  0
ARC
  5
315
100
AcDbEntity
  8
ALL_DETAIL_ITEM
100
AcDbCircle
 62
4
  6
CONTINUOUS
 10
881.7929830129
 20
125.0328223562
 40
7.5
100
AcDbArc
 50
270.0
 51
299.9998228245
  0
ARC
  5
316
100
AcDbEntity
  8
ALL_DETAIL_ITEM
100
AcDbCircle
 62
4
  6
CONTINUOUS
 10
834.2647591482
 20
125.0381632014
 40
7.4953566255
100
AcDbArc
 50
270.0
 51
300.0342167312
  0
ARC
  5
317
100
AcDbEntity
  8
ALL_DETAIL_ITEM
100
AcDbCircle
 62
4
  6
CONTINUOUS
 10
812.8627545034
 20
125.0381632014
 40
7.4953566255
100
AcDbArc
 50
239.9657832688
 51
270.0
  0
ARC
  5
318
100
AcDbEntity
  8
ALL_DETAIL_ITEM
100
AcDbCircle
 62
4
  6
CONTINUOUS
 10
810.6127516572
 20
121.1464131602
 40
6.0000000038
100
AcDbArc
 50
180.0014006897
 51
239.9657832688
  0
ARC
  5
319
100
AcDbEntity
  8
ALL_DETAIL_ITEM
100
AcDbCircle
 62
4
  6
CONTINUOUS
 10
836.5147619944
 20
121.1464131602
 40
6.0000000038
100
AcDbArc
 50
300.0342167312
 51
359.9985993027
  0
ARC
  5
31A
100
AcDbEntity
  8
ALL_DETAIL_ITEM
100
AcDbCircle
 62
4
  6
CONTINUOUS
 10
884.0429709619
 20
121.1357010812
 40
6.0000000038
100
AcDbArc
 50
299.9998228245
 51
360.0
  0
ARC
  5
31B
100
AcDbEntity
  8
ALL_DETAIL_ITEM
100
AcDbCircle
 62
4
  6
CONTINUOUS
 10
884.0429709619
 20
125.6379398784
 40
6.0000000038
100
AcDbArc
 50
0.0
 51
60.0001771755
  0
ARC
  5
31C
100
AcDbEntity
  8
ALL_DETAIL_ITEM
100
AcDbCircle
 62
4
  6
CONTINUOUS
 10
836.5147619944
 20
121.1464131602
 40
3.0
100
AcDbArc
 50
300.0342167312
 51
359.9985993006
  0
ARC
  5
31D
100
AcDbEntity
  8
ALL_DETAIL_ITEM
100
AcDbCircle
 62
4
  6
CONTINUOUS
 10
810.6127516572
 20
121.1464131602
 40
3.0
100
AcDbArc
 50
180.0014006917
 51
239.9657832688
  0
ARC
  5
31E
100
AcDbEntity
  8
ALL_DETAIL_ITEM
100
AcDbCircle
 62
4
  6
CONTINUOUS
 10
884.0429709619
 20
125.6379398784
 40
3.0
100
AcDbArc
 50
0.0
 51
60.0001771755
  0
ARC
  5
31F
100
AcDbEntity
  8
ALL_DETAIL_ITEM
100
AcDbCircle
 62
4
  6
CONTINUOUS
 10
884.0429709619
 20
121.1357010812
 40
3.0
100
AcDbArc
 50
299.9998228245
 51
360.0
  0
ARC
  5
320
100
AcDbEntity
  8
ALL_DETAIL_ITEM
100
AcDbCircle
 62
4
  6
CONTINUOUS
 10
853.6761837019
 20
116.0328223547
 40
1.5000000015
100
AcDbArc
 50
90.0
 51
270.0
  0
ARC
  5
321
100
AcDbEntity
  8
ALL_DETAIL_ITEM
100
AcDbCircle
 62
4
  6
CONTINUOUS
 10
794.4794935317
 20
116.0386133822
 40
1.5000000015
100
AcDbArc
 50
270.0053646182
 51
90.0053646182
  0
ARC
  5
322
100
AcDbEntity
  8
ALL_DETAIL_ITEM
100
AcDbCircle
 62
4
  6
CONTINUOUS
 10
793.0389790782
 20
130.7408159139
 40
1.5000000015
100
AcDbArc
 50
270.0
 51
90.0
  0
ARC
  5
323
100
AcDbEntity
  8
ALL_DETAIL_ITEM
100
AcDbCircle
 62
4
  6
CONTINUOUS
 10
860.0366511214
 20
136.4477742849
 40
10.5000000038
100
AcDbArc
 50
90.0
 51
119.9998227404
  0
ARC
  5
324
100
AcDbEntity
  8
ALL_DETAIL_ITEM
100
AcDbCircle
 62
4
  6
CONTINUOUS
 10
860.0366511214
 20
139.7397780437
 40
10.5000000038
100
AcDbArc
 50
240.0001772596
 51
269.9999999996
  0
ARC
  5
325
100
AcDbEntity
  8
ALL_DETAIL_ITEM
100
AcDbCircle
 62
4
  6
CONTINUOUS
 10
860.0366511214
 20
139.7397780437
 40
7.5
100
AcDbArc
 50
240.0001772596
 51
269.9999999998
  0
ARC
  5
326
100
AcDbEntity
  8
ALL_DETAIL_ITEM
100
AcDbCircle
 62
4
  6
CONTINUOUS
 10
860.0366511214
 20
136.4477742849
 40
7.5
100
AcDbArc
 50
90.0
 51
119.9998227404
  0
ARC
  5
327
100
AcDbEntity
  8
ALL_DETAIL_ITEM
100
AcDbCircle
 62
4
  6
CONTINUOUS
 10
857.7866631784
 20
140.3448955629
 40
6.0000000038
100
AcDbArc
 50
119.9998227404
 51
180.0
  0
ARC
  5
328
100
AcDbEntity
  8
ALL_DETAIL_ITEM
100
AcDbCircle
 62
4
  6
CONTINUOUS
 10
857.7866631784
 20
135.8426567657
 40
6.0000000038
100
AcDbArc
 50
180.0
 51
240.0001772596
  0
ARC
  5
329
100
AcDbEntity
  8
ALL_DETAIL_ITEM
100
AcDbCircle
 62
4
  6
CONTINUOUS
 10
857.7866631784
 20
135.8426567657
 40
3.0
100
AcDbArc
 50
180.0
 51
240.0001772596
  0
ARC
  5
32A
100
AcDbEntity
  8
ALL_DETAIL_ITEM
100
AcDbCircle
 62
4
  6
CONTINUOUS
 10
857.7866631784
 20
140.3448955629
 40
3.0
100
AcDbArc
 50
119.9998227404
 51
180.0
  0
ARC
  5
32B
100
AcDbEntity
  8
ALL_DETAIL_ITEM
100
AcDbCircle
 62
4
  6
CONTINUOUS
 10
841.0153672782
 20
145.9054998099
 40
1.5000000015
100
AcDbArc
 50
0.0
 51
180.0
  0
ARC
  5
32C
100
AcDbEntity
  8
ALL_DETAIL_ITEM
100
AcDbCircle
 62
4
  6
CONTINUOUS
 10
806.1121463772
 20
145.9054998099
 40
1.5000000015
100
AcDbArc
 50
0.0
 51
180.0
  0
ARC
  5
32D
100
AcDbEntity
  8
ALL_DETAIL_ITEM
100
AcDbCircle
 62
4
  6
CONTINUOUS
 10
886.7138913357
 20
145.4477742872
 40
1.5000000015
100
AcDbArc
 50
270.0
 51
90.0
  0
ARC
  5
32E
100
AcDbEntity
  8
ALL_DETAIL_ITEM
100
AcDbCircle
 62
4
  6
CONTINUOUS
 10
794.4813022062
 20
145.4467943027
 40
1.5000000015
100
AcDbArc
 50
269.9981356008
 51
89.9981356008
  0
LWPOLYLINE
  5
32F
100
AcDbEntity
  8
ALL_DETAIL_ITEM
100
AcDbPolyline
 62
4
  6
CONTINUOUS
 90
21
 70
0
 10
660.1549951887
 20
147.6756123174
 10
660.3273361269
 20
147.6656883112
 10
660.4973944998
 20
147.6360091754
 10
660.6629179733
 20
147.5870150464
 10
660.8217142758
 20
147.5193116209
 10
660.9716802335
 20
147.4338074439
 10
661.1108296259
 20
147.331646609
 10
661.2373194922
 20
147.214141459
 10
661.3494745405
 20
147.0829408348
 10
661.4458093362
 20
146.9396599274
 10
640.7871894514
 20
116.4004348592
 10
658.8641810415
 20
146.9396599274
 10
658.9605158369
 20
147.0829408348
 10
659.0726708852
 20
147.214141459
 10
659.1991607515
 20
147.331646609
 10
659.3383101438
 20
147.4338074439
 10
659.4882761015
 20
147.5193116209
 10
659.647072404
 20
147.5870150464
 10
659.8125958775
 20
147.6360091754
 10
659.9826542504
 20
147.6656883112
 10
660.1549951887
 20
147.6756123174
  0
HATCH
  5
330
100
AcDbEntity
  8
ALL_DETAIL_ITEM
100
AcDbHatch
 62
4
  6
CONTINUOUS
 10
0.0
 20
0.0
 30
0.0
210
0.0
220
0.0
230
1.0
  2
SOLID
 70
1
 71
1
 91
1
 92
1
 93
20
 72
1
 10
660.1549951887
 20
147.6756123174
 11
660.3273361269
 21
147.6656883112
 72
1
 10
660.3273361269
 20
147.6656883112
 11
660.4973944998
 21
147.6360091754
 72
1
 10
660.4973944998
 20
147.6360091754
 11
660.6629179733
 21
147.5870150464
 72
1
 10
660.6629179733
 20
147.5870150464
 11
660.8217142758
 21
147.5193116209
 72
1
 10
660.8217142758
 20
147.5193116209
 11
660.9716802335
 21
147.4338074439
 72
1
 10
660.9716802335
 20
147.4338074439
 11
661.1108296259
 21
147.331646609
 72
1
 10
661.1108296259
 20
147.331646609
 11
661.2373194922
 21
147.214141459
 72
1
 10
661.2373194922
 20
147.214141459
 11
661.3494745405
 21
147.0829408348
 72
1
 10
661.3494745405
 20
147.0829408348
 11
661.4458093362
 21
146.9396599274
 72
1
 10
661.4458093362
 20
146.9396599274
 11
640.7871894514
 21
116.4004348592
 72
1
 10
640.7871894514
 20
116.4004348592
 11
658.8641810415
 21
146.9396599274
 72
1
 10
658.8641810415
 20
146.9396599274
 11
658.9605158369
 21
147.0829408348
 72
1
 10
658.9605158369
 20
147.0829408348
 11
659.0726708852
 21
147.214141459
 72
1
 10
659.0726708852
 20
147.214141459
 11
659.1991607515
 21
147.331646609
 72
1
 10
659.1991607515
 20
147.331646609
 11
659.3383101438
 21
147.4338074439
 72
1
 10
659.3383101438
 20
147.4338074439
 11
659.4882761015
 21
147.5193116209
 72
1
 10
659.4882761015
 20
147.5193116209
 11
659.647072404
 21
147.5870150464
 72
1
 10
659.647072404
 20
147.5870150464
 11
659.8125958775
 21
147.6360091754
 72
1
 10
659.8125958775
 20
147.6360091754
 11
659.9826542504
 21
147.6656883112
 72
1
 10
659.9826542504
 20
147.6656883112
 11
660.1549951887
 21
147.6756123174
 97
1
330
32F
 75
0
 76
1
 98
1
 10
0.0
 20
0.0
  0
LWPOLYLINE
  5
331
100
AcDbEntity
  8
ALL_DETAIL_ITEM
100
AcDbPolyline
 62
4
  6
CONTINUOUS
 90
46
 70
0
 10
716.3821224567
 20
147.4301059644
 10
716.5851901925
 20
147.4561172705
 10
716.7899088083
 20
147.4542328809
 10
716.9924647835
 20
147.4244864455
 10
717.1890848835
 20
147.367450011
 10
717.3761064479
 20
147.2841667217
 10
717.5500456188
 20
147.176184469
 10
717.7076622386
 20
147.0455558916
 10
717.8460202079
 20
146.8946364764
 10
717.9625421795
 20
146.7263201075
 10
734.7999574639
 20
118.4570922602
 10
754.214830607
 20
145.1911482995
 10
736.0886863932
 20
114.7582229933
 10
735.992237342
 20
114.6155814324
 10
735.8800799473
 20
114.484952855
 10
735.753691888
 20
114.3680534016
 10
735.6147383327
 20
114.2663973139
 10
735.4650500011
 20
114.1812969347
 10
735.306599044
 20
114.1139636572
 10
735.1414730602
 20
114.0652050769
 10
734.9718475923
 20
114.0356941901
 10
734.7999574639
 20
114.0257984559
 10
734.6280673355
 20
114.0356941901
 10
734.4584418677
 20
114.0652050769
 10
734.2933158839
 20
114.1139636572
 10
734.1348649267
 20
114.1812969347
 10
733.9851765951
 20
114.2663973139
 10
733.8462230398
 20
114.3680534016
 10
733.7198349805
 20
114.484952855
 10
733.6076775858
 20
114.6155814324
 10
733.5112285346
 20
114.7582229933
 10
715.3850843209
 20
145.1911482995
 10
715.2925689309
 20
145.3737994891
 10
715.2257835092
 20
145.5673195687
 10
715.1859721418
 20
145.7681416578
 10
715.1738764391
 20
145.9724969774
 10
715.1897217213
 20
146.1766167482
 10
715.2332128206
 20
146.3766648917
 10
715.3035395802
 20
146.5689399281
 10
715.3993919456
 20
146.7498413274
 10
715.5189843686
 20
146.9160041082
 10
715.6600890686
 20
147.0643324877
 10
715.8200775322
 20
147.1920671811
 10
715.9959694768
 20
147.2968527015
 10
716.1844883684
 20
147.37667006
 10
716.3821224567
 20
147.4301059644
  0
HATCH
  5
332
100
AcDbEntity
  8
ALL_DETAIL_ITEM
100
AcDbHatch
 62
4
  6
CONTINUOUS
 10
0.0
 20
0.0
 30
0.0
210
0.0
220
0.0
230
1.0
  2
SOLID
 70
1
 71
1
 91
1
 92
1
 93
45
 72
1
 10
716.3821224567
 20
147.4301059644
 11
716.5851901925
 21
147.4561172705
 72
1
 10
716.5851901925
 20
147.4561172705
 11
716.7899088083
 21
147.4542328809
 72
1
 10
716.7899088083
 20
147.4542328809
 11
716.9924647835
 21
147.4244864455
 72
1
 10
716.9924647835
 20
147.4244864455
 11
717.1890848835
 21
147.367450011
 72
1
 10
717.1890848835
 20
147.367450011
 11
717.3761064479
 21
147.2841667217
 72
1
 10
717.3761064479
 20
147.2841667217
 11
717.5500456188
 21
147.176184469
 72
1
 10
717.5500456188
 20
147.176184469
 11
717.7076622386
 21
147.0455558916
 72
1
 10
717.7076622386
 20
147.0455558916
 11
717.8460202079
 21
146.8946364764
 72
1
 10
717.8460202079
 20
146.8946364764
 11
717.9625421795
 21
146.7263201075
 72
1
 10
717.9625421795
 20
146.7263201075
 11
734.7999574639
 21
118.4570922602
 72
1
 10
734.7999574639
 20
118.4570922602
 11
754.214830607
 21
145.1911482995
 72
1
 10
754.214830607
 20
145.1911482995
 11
736.0886863932
 21
114.7582229933
 72
1
 10
736.0886863932
 20
114.7582229933
 11
735.992237342
 21
114.6155814324
 72
1
 10
735.992237342
 20
114.6155814324
 11
735.8800799473
 21
114.484952855
 72
1
 10
735.8800799473
 20
114.484952855
 11
735.753691888
 21
114.3680534016
 72
1
 10
735.753691888
 20
114.3680534016
 11
735.6147383327
 21
114.2663973139
 72
1
 10
735.6147383327
 20
114.2663973139
 11
735.4650500011
 21
114.1812969347
 72
1
 10
735.4650500011
 20
114.1812969347
 11
735.306599044
 21
114.1139636572
 72
1
 10
735.306599044
 20
114.1139636572
 11
735.1414730602
 21
114.0652050769
 72
1
 10
735.1414730602
 20
114.0652050769
 11
734.9718475923
 21
114.0356941901
 72
1
 10
734.9718475923
 20
114.0356941901
 11
734.7999574639
 21
114.0257984559
 72
1
 10
734.7999574639
 20
114.0257984559
 11
734.6280673355
 21
114.0356941901
 72
1
 10
734.6280673355
 20
114.0356941901
 11
734.4584418677
 21
114.0652050769
 72
1
 10
734.4584418677
 20
114.0652050769
 11
734.2933158839
 21
114.1139636572
 72
1
 10
734.2933158839
 20
114.1139636572
 11
734.1348649267
 21
114.1812969347
 72
1
 10
734.1348649267
 20
114.1812969347
 11
733.9851765951
 21
114.2663973139
 72
1
 10
733.9851765951
 20
114.2663973139
 11
733.8462230398
 21
114.3680534016
 72
1
 10
733.8462230398
 20
114.3680534016
 11
733.7198349805
 21
114.484952855
 72
1
 10
733.7198349805
 20
114.484952855
 11
733.6076775858
 21
114.6155814324
 72
1
 10
733.6076775858
 20
114.6155814324
 11
733.5112285346
 21
114.7582229933
 72
1
 10
733.5112285346
 20
114.7582229933
 11
715.3850843209
 21
145.1911482995
 72
1
 10
715.3850843209
 20
145.1911482995
 11
715.2925689309
 21
145.3737994891
 72
1
 10
715.2925689309
 20
145.3737994891
 11
715.2257835092
 21
145.5673195687
 72
1
 10
715.2257835092
 20
145.5673195687
 11
715.1859721418
 21
145.7681416578
 72
1
 10
715.1859721418
 20
145.7681416578
 11
715.1738764391
 21
145.9724969774
 72
1
 10
715.1738764391
 20
145.9724969774
 11
715.1897217213
 21
146.1766167482
 72
1
 10
715.1897217213
 20
146.1766167482
 11
715.2332128206
 21
146.3766648917
 72
1
 10
715.2332128206
 20
146.3766648917
 11
715.3035395802
 21
146.5689399281
 72
1
 10
715.3035395802
 20
146.5689399281
 11
715.3993919456
 21
146.7498413274
 72
1
 10
715.3993919456
 20
146.7498413274
 11
715.5189843686
 21
146.9160041082
 72
1
 10
715.5189843686
 20
146.9160041082
 11
715.6600890686
 21
147.0643324877
 72
1
 10
715.6600890686
 20
147.0643324877
 11
715.8200775322
 21
147.1920671811
 72
1
 10
715.8200775322
 20
147.1920671811
 11
715.9959694768
 21
147.2968527015
 72
1
 10
715.9959694768
 20
147.2968527015
 11
716.1844883684
 21
147.37667006
 72
1
 10
716.1844883684
 20
147.37667006
 11
716.3821224567
 21
147.4301059644
 97
1
330
331
 75
0
 76
1
 98
1
 10
0.0
 20
0.0
  0
LWPOLYLINE
  5
333
100
AcDbEntity
  8
ALL_DETAIL_ITEM
100
AcDbPolyline
 62
4
  6
CONTINUOUS
 90
19
 70
0
 10
753.0147247353
 20
147.4561172705
 10
753.2177924712
 20
147.4301059644
 10
753.4154265595
 20
147.37667006
 10
753.6039454511
 20
147.2968527015
 10
753.7798373957
 20
147.1920671811
 10
753.9398258592
 20
147.0643324877
 10
754.0809305593
 20
146.9160041082
 10
754.2005229823
 20
146.7498413274
 10
754.2963753477
 20
146.5689399281
 10
734.7999574639
 20
118.4570922602
 10
751.6373727484
 20
146.7263201075
 10
751.7538947199
 20
146.8946364764
 10
751.8922526892
 20
147.0455558916
 10
752.049869309
 20
147.176184469
 10
752.2238084799
 20
147.2841667217
 10
752.4108300444
 20
147.367450011
 10
752.6074501444
 20
147.4244864455
 10
752.8100061195
 20
147.4542328809
 10
753.0147247353
 20
147.4561172705
  0
HATCH
  5
334
100
AcDbEntity
  8
ALL_DETAIL_ITEM
100
AcDbHatch
 62
4
  6
CONTINUOUS
 10
0.0
 20
0.0
 30
0.0
210
0.0
220
0.0
230
1.0
  2
SOLID
 70
1
 71
1
 91
1
 92
1
 93
18
 72
1
 10
753.0147247353
 20
147.4561172705
 11
753.2177924712
 21
147.4301059644
 72
1
 10
753.2177924712
 20
147.4301059644
 11
753.4154265595
 21
147.37667006
 72
1
 10
753.4154265595
 20
147.37667006
 11
753.6039454511
 21
147.2968527015
 72
1
 10
753.6039454511
 20
147.2968527015
 11
753.7798373957
 21
147.1920671811
 72
1
 10
753.7798373957
 20
147.1920671811
 11
753.9398258592
 21
147.0643324877
 72
1
 10
753.9398258592
 20
147.0643324877
 11
754.0809305593
 21
146.9160041082
 72
1
 10
754.0809305593
 20
146.9160041082
 11
754.2005229823
 21
146.7498413274
 72
1
 10
754.2005229823
 20
146.7498413274
 11
754.2963753477
 21
146.5689399281
 72
1
 10
754.2963753477
 20
146.5689399281
 11
734.7999574639
 21
118.4570922602
 72
1
 10
734.7999574639
 20
118.4570922602
 11
751.6373727484
 21
146.7263201075
 72
1
 10
751.6373727484
 20
146.7263201075
 11
751.7538947199
 21
146.8946364764
 72
1
 10
751.7538947199
 20
146.8946364764
 11
751.8922526892
 21
147.0455558916
 72
1
 10
751.8922526892
 20
147.0455558916
 11
752.049869309
 21
147.176184469
 72
1
 10
752.049869309
 20
147.176184469
 11
752.2238084799
 21
147.2841667217
 72
1
 10
752.2238084799
 20
147.2841667217
 11
752.4108300444
 21
147.367450011
 72
1
 10
752.4108300444
 20
147.367450011
 11
752.6074501444
 21
147.4244864455
 72
1
 10
752.6074501444
 20
147.4244864455
 11
752.8100061195
 21
147.4542328809
 72
1
 10
752.8100061195
 20
147.4542328809
 11
753.0147247353
 21
147.4561172705
 97
1
330
333
 75
0
 76
1
 98
1
 10
0.0
 20
0.0
  0
LWPOLYLINE
  5
335
100
AcDbEntity
  8
ALL_DETAIL_ITEM
100
AcDbPolyline
 62
4
  6
CONTINUOUS
 90
27
 70
0
 10
806.1121463772
 20
147.4055079505
 10
806.3079356657
 20
147.3926537216
 10
806.5003749452
 20
147.3543938832
 10
806.6861715263
 20
147.291334132
 10
806.8621463779
 20
147.2045512621
 10
807.0252885216
 20
147.0955258652
 10
807.17280655
 20
146.9661759807
 10
807.3021763888
 20
146.8186551967
 10
807.4111844841
 20
146.6554872493
 10
807.4979656773
 20
146.4795323726
 10
807.561035118
 20
146.2937181005
 10
807.5993136707
 20
146.101274815
 10
807.6121463787
 20
145.905500198
 10
804.6127516557
 20
121.146270007
 10
804.6121463757
 20
145.905500198
 10
804.6249790836
 20
146.101274815
 10
804.6632576363
 20
146.2937181005
 10
804.726327077
 20
146.4795323726
 10
804.8131082702
 20
146.6554872493
 10
804.9221163655
 20
146.8186551967
 10
805.0514862043
 20
146.9661759807
 10
805.1990042327
 20
147.0955258652
 10
805.3621463764
 20
147.2045512621
 10
805.538121228
 20
147.291334132
 10
805.7239178091
 20
147.3543938832
 10
805.9163570886
 20
147.3926537216
 10
806.1121463772
 20
147.4055079505
  0
HATCH
  5
336
100
AcDbEntity
  8
ALL_DETAIL_ITEM
100
AcDbHatch
 62
4
  6
CONTINUOUS
 10
0.0
 20
0.0
 30
0.0
210
0.0
220
0.0
230
1.0
  2
SOLID
 70
1
 71
1
 91
1
 92
1
 93
26
 72
1
 10
806.1121463772
 20
147.4055079505
 11
806.3079356657
 21
147.3926537216
 72
1
 10
806.3079356657
 20
147.3926537216
 11
806.5003749452
 21
147.3543938832
 72
1
 10
806.5003749452
 20
147.3543938832
 11
806.6861715263
 21
147.291334132
 72
1
 10
806.6861715263
 20
147.291334132
 11
806.8621463779
 21
147.2045512621
 72
1
 10
806.8621463779
 20
147.2045512621
 11
807.0252885216
 21
147.0955258652
 72
1
 10
807.0252885216
 20
147.0955258652
 11
807.17280655
 21
146.9661759807
 72
1
 10
807.17280655
 20
146.9661759807
 11
807.3021763888
 21
146.8186551967
 72
1
 10
807.3021763888
 20
146.8186551967
 11
807.4111844841
 21
146.6554872493
 72
1
 10
807.4111844841
 20
146.6554872493
 11
807.4979656773
 21
146.4795323726
 72
1
 10
807.4979656773
 20
146.4795323726
 11
807.561035118
 21
146.2937181005
 72
1
 10
807.561035118
 20
146.2937181005
 11
807.5993136707
 21
146.101274815
 72
1
 10
807.5993136707
 20
146.101274815
 11
807.6121463787
 21
145.905500198
 72
1
 10
807.6121463787
 20
145.905500198
 11
804.6127516557
 21
121.146270007
 72
1
 10
804.6127516557
 20
121.146270007
 11
804.6121463757
 21
145.905500198
 72
1
 10
804.6121463757
 20
145.905500198
 11
804.6249790836
 21
146.101274815
 72
1
 10
804.6249790836
 20
146.101274815
 11
804.6632576363
 21
146.2937181005
 72
1
 10
804.6632576363
 20
146.2937181005
 11
804.726327077
 21
146.4795323726
 72
1
 10
804.726327077
 20
146.4795323726
 11
804.8131082702
 21
146.6554872493
 72
1
 10
804.8131082702
 20
146.6554872493
 11
804.9221163655
 21
146.8186551967
 72
1
 10
804.9221163655
 20
146.8186551967
 11
805.0514862043
 21
146.9661759807
 72
1
 10
805.0514862043
 20
146.9661759807
 11
805.1990042327
 21
147.0955258652
 72
1
 10
805.1990042327
 20
147.0955258652
 11
805.3621463764
 21
147.2045512621
 72
1
 10
805.3621463764
 20
147.2045512621
 11
805.538121228
 21
147.291334132
 72
1
 10
805.538121228
 20
147.291334132
 11
805.7239178091
 21
147.3543938832
 72
1
 10
805.7239178091
 20
147.3543938832
 11
805.9163570886
 21
147.3926537216
 72
1
 10
805.9163570886
 20
147.3926537216
 11
806.1121463772
 21
147.4055079505
 97
1
330
335
 75
0
 76
1
 98
1
 10
0.0
 20
0.0
  0
LWPOLYLINE
  5
337
100
AcDbEntity
  8
ALL_DETAIL_ITEM
100
AcDbPolyline
 62
4
  6
CONTINUOUS
 90
50
 70
0
 10
841.0153672782
 20
147.4055079505
 10
841.2111565667
 20
147.3926537216
 10
841.4035958462
 20
147.3543938832
 10
841.5893924273
 20
147.291334132
 10
841.7653672789
 20
147.2045512621
 10
841.9285094226
 20
147.0955258652
 10
842.076027451
 20
146.9661759807
 10
842.2053972898
 20
146.8186551967
 10
842.3144053851
 20
146.6554872493
 10
842.4011865783
 20
146.4795323726
 10
842.4642560191
 20
146.2937181005
 10
842.5025345717
 20
146.101274815
 10
842.5153672797
 20
145.905500198
 10
842.5147619964
 20
121.146270007
 10
842.4919444902
 20
120.6236547479
 10
842.4236909737
 20
120.1049765171
 10
842.3105202813
 20
119.5942732921
 10
842.1532926885
 20
119.0953138521
 10
841.953203373
 20
118.6119679258
 10
841.7117733291
 20
118.1479033429
 10
836.4168338402
 20
117.8584139942
 10
836.831126052
 20
117.995839834
 10
837.236714676
 20
118.1571906915
 10
837.6322241975
 20
118.34186087
 10
838.016313284
 20
118.5492446728
 10
838.2368313224
 20
118.6899008947
 10
838.4442589189
 20
118.8492327634
 10
838.6370192969
 20
119.0260288854
 10
838.8136471735
 20
119.2189432683
 10
838.9727998984
 20
119.42652897
 10
839.1132676601
 20
119.6471707995
 10
839.233982682
 20
119.879186266
 10
839.3340273397
 20
120.1208592292
 10
839.412641136
 20
120.3703389492
 10
839.4692264822
 20
120.6257073866
 10
839.5033532404
 20
120.8850128522
 10
839.5147619937
 20
121.1463373066
 10
839.5153672767
 20
145.905500198
 10
839.5281999846
 20
146.101274815
 10
839.5664785373
 20
146.2937181005
 10
839.629547978
 20
146.4795323726
 10
839.7163291712
 20
146.6554872493
 10
839.8253372665
 20
146.8186551967
 10
839.9547071053
 20
146.9661759807
 10
840.1022251337
 20
147.0955258652
 10
840.2653672774
 20
147.2045512621
 10
840.441342129
 20
147.291334132
 10
840.6271387101
 20
147.3543938832
 10
840.8195779896
 20
147.3926537216
 10
841.0153672782
 20
147.4055079505
  0
HATCH
  5
338
100
AcDbEntity
  8
ALL_DETAIL_ITEM
100
AcDbHatch
 62
4
  6
CONTINUOUS
 10
0.0
 20
0.0
 30
0.0
210
0.0
220
0.0
230
1.0
  2
SOLID
 70
1
 71
1
 91
1
 92
1
 93
49
 72
1
 10
841.0153672782
 20
147.4055079505
 11
841.2111565667
 21
147.3926537216
 72
1
 10
841.2111565667
 20
147.3926537216
 11
841.4035958462
 21
147.3543938832
 72
1
 10
841.4035958462
 20
147.3543938832
 11
841.5893924273
 21
147.291334132
 72
1
 10
841.5893924273
 20
147.291334132
 11
841.7653672789
 21
147.2045512621
 72
1
 10
841.7653672789
 20
147.2045512621
 11
841.9285094226
 21
147.0955258652
 72
1
 10
841.9285094226
 20
147.0955258652
 11
842.076027451
 21
146.9661759807
 72
1
 10
842.076027451
 20
146.9661759807
 11
842.2053972898
 21
146.8186551967
 72
1
 10
842.2053972898
 20
146.8186551967
 11
842.3144053851
 21
146.6554872493
 72
1
 10
842.3144053851
 20
146.6554872493
 11
842.4011865783
 21
146.4795323726
 72
1
 10
842.4011865783
 20
146.4795323726
 11
842.4642560191
 21
146.2937181005
 72
1
 10
842.4642560191
 20
146.2937181005
 11
842.5025345717
 21
146.101274815
 72
1
 10
842.5025345717
 20
146.101274815
 11
842.5153672797
 21
145.905500198
 72
1
 10
842.5153672797
 20
145.905500198
 11
842.5147619964
 21
121.146270007
 72
1
 10
842.5147619964
 20
121.146270007
 11
842.4919444902
 21
120.6236547479
 72
1
 10
842.4919444902
 20
120.6236547479
 11
842.4236909737
 21
120.1049765171
 72
1
 10
842.4236909737
 20
120.1049765171
 11
842.3105202813
 21
119.5942732921
 72
1
 10
842.3105202813
 20
119.5942732921
 11
842.1532926885
 21
119.0953138521
 72
1
 10
842.1532926885
 20
119.0953138521
 11
841.953203373
 21
118.6119679258
 72
1
 10
841.953203373
 20
118.6119679258
 11
841.7117733291
 21
118.1479033429
 72
1
 10
841.7117733291
 20
118.1479033429
 11
836.4168338402
 21
117.8584139942
 72
1
 10
836.4168338402
 20
117.8584139942
 11
836.831126052
 21
117.995839834
 72
1
 10
836.831126052
 20
117.995839834
 11
837.236714676
 21
118.1571906915
 72
1
 10
837.236714676
 20
118.1571906915
 11
837.6322241975
 21
118.34186087
 72
1
 10
837.6322241975
 20
118.34186087
 11
838.016313284
 21
118.5492446728
 72
1
 10
838.016313284
 20
118.5492446728
 11
838.2368313224
 21
118.6899008947
 72
1
 10
838.2368313224
 20
118.6899008947
 11
838.4442589189
 21
118.8492327634
 72
1
 10
838.4442589189
 20
118.8492327634
 11
838.6370192969
 21
119.0260288854
 72
1
 10
838.6370192969
 20
119.0260288854
 11
838.8136471735
 21
119.2189432683
 72
1
 10
838.8136471735
 20
119.2189432683
 11
838.9727998984
 21
119.42652897
 72
1
 10
838.9727998984
 20
119.42652897
 11
839.1132676601
 21
119.6471707995
 72
1
 10
839.1132676601
 20
119.6471707995
 11
839.233982682
 21
119.879186266
 72
1
 10
839.233982682
 20
119.879186266
 11
839.3340273397
 21
120.1208592292
 72
1
 10
839.3340273397
 20
120.1208592292
 11
839.412641136
 21
120.3703389492
 72
1
 10
839.412641136
 20
120.3703389492
 11
839.4692264822
 21
120.6257073866
 72
1
 10
839.4692264822
 20
120.6257073866
 11
839.5033532404
 21
120.8850128522
 72
1
 10
839.5033532404
 20
120.8850128522
 11
839.5147619937
 21
121.1463373066
 72
1
 10
839.5147619937
 20
121.1463373066
 11
839.5153672767
 21
145.905500198
 72
1
 10
839.5153672767
 20
145.905500198
 11
839.5281999846
 21
146.101274815
 72
1
 10
839.5281999846
 20
146.101274815
 11
839.5664785373
 21
146.2937181005
 72
1
 10
839.5664785373
 20
146.2937181005
 11
839.629547978
 21
146.4795323726
 72
1
 10
839.629547978
 20
146.4795323726
 11
839.7163291712
 21
146.6554872493
 72
1
 10
839.7163291712
 20
146.6554872493
 11
839.8253372665
 21
146.8186551967
 72
1
 10
839.8253372665
 20
146.8186551967
 11
839.9547071053
 21
146.9661759807
 72
1
 10
839.9547071053
 20
146.9661759807
 11
840.1022251337
 21
147.0955258652
 72
1
 10
840.1022251337
 20
147.0955258652
 11
840.2653672774
 21
147.2045512621
 72
1
 10
840.2653672774
 20
147.2045512621
 11
840.441342129
 21
147.291334132
 72
1
 10
840.441342129
 20
147.291334132
 11
840.6271387101
 21
147.3543938832
 72
1
 10
840.6271387101
 20
147.3543938832
 11
840.8195779896
 21
147.3926537216
 72
1
 10
840.8195779896
 20
147.3926537216
 11
841.0153672782
 21
147.4055079505
 97
1
330
337
 75
0
 76
1
 98
1
 10
0.0
 20
0.0
  0
LWPOLYLINE
  5
339
100
AcDbEntity
  8
ALL_DETAIL_ITEM
100
AcDbPolyline
 62
4
  6
CONTINUOUS
 90
27
 70
0
 10
690.7073405247
 20
147.3790009209
 10
690.9031298132
 20
147.3661713181
 10
691.0955690927
 20
147.3278778299
 10
691.2813656738
 20
147.2648180787
 10
691.4573405254
 20
147.1780352088
 10
691.6204826691
 20
147.0690434617
 10
691.7680006975
 20
146.9396599274
 10
691.8973705363
 20
146.7921391434
 10
692.0063786316
 20
146.6290048458
 10
692.0931598248
 20
146.4530163193
 10
692.1562292655
 20
146.267235697
 10
692.1945078182
 20
146.0747924115
 10
692.2073405262
 20
145.8789841446
 10
689.2073405232
 20
116.0322049461
 10
689.2073405232
 20
145.8789841446
 10
689.2201732311
 20
146.0747924115
 10
689.2584517838
 20
146.267235697
 10
689.3215212245
 20
146.4530163193
 10
689.4083024177
 20
146.6290048458
 10
689.517310513
 20
146.7921391434
 10
689.6466803518
 20
146.9396599274
 10
689.7941983802
 20
147.0690434617
 10
689.9573405239
 20
147.1780352088
 10
690.1333153755
 20
147.2648180787
 10
690.3191119566
 20
147.3278778299
 10
690.5115512361
 20
147.3661713181
 10
690.7073405247
 20
147.3790009209
  0
HATCH
  5
33A
100
AcDbEntity
  8
ALL_DETAIL_ITEM
100
AcDbHatch
 62
4
  6
CONTINUOUS
 10
0.0
 20
0.0
 30
0.0
210
0.0
220
0.0
230
1.0
  2
SOLID
 70
1
 71
1
 91
1
 92
1
 93
26
 72
1
 10
690.7073405247
 20
147.3790009209
 11
690.9031298132
 21
147.3661713181
 72
1
 10
690.9031298132
 20
147.3661713181
 11
691.0955690927
 21
147.3278778299
 72
1
 10
691.0955690927
 20
147.3278778299
 11
691.2813656738
 21
147.2648180787
 72
1
 10
691.2813656738
 20
147.2648180787
 11
691.4573405254
 21
147.1780352088
 72
1
 10
691.4573405254
 20
147.1780352088
 11
691.6204826691
 21
147.0690434617
 72
1
 10
691.6204826691
 20
147.0690434617
 11
691.7680006975
 21
146.9396599274
 72
1
 10
691.7680006975
 20
146.9396599274
 11
691.8973705363
 21
146.7921391434
 72
1
 10
691.8973705363
 20
146.7921391434
 11
692.0063786316
 21
146.6290048458
 72
1
 10
692.0063786316
 20
146.6290048458
 11
692.0931598248
 21
146.4530163193
 72
1
 10
692.0931598248
 20
146.4530163193
 11
692.1562292655
 21
146.267235697
 72
1
 10
692.1562292655
 20
146.267235697
 11
692.1945078182
 21
146.0747924115
 72
1
 10
692.1945078182
 20
146.0747924115
 11
692.2073405262
 21
145.8789841446
 72
1
 10
692.2073405262
 20
145.8789841446
 11
689.2073405232
 21
116.0322049461
 72
1
 10
689.2073405232
 20
116.0322049461
 11
689.2073405232
 21
145.8789841446
 72
1
 10
689.2073405232
 20
145.8789841446
 11
689.2201732311
 21
146.0747924115
 72
1
 10
689.2201732311
 20
146.0747924115
 11
689.2584517838
 21
146.267235697
 72
1
 10
689.2584517838
 20
146.267235697
 11
689.3215212245
 21
146.4530163193
 72
1
 10
689.3215212245
 20
146.4530163193
 11
689.4083024177
 21
146.6290048458
 72
1
 10
689.4083024177
 20
146.6290048458
 11
689.517310513
 21
146.7921391434
 72
1
 10
689.517310513
 20
146.7921391434
 11
689.6466803518
 21
146.9396599274
 72
1
 10
689.6466803518
 20
146.9396599274
 11
689.7941983802
 21
147.0690434617
 72
1
 10
689.7941983802
 20
147.0690434617
 11
689.9573405239
 21
147.1780352088
 72
1
 10
689.9573405239
 20
147.1780352088
 11
690.1333153755
 21
147.2648180787
 72
1
 10
690.1333153755
 20
147.2648180787
 11
690.3191119566
 21
147.3278778299
 72
1
 10
690.3191119566
 20
147.3278778299
 11
690.5115512361
 21
147.3661713181
 72
1
 10
690.5115512361
 20
147.3661713181
 11
690.7073405247
 21
147.3790009209
 97
1
330
339
 75
0
 76
1
 98
1
 10
0.0
 20
0.0
  0
LWPOLYLINE
  5
33B
100
AcDbEntity
  8
ALL_DETAIL_ITEM
100
AcDbPolyline
 62
4
  6
CONTINUOUS
 90
32
 70
0
 10
764.2264062287
 20
146.9395612997
 10
764.3832024274
 20
146.9477695325
 10
794.481351016
 20
146.9467943034
 10
794.6771398869
 20
146.9339552245
 10
794.8695779207
 20
146.8956704099
 10
795.0553724494
 20
146.8325949234
 10
795.2313444771
 20
146.745808004
 10
795.3944830736
 20
146.6367946001
 10
795.5419968922
 20
146.5074199612
 10
795.6713619307
 20
146.3598977231
 10
795.7803647174
 20
146.1967520324
 10
795.8671401843
 20
146.0207743571
 10
795.9302035792
 20
145.8349757238
 10
795.9684758699
 20
145.6425351988
 10
795.9813022069
 20
145.4467454928
 10
765.8831536159
 20
143.9477248817
 10
762.8831536159
 20
116.0357954544
 10
762.8831536159
 20
145.44776178
 10
762.891371113
 20
145.6045696251
 10
762.9159335679
 20
145.7596475962
 10
762.9565718582
 20
145.9113084701
 10
763.0128407237
 20
146.0578905498
 10
763.0841236455
 20
146.1977824812
 10
763.1696396006
 20
146.3294673684
 10
763.2684516196
 20
146.4514865316
 10
763.3794770525
 20
146.5625083518
 10
763.5014994311
 20
146.6613164003
 10
763.6331817972
 20
146.7468128441
 10
763.7730813517
 20
146.81810644
 10
763.9196652623
 20
146.8743705358
 10
764.0713274585
 20
146.915003891
 10
764.2264062287
 20
146.9395612997
  0
HATCH
  5
33C
100
AcDbEntity
  8
ALL_DETAIL_ITEM
100
AcDbHatch
 62
4
  6
CONTINUOUS
 10
0.0
 20
0.0
 30
0.0
210
0.0
220
0.0
230
1.0
  2
SOLID
 70
1
 71
1
 91
1
 92
1
 93
31
 72
1
 10
764.2264062287
 20
146.9395612997
 11
764.3832024274
 21
146.9477695325
 72
1
 10
764.3832024274
 20
146.9477695325
 11
794.481351016
 21
146.9467943034
 72
1
 10
794.481351016
 20
146.9467943034
 11
794.6771398869
 21
146.9339552245
 72
1
 10
794.6771398869
 20
146.9339552245
 11
794.8695779207
 21
146.8956704099
 72
1
 10
794.8695779207
 20
146.8956704099
 11
795.0553724494
 21
146.8325949234
 72
1
 10
795.0553724494
 20
146.8325949234
 11
795.2313444771
 21
146.745808004
 72
1
 10
795.2313444771
 20
146.745808004
 11
795.3944830736
 21
146.6367946001
 72
1
 10
795.3944830736
 20
146.6367946001
 11
795.5419968922
 21
146.5074199612
 72
1
 10
795.5419968922
 20
146.5074199612
 11
795.6713619307
 21
146.3598977231
 72
1
 10
795.6713619307
 20
146.3598977231
 11
795.7803647174
 21
146.1967520324
 72
1
 10
795.7803647174
 20
146.1967520324
 11
795.8671401843
 21
146.0207743571
 72
1
 10
795.8671401843
 20
146.0207743571
 11
795.9302035792
 21
145.8349757238
 72
1
 10
795.9302035792
 20
145.8349757238
 11
795.9684758699
 21
145.6425351988
 72
1
 10
795.9684758699
 20
145.6425351988
 11
795.9813022069
 21
145.4467454928
 72
1
 10
795.9813022069
 20
145.4467454928
 11
765.8831536159
 21
143.9477248817
 72
1
 10
765.8831536159
 20
143.9477248817
 11
762.8831536159
 21
116.0357954544
 72
1
 10
762.8831536159
 20
116.0357954544
 11
762.8831536159
 21
145.44776178
 72
1
 10
762.8831536159
 20
145.44776178
 11
762.891371113
 21
145.6045696251
 72
1
 10
762.891371113
 20
145.6045696251
 11
762.9159335679
 21
145.7596475962
 72
1
 10
762.9159335679
 20
145.7596475962
 11
762.9565718582
 21
145.9113084701
 72
1
 10
762.9565718582
 20
145.9113084701
 11
763.0128407237
 21
146.0578905498
 72
1
 10
763.0128407237
 20
146.0578905498
 11
763.0841236455
 21
146.1977824812
 72
1
 10
763.0841236455
 20
146.1977824812
 11
763.1696396006
 21
146.3294673684
 72
1
 10
763.1696396006
 20
146.3294673684
 11
763.2684516196
 21
146.4514865316
 72
1
 10
763.2684516196
 20
146.4514865316
 11
763.3794770525
 21
146.5625083518
 72
1
 10
763.3794770525
 20
146.5625083518
 11
763.5014994311
 21
146.6613164003
 72
1
 10
763.5014994311
 20
146.6613164003
 11
763.6331817972
 21
146.7468128441
 72
1
 10
763.6331817972
 20
146.7468128441
 11
763.7730813517
 21
146.81810644
 72
1
 10
763.7730813517
 20
146.81810644
 11
763.9196652623
 21
146.8743705358
 72
1
 10
763.9196652623
 20
146.8743705358
 11
764.0713274585
 21
146.915003891
 72
1
 10
764.0713274585
 20
146.915003891
 11
764.2264062287
 21
146.9395612997
 97
1
330
33B
 75
0
 76
1
 98
1
 10
0.0
 20
0.0
  0
LWPOLYLINE
  5
33D
100
AcDbEntity
  8
ALL_DETAIL_ITEM
100
AcDbPolyline
 62
4
  6
CONTINUOUS
 90
13
 70
0
 10
886.9096806242
 20
146.9349415807
 10
887.1021199037
 20
146.896663028
 10
887.2879164848
 20
146.8335935873
 10
887.4638913364
 20
146.7468128441
 10
887.6270334801
 20
146.6378042988
 10
857.0252344657
 20
146.5066693437
 10
857.6151985262
 20
146.6647487592
 10
858.2133559189
 20
146.7882575755
 10
858.8176826926
 20
146.876777883
 10
859.4261340209
 20
146.9300101604
 10
860.0366511214
 20
146.9477695325
 10
886.7138913357
 20
146.9477695325
 10
886.9096806242
 20
146.9349415807
  0
HATCH
  5
33E
100
AcDbEntity
  8
ALL_DETAIL_ITEM
100
AcDbHatch
 62
4
  6
CONTINUOUS
 10
0.0
 20
0.0
 30
0.0
210
0.0
220
0.0
230
1.0
  2
SOLID
 70
1
 71
1
 91
1
 92
1
 93
12
 72
1
 10
886.9096806242
 20
146.9349415807
 11
887.1021199037
 21
146.896663028
 72
1
 10
887.1021199037
 20
146.896663028
 11
887.2879164848
 21
146.8335935873
 72
1
 10
887.2879164848
 20
146.8335935873
 11
887.4638913364
 21
146.7468128441
 72
1
 10
887.4638913364
 20
146.7468128441
 11
887.6270334801
 21
146.6378042988
 72
1
 10
887.6270334801
 20
146.6378042988
 11
857.0252344657
 21
146.5066693437
 72
1
 10
857.0252344657
 20
146.5066693437
 11
857.6151985262
 21
146.6647487592
 72
1
 10
857.6151985262
 20
146.6647487592
 11
858.2133559189
 21
146.7882575755
 72
1
 10
858.2133559189
 20
146.7882575755
 11
858.8176826926
 21
146.876777883
 72
1
 10
858.8176826926
 20
146.876777883
 11
859.4261340209
 21
146.9300101604
 72
1
 10
859.4261340209
 20
146.9300101604
 11
860.0366511214
 21
146.9477695325
 72
1
 10
860.0366511214
 20
146.9477695325
 11
886.7138913357
 21
146.9477695325
 72
1
 10
886.7138913357
 20
146.9477695325
 11
886.9096806242
 21
146.9349415807
 97
1
330
33D
 75
0
 76
1
 98
1
 10
0.0
 20
0.0
  0
LWPOLYLINE
  5
33F
100
AcDbEntity
  8
ALL_DETAIL_ITEM
100
AcDbPolyline
 62
4
  6
CONTINUOUS
 90
10
 70
0
 10
887.7745515085
 20
146.50843446
 10
887.9039213473
 20
146.3609164316
 10
888.0129294426
 20
146.1977824812
 10
888.0997106358
 20
146.0217994363
 10
855.3242855314
 20
145.8309299708
 10
855.8778367759
 20
146.0890534178
 10
856.4454599655
 20
146.3145542136
 10
857.0252344657
 20
146.5066693437
 10
887.6270334801
 20
146.6378042988
 10
887.7745515085
 20
146.50843446
  0
HATCH
  5
340
100
AcDbEntity
  8
ALL_DETAIL_ITEM
100
AcDbHatch
 62
4
  6
CONTINUOUS
 10
0.0
 20
0.0
 30
0.0
210
0.0
220
0.0
230
1.0
  2
SOLID
 70
1
 71
1
 91
1
 92
1
 93
9
 72
1
 10
887.7745515085
 20
146.50843446
 11
887.9039213473
 21
146.3609164316
 72
1
 10
887.9039213473
 20
146.3609164316
 11
888.0129294426
 21
146.1977824812
 72
1
 10
888.0129294426
 20
146.1977824812
 11
888.0997106358
 21
146.0217994363
 72
1
 10
888.0997106358
 20
146.0217994363
 11
855.3242855314
 21
145.8309299708
 72
1
 10
855.3242855314
 20
145.8309299708
 11
855.8778367759
 21
146.0890534178
 72
1
 10
855.8778367759
 20
146.0890534178
 11
856.4454599655
 21
146.3145542136
 72
1
 10
856.4454599655
 20
146.3145542136
 11
857.0252344657
 21
146.5066693437
 72
1
 10
857.0252344657
 20
146.5066693437
 11
887.6270334801
 21
146.6378042988
 72
1
 10
887.6270334801
 20
146.6378042988
 11
887.7745515085
 21
146.50843446
 97
1
330
33F
 75
0
 76
1
 98
1
 10
0.0
 20
0.0
  0
LWPOLYLINE
  5
341
100
AcDbEntity
  8
ALL_DETAIL_ITEM
100
AcDbPolyline
 62
4
  6
CONTINUOUS
 90
10
 70
0
 10
888.1627800766
 20
145.8360028552
 10
888.2010586292
 20
145.6435635757
 10
888.2138913372
 20
145.44776178
 10
888.2010586292
 20
145.2519849986
 10
853.9299493677
 20
144.9411721677
 10
854.3452184966
 20
145.2598175915
 10
854.7866792522
 20
145.5410572701
 10
855.3242855314
 20
145.8309299708
 10
888.0997106358
 20
146.0217994363
 10
888.1627800766
 20
145.8360028552
  0
HATCH
  5
342
100
AcDbEntity
  8
ALL_DETAIL_ITEM
100
AcDbHatch
 62
4
  6
CONTINUOUS
 10
0.0
 20
0.0
 30
0.0
210
0.0
220
0.0
230
1.0
  2
SOLID
 70
1
 71
1
 91
1
 92
1
 93
9
 72
1
 10
888.1627800766
 20
145.8360028552
 11
888.2010586292
 21
145.6435635757
 72
1
 10
888.2010586292
 20
145.6435635757
 11
888.2138913372
 21
145.44776178
 72
1
 10
888.2138913372
 20
145.44776178
 11
888.2010586292
 21
145.2519849986
 72
1
 10
888.2010586292
 20
145.2519849986
 11
853.9299493677
 21
144.9411721677
 72
1
 10
853.9299493677
 20
144.9411721677
 11
854.3452184966
 21
145.2598175915
 72
1
 10
854.3452184966
 20
145.2598175915
 11
854.7866792522
 21
145.5410572701
 72
1
 10
854.7866792522
 20
145.5410572701
 11
855.3242855314
 21
145.8309299708
 72
1
 10
855.3242855314
 20
145.8309299708
 11
888.0997106358
 21
146.0217994363
 72
1
 10
888.0997106358
 20
146.0217994363
 11
888.1627800766
 21
145.8360028552
 97
1
330
341
 75
0
 76
1
 98
1
 10
0.0
 20
0.0
  0
LWPOLYLINE
  5
343
100
AcDbEntity
  8
ALL_DETAIL_ITEM
100
AcDbPolyline
 62
4
  6
CONTINUOUS
 90
6
 70
0
 10
888.1627800766
 20
145.0595457191
 10
888.0997106358
 20
144.873749138
 10
853.544032333
 20
144.587546097
 10
853.9299493677
 20
144.9411721677
 10
888.2010586292
 20
145.2519849986
 10
888.1627800766
 20
145.0595457191
  0
HATCH
  5
344
100
AcDbEntity
  8
ALL_DETAIL_ITEM
100
AcDbHatch
 62
4
  6
CONTINUOUS
 10
0.0
 20
0.0
 30
0.0
210
0.0
220
0.0
230
1.0
  2
SOLID
 70
1
 71
1
 91
1
 92
1
 93
5
 72
1
 10
888.1627800766
 20
145.0595457191
 11
888.0997106358
 21
144.873749138
 72
1
 10
888.0997106358
 20
144.873749138
 11
853.544032333
 21
144.587546097
 72
1
 10
853.544032333
 20
144.587546097
 11
853.9299493677
 21
144.9411721677
 72
1
 10
853.9299493677
 20
144.9411721677
 11
888.2010586292
 21
145.2519849986
 72
1
 10
888.2010586292
 20
145.2519849986
 11
888.1627800766
 21
145.0595457191
 97
1
330
343
 75
0
 76
1
 98
1
 10
0.0
 20
0.0
  0
LWPOLYLINE
  5
345
100
AcDbEntity
  8
ALL_DETAIL_ITEM
100
AcDbPolyline
 62
4
  6
CONTINUOUS
 90
6
 70
0
 10
888.0129294426
 20
144.6977742864
 10
887.9039213473
 20
144.5346321427
 10
853.1904044714
 20
144.2016307033
 10
853.544032333
 20
144.587546097
 10
888.0997106358
 20
144.873749138
 10
888.0129294426
 20
144.6977742864
  0
HATCH
  5
346
100
AcDbEntity
  8
ALL_DETAIL_ITEM
100
AcDbHatch
 62
4
  6
CONTINUOUS
 10
0.0
 20
0.0
 30
0.0
210
0.0
220
0.0
230
1.0
  2
SOLID
 70
1
 71
1
 91
1
 92
1
 93
5
 72
1
 10
888.0129294426
 20
144.6977742864
 11
887.9039213473
 21
144.5346321427
 72
1
 10
887.9039213473
 20
144.5346321427
 11
853.1904044714
 21
144.2016307033
 72
1
 10
853.1904044714
 20
144.2016307033
 11
853.544032333
 21
144.587546097
 72
1
 10
853.544032333
 20
144.587546097
 11
888.0997106358
 21
144.873749138
 72
1
 10
888.0997106358
 20
144.873749138
 11
888.0129294426
 21
144.6977742864
 97
1
330
345
 75
0
 76
1
 98
1
 10
0.0
 20
0.0
  0
LWPOLYLINE
  5
347
100
AcDbEntity
  8
ALL_DETAIL_ITEM
100
AcDbPolyline
 62
4
  6
CONTINUOUS
 90
8
 70
0
 10
887.6270334801
 20
144.2577442755
 10
887.4638913364
 20
144.1487361802
 10
860.0366511214
 20
143.9477876773
 10
852.8717571204
 20
143.7863630531
 10
853.1904044714
 20
144.2016307033
 10
887.9039213473
 20
144.5346321427
 10
887.7745515085
 20
144.3871141143
 10
887.6270334801
 20
144.2577442755
  0
HATCH
  5
348
100
AcDbEntity
  8
ALL_DETAIL_ITEM
100
AcDbHatch
 62
4
  6
CONTINUOUS
 10
0.0
 20
0.0
 30
0.0
210
0.0
220
0.0
230
1.0
  2
SOLID
 70
1
 71
1
 91
1
 92
1
 93
7
 72
1
 10
887.6270334801
 20
144.2577442755
 11
887.4638913364
 21
144.1487361802
 72
1
 10
887.4638913364
 20
144.1487361802
 11
860.0366511214
 21
143.9477876773
 72
1
 10
860.0366511214
 20
143.9477876773
 11
852.8717571204
 21
143.7863630531
 72
1
 10
852.8717571204
 20
143.7863630531
 11
853.1904044714
 21
144.2016307033
 72
1
 10
853.1904044714
 20
144.2016307033
 11
887.9039213473
 21
144.5346321427
 72
1
 10
887.9039213473
 20
144.5346321427
 11
887.7745515085
 21
144.3871141143
 72
1
 10
887.7745515085
 20
144.3871141143
 11
887.6270334801
 21
144.2577442755
 97
1
330
347
 75
0
 76
1
 98
1
 10
0.0
 20
0.0
  0
LWPOLYLINE
  5
349
100
AcDbEntity
  8
ALL_DETAIL_ITEM
100
AcDbPolyline
 62
4
  6
CONTINUOUS
 90
7
 70
0
 10
886.9096806242
 20
143.9606069936
 10
886.7138913357
 20
143.9477876773
 10
860.0366511214
 20
143.9477876773
 10
887.4638913364
 20
144.1487361802
 10
887.2879164848
 20
144.061954987
 10
887.1021199037
 20
143.9988855463
 10
886.9096806242
 20
143.9606069936
  0
HATCH
  5
34A
100
AcDbEntity
  8
ALL_DETAIL_ITEM
100
AcDbHatch
 62
4
  6
CONTINUOUS
 10
0.0
 20
0.0
 30
0.0
210
0.0
220
0.0
230
1.0
  2
SOLID
 70
1
 71
1
 91
1
 92
1
 93
6
 72
1
 10
886.9096806242
 20
143.9606069936
 11
886.7138913357
 21
143.9477876773
 72
1
 10
886.7138913357
 20
143.9477876773
 11
860.0366511214
 21
143.9477876773
 72
1
 10
860.0366511214
 20
143.9477876773
 11
887.4638913364
 21
144.1487361802
 72
1
 10
887.4638913364
 20
144.1487361802
 11
887.2879164848
 21
144.061954987
 72
1
 10
887.2879164848
 20
144.061954987
 11
887.1021199037
 21
143.9988855463
 72
1
 10
887.1021199037
 20
143.9988855463
 11
886.9096806242
 21
143.9606069936
 97
1
330
349
 75
0
 76
1
 98
1
 10
0.0
 20
0.0
  0
LWPOLYLINE
  5
34B
100
AcDbEntity
  8
ALL_DETAIL_ITEM
100
AcDbPolyline
 62
4
  6
CONTINUOUS
 90
15
 70
0
 10
794.6770431023
 20
143.9596206389
 10
794.4812533963
 20
143.946794302
 10
765.8831536159
 20
143.9477248817
 10
795.9813022069
 20
145.4467454928
 10
795.968463128
 20
145.250956622
 10
795.9301783134
 20
145.0585185881
 10
795.8671028269
 20
144.8727240594
 10
795.7803159075
 20
144.6967520317
 10
795.6713025036
 20
144.5336134353
 10
795.5419278647
 20
144.3860996166
 10
795.3944056266
 20
144.2567345781
 10
795.2312599359
 20
144.1477317915
 10
795.0552822606
 20
144.0609563245
 10
794.8694836273
 20
143.9978929296
 10
794.6770431023
 20
143.9596206389
  0
HATCH
  5
34C
100
AcDbEntity
  8
ALL_DETAIL_ITEM
100
AcDbHatch
 62
4
  6
CONTINUOUS
 10
0.0
 20
0.0
 30
0.0
210
0.0
220
0.0
230
1.0
  2
SOLID
 70
1
 71
1
 91
1
 92
1
 93
14
 72
1
 10
794.6770431023
 20
143.9596206389
 11
794.4812533963
 21
143.946794302
 72
1
 10
794.4812533963
 20
143.946794302
 11
765.8831536159
 21
143.9477248817
 72
1
 10
765.8831536159
 20
143.9477248817
 11
795.9813022069
 21
145.4467454928
 72
1
 10
795.9813022069
 20
145.4467454928
 11
795.968463128
 21
145.250956622
 72
1
 10
795.968463128
 20
145.250956622
 11
795.9301783134
 21
145.0585185881
 72
1
 10
795.9301783134
 20
145.0585185881
 11
795.8671028269
 21
144.8727240594
 72
1
 10
795.8671028269
 20
144.8727240594
 11
795.7803159075
 21
144.6967520317
 72
1
 10
795.7803159075
 20
144.6967520317
 11
795.6713025036
 21
144.5336134353
 72
1
 10
795.6713025036
 20
144.5336134353
 11
795.5419278647
 21
144.3860996166
 72
1
 10
795.5419278647
 20
144.3860996166
 11
795.3944056266
 21
144.2567345781
 72
1
 10
795.3944056266
 20
144.2567345781
 11
795.2312599359
 21
144.1477317915
 72
1
 10
795.2312599359
 20
144.1477317915
 11
795.0552822606
 21
144.0609563245
 72
1
 10
795.0552822606
 20
144.0609563245
 11
794.8694836273
 21
143.9978929296
 72
1
 10
794.8694836273
 20
143.9978929296
 11
794.6770431023
 21
143.9596206389
 97
1
330
34B
 75
0
 76
1
 98
1
 10
0.0
 20
0.0
  0
LWPOLYLINE
  5
34D
100
AcDbEntity
  8
ALL_DETAIL_ITEM
100
AcDbPolyline
 62
4
  6
CONTINUOUS
 90
8
 70
0
 10
858.7342974058
 20
143.8338337756
 10
858.3070421254
 20
143.7456131925
 10
852.5905153931
 20
143.3449036026
 10
852.8717571204
 20
143.7863630531
 10
860.0366511214
 20
143.9477876773
 10
859.6005674784
 20
143.9350856219
 10
859.1659593869
 20
143.8970625666
 10
858.7342974058
 20
143.8338337756
  0
HATCH
  5
34E
100
AcDbEntity
  8
ALL_DETAIL_ITEM
100
AcDbHatch
 62
4
  6
CONTINUOUS
 10
0.0
 20
0.0
 30
0.0
210
0.0
220
0.0
230
1.0
  2
SOLID
 70
1
 71
1
 91
1
 92
1
 93
7
 72
1
 10
858.7342974058
 20
143.8338337756
 11
858.3070421254
 21
143.7456131925
 72
1
 10
858.3070421254
 20
143.7456131925
 11
852.5905153931
 21
143.3449036026
 72
1
 10
852.5905153931
 20
143.3449036026
 11
852.8717571204
 21
143.7863630531
 72
1
 10
852.8717571204
 20
143.7863630531
 11
860.0366511214
 21
143.9477876773
 72
1
 10
860.0366511214
 20
143.9477876773
 11
859.6005674784
 21
143.9350856219
 72
1
 10
859.6005674784
 20
143.9350856219
 11
859.1659593869
 21
143.8970625666
 72
1
 10
859.1659593869
 20
143.8970625666
 11
858.7342974058
 21
143.8338337756
 97
1
330
34D
 75
0
 76
1
 98
1
 10
0.0
 20
0.0
  0
LWPOLYLINE
  5
34F
100
AcDbEntity
  8
ALL_DETAIL_ITEM
100
AcDbPolyline
 62
4
  6
CONTINUOUS
 90
7
 70
0
 10
857.4715145824
 20
143.4954742314
 10
857.0660694471
 20
143.3344022345
 10
852.3488197215
 20
142.8806121447
 10
852.5905153931
 20
143.3449036026
 10
858.3070421254
 20
143.7456131925
 10
857.8856392252
 20
143.6326993244
 10
857.4715145824
 20
143.4954742314
  0
HATCH
  5
350
100
AcDbEntity
  8
ALL_DETAIL_ITEM
100
AcDbHatch
 62
4
  6
CONTINUOUS
 10
0.0
 20
0.0
 30
0.0
210
0.0
220
0.0
230
1.0
  2
SOLID
 70
1
 71
1
 91
1
 92
1
 93
6
 72
1
 10
857.4715145824
 20
143.4954742314
 11
857.0660694471
 21
143.3344022345
 72
1
 10
857.0660694471
 20
143.3344022345
 11
852.3488197215
 21
142.8806121447
 72
1
 10
852.3488197215
 20
142.8806121447
 11
852.5905153931
 21
143.3449036026
 72
1
 10
852.5905153931
 20
143.3449036026
 11
858.3070421254
 21
143.7456131925
 72
1
 10
858.3070421254
 20
143.7456131925
 11
857.8856392252
 21
143.6326993244
 72
1
 10
857.8856392252
 20
143.6326993244
 11
857.4715145824
 21
143.4954742314
 97
1
330
34F
 75
0
 76
1
 98
1
 10
0.0
 20
0.0
  0
LWPOLYLINE
  5
351
100
AcDbEntity
  8
ALL_DETAIL_ITEM
100
AcDbPolyline
 62
4
  6
CONTINUOUS
 90
7
 70
0
 10
856.286671216
 20
142.9429764149
 10
856.0659408386
 20
142.8023565757
 10
852.1485095664
 20
142.3970222385
 10
852.3488197215
 20
142.8806121447
 10
857.0660694471
 20
143.3344022345
 10
856.6706757012
 20
143.1500283438
 10
856.286671216
 20
142.9429764149
  0
HATCH
  5
352
100
AcDbEntity
  8
ALL_DETAIL_ITEM
100
AcDbHatch
 62
4
  6
CONTINUOUS
 10
0.0
 20
0.0
 30
0.0
210
0.0
220
0.0
230
1.0
  2
SOLID
 70
1
 71
1
 91
1
 92
1
 93
6
 72
1
 10
856.286671216
 20
142.9429764149
 11
856.0659408386
 21
142.8023565757
 72
1
 10
856.0659408386
 20
142.8023565757
 11
852.1485095664
 21
142.3970222385
 72
1
 10
852.1485095664
 20
142.3970222385
 11
852.3488197215
 21
142.8806121447
 72
1
 10
852.3488197215
 20
142.8806121447
 11
857.0660694471
 21
143.3344022345
 72
1
 10
857.0660694471
 20
143.3344022345
 11
856.6706757012
 21
143.1500283438
 72
1
 10
856.6706757012
 20
143.1500283438
 11
856.286671216
 21
142.9429764149
 97
1
330
351
 75
0
 76
1
 98
1
 10
0.0
 20
0.0
  0
LWPOLYLINE
  5
353
100
AcDbEntity
  8
ALL_DETAIL_ITEM
100
AcDbPolyline
 62
4
  6
CONTINUOUS
 90
7
 70
0
 10
855.665347757
 20
142.4662208286
 10
855.4885338263
 20
142.2732631319
 10
851.9911094182
 20
141.897814317
 10
852.1485095664
 20
142.3970222385
 10
856.0659408386
 20
142.8023565757
 10
855.8583062743
 20
142.6430338638
 10
855.665347757
 20
142.4662208286
  0
HATCH
  5
354
100
AcDbEntity
  8
ALL_DETAIL_ITEM
100
AcDbHatch
 62
4
  6
CONTINUOUS
 10
0.0
 20
0.0
 30
0.0
210
0.0
220
0.0
230
1.0
  2
SOLID
 70
1
 71
1
 91
1
 92
1
 93
6
 72
1
 10
855.665347757
 20
142.4662208286
 11
855.4885338263
 21
142.2732631319
 72
1
 10
855.4885338263
 20
142.2732631319
 11
851.9911094182
 21
141.897814317
 72
1
 10
851.9911094182
 20
141.897814317
 11
852.1485095664
 21
142.3970222385
 72
1
 10
852.1485095664
 20
142.3970222385
 11
856.0659408386
 21
142.8023565757
 72
1
 10
856.0659408386
 20
142.8023565757
 11
855.8583062743
 21
142.6430338638
 72
1
 10
855.8583062743
 20
142.6430338638
 11
855.665347757
 21
142.4662208286
 97
1
330
353
 75
0
 76
1
 98
1
 10
0.0
 20
0.0
  0
LWPOLYLINE
  5
355
100
AcDbEntity
  8
ALL_DETAIL_ITEM
100
AcDbPolyline
 62
4
  6
CONTINUOUS
 90
6
 70
0
 10
855.3292101509
 20
142.0656293069
 10
855.1885892874
 20
141.8448995818
 10
851.8778171939
 20
141.3867876763
 10
851.9911094182
 20
141.897814317
 10
855.4885338263
 20
142.2732631319
 10
855.3292101509
 20
142.0656293069
  0
HATCH
  5
356
100
AcDbEntity
  8
ALL_DETAIL_ITEM
100
AcDbHatch
 62
4
  6
CONTINUOUS
 10
0.0
 20
0.0
 30
0.0
210
0.0
220
0.0
230
1.0
  2
SOLID
 70
1
 71
1
 91
1
 92
1
 93
5
 72
1
 10
855.3292101509
 20
142.0656293069
 11
855.1885892874
 21
141.8448995818
 72
1
 10
855.1885892874
 20
141.8448995818
 11
851.8778171939
 21
141.3867876763
 72
1
 10
851.8778171939
 20
141.3867876763
 11
851.9911094182
 21
141.897814317
 72
1
 10
851.9911094182
 20
141.897814317
 11
855.4885338263
 21
142.2732631319
 72
1
 10
855.4885338263
 20
142.2732631319
 11
855.3292101509
 21
142.0656293069
 97
1
330
355
 75
0
 76
1
 98
1
 10
0.0
 20
0.0
  0
LWPOLYLINE
  5
357
100
AcDbEntity
  8
ALL_DETAIL_ITEM
100
AcDbPolyline
 62
4
  6
CONTINUOUS
 90
6
 70
0
 10
855.0677414517
 20
141.612753853
 10
854.9675863742
 20
141.3709589001
 10
851.809495121
 20
140.8678315607
 10
851.8778171939
 20
141.3867876763
 10
855.1885892874
 20
141.8448995818
 10
855.0677414517
 20
141.612753853
  0
HATCH
  5
358
100
AcDbEntity
  8
ALL_DETAIL_ITEM
100
AcDbHatch
 62
4
  6
CONTINUOUS
 10
0.0
 20
0.0
 30
0.0
210
0.0
220
0.0
230
1.0
  2
SOLID
 70
1
 71
1
 91
1
 92
1
 93
5
 72
1
 10
855.0677414517
 20
141.612753853
 11
854.9675863742
 21
141.3709589001
 72
1
 10
854.9675863742
 20
141.3709589001
 11
851.809495121
 21
140.8678315607
 72
1
 10
851.809495121
 20
140.8678315607
 11
851.8778171939
 21
141.3867876763
 72
1
 10
851.8778171939
 20
141.3867876763
 11
855.1885892874
 21
141.8448995818
 72
1
 10
855.1885892874
 20
141.8448995818
 11
855.0677414517
 21
141.612753853
 97
1
330
357
 75
0
 76
1
 98
1
 10
0.0
 20
0.0
  0
LWPOLYLINE
  5
359
100
AcDbEntity
  8
ALL_DETAIL_ITEM
100
AcDbPolyline
 62
4
  6
CONTINUOUS
 90
6
 70
0
 10
854.8888863001
 20
141.1213549395
 10
854.832240188
 20
140.8658416193
 10
851.7866631747
 20
140.3449021072
 10
851.809495121
 20
140.8678315607
 10
854.9675863742
 20
141.3709589001
 10
854.8888863001
 20
141.1213549395
  0
HATCH
  5
35A
100
AcDbEntity
  8
ALL_DETAIL_ITEM
100
AcDbHatch
 62
4
  6
CONTINUOUS
 10
0.0
 20
0.0
 30
0.0
210
0.0
220
0.0
230
1.0
  2
SOLID
 70
1
 71
1
 91
1
 92
1
 93
5
 72
1
 10
854.8888863001
 20
141.1213549395
 11
854.832240188
 21
140.8658416193
 72
1
 10
854.832240188
 20
140.8658416193
 11
851.7866631747
 21
140.3449021072
 72
1
 10
851.7866631747
 20
140.3449021072
 11
851.809495121
 21
140.8678315607
 72
1
 10
851.809495121
 20
140.8678315607
 11
854.9675863742
 21
141.3709589001
 72
1
 10
854.9675863742
 20
141.3709589001
 11
854.8888863001
 21
141.1213549395
 97
1
330
359
 75
0
 76
1
 98
1
 10
0.0
 20
0.0
  0
LWPOLYLINE
  5
35B
100
AcDbEntity
  8
ALL_DETAIL_ITEM
100
AcDbPolyline
 62
4
  6
CONTINUOUS
 90
8
 70
0
 10
854.7980791516
 20
140.6063635617
 10
854.7866631784
 20
140.3449021072
 10
854.7866631784
 20
135.8426579619
 10
851.809495121
 20
135.3197207679
 10
851.7866631747
 20
135.8426579619
 10
851.7866631747
 20
140.3449021072
 10
854.832240188
 20
140.8658416193
 10
854.7980791516
 20
140.6063635617
  0
HATCH
  5
35C
100
AcDbEntity
  8
ALL_DETAIL_ITEM
100
AcDbHatch
 62
4
  6
CONTINUOUS
 10
0.0
 20
0.0
 30
0.0
210
0.0
220
0.0
230
1.0
  2
SOLID
 70
1
 71
1
 91
1
 92
1
 93
7
 72
1
 10
854.7980791516
 20
140.6063635617
 11
854.7866631784
 21
140.3449021072
 72
1
 10
854.7866631784
 20
140.3449021072
 11
854.7866631784
 21
135.8426579619
 72
1
 10
854.7866631784
 20
135.8426579619
 11
851.809495121
 21
135.3197207679
 72
1
 10
851.809495121
 20
135.3197207679
 11
851.7866631747
 21
135.8426579619
 72
1
 10
851.7866631747
 20
135.8426579619
 11
851.7866631747
 21
140.3449021072
 72
1
 10
851.7866631747
 20
140.3449021072
 11
854.832240188
 21
140.8658416193
 72
1
 10
854.832240188
 20
140.8658416193
 11
854.7980791516
 21
140.6063635617
 97
1
330
35B
 75
0
 76
1
 98
1
 10
0.0
 20
0.0
  0
LWPOLYLINE
  5
35D
100
AcDbEntity
  8
ALL_DETAIL_ITEM
100
AcDbPolyline
 62
4
  6
CONTINUOUS
 90
7
 70
0
 10
854.832240188
 20
135.3217107093
 10
854.8888863001
 20
135.0661973891
 10
851.8778171939
 20
134.8007646523
 10
851.809495121
 20
135.3197207679
 10
854.7866631784
 20
135.8426579619
 10
854.7980791516
 20
135.5811887669
 10
854.832240188
 20
135.3217107093
  0
HATCH
  5
35E
100
AcDbEntity
  8
ALL_DETAIL_ITEM
100
AcDbHatch
 62
4
  6
CONTINUOUS
 10
0.0
 20
0.0
 30
0.0
210
0.0
220
0.0
230
1.0
  2
SOLID
 70
1
 71
1
 91
1
 92
1
 93
6
 72
1
 10
854.832240188
 20
135.3217107093
 11
854.8888863001
 21
135.0661973891
 72
1
 10
854.8888863001
 20
135.0661973891
 11
851.8778171939
 21
134.8007646523
 72
1
 10
851.8778171939
 20
134.8007646523
 11
851.809495121
 21
135.3197207679
 72
1
 10
851.809495121
 20
135.3197207679
 11
854.7866631784
 21
135.8426579619
 72
1
 10
854.7866631784
 20
135.8426579619
 11
854.7980791516
 21
135.5811887669
 72
1
 10
854.7980791516
 20
135.5811887669
 11
854.832240188
 21
135.3217107093
 97
1
330
35D
 75
0
 76
1
 98
1
 10
0.0
 20
0.0
  0
LWPOLYLINE
  5
35F
100
AcDbEntity
  8
ALL_DETAIL_ITEM
100
AcDbPolyline
 62
4
  6
CONTINUOUS
 90
6
 70
0
 10
854.9675863742
 20
134.8165934285
 10
855.0677414517
 20
134.5747984756
 10
851.9911094182
 20
134.2897380116
 10
851.8778171939
 20
134.8007646523
 10
854.8888863001
 20
135.0661973891
 10
854.9675863742
 20
134.8165934285
  0
HATCH
  5
360
100
AcDbEntity
  8
ALL_DETAIL_ITEM
100
AcDbHatch
 62
4
  6
CONTINUOUS
 10
0.0
 20
0.0
 30
0.0
210
0.0
220
0.0
230
1.0
  2
SOLID
 70
1
 71
1
 91
1
 92
1
 93
5
 72
1
 10
854.9675863742
 20
134.8165934285
 11
855.0677414517
 21
134.5747984756
 72
1
 10
855.0677414517
 20
134.5747984756
 11
851.9911094182
 21
134.2897380116
 72
1
 10
851.9911094182
 20
134.2897380116
 11
851.8778171939
 21
134.8007646523
 72
1
 10
851.8778171939
 20
134.8007646523
 11
854.8888863001
 21
135.0661973891
 72
1
 10
854.8888863001
 20
135.0661973891
 11
854.9675863742
 21
134.8165934285
 97
1
330
35F
 75
0
 76
1
 98
1
 10
0.0
 20
0.0
  0
LWPOLYLINE
  5
361
100
AcDbEntity
  8
ALL_DETAIL_ITEM
100
AcDbPolyline
 62
4
  6
CONTINUOUS
 90
6
 70
0
 10
855.1885892874
 20
134.3426527468
 10
855.3292101509
 20
134.1219230217
 10
852.1485095664
 20
133.7905300901
 10
851.9911094182
 20
134.2897380116
 10
855.0677414517
 20
134.5747984756
 10
855.1885892874
 20
134.3426527468
  0
HATCH
  5
362
100
AcDbEntity
  8
ALL_DETAIL_ITEM
100
AcDbHatch
 62
4
  6
CONTINUOUS
 10
0.0
 20
0.0
 30
0.0
210
0.0
220
0.0
230
1.0
  2
SOLID
 70
1
 71
1
 91
1
 92
1
 93
5
 72
1
 10
855.1885892874
 20
134.3426527468
 11
855.3292101509
 21
134.1219230217
 72
1
 10
855.3292101509
 20
134.1219230217
 11
852.1485095664
 21
133.7905300901
 72
1
 10
852.1485095664
 20
133.7905300901
 11
851.9911094182
 21
134.2897380116
 72
1
 10
851.9911094182
 20
134.2897380116
 11
855.0677414517
 21
134.5747984756
 72
1
 10
855.0677414517
 20
134.5747984756
 11
855.1885892874
 21
134.3426527468
 97
1
330
361
 75
0
 76
1
 98
1
 10
0.0
 20
0.0
  0
LWPOLYLINE
  5
363
100
AcDbEntity
  8
ALL_DETAIL_ITEM
100
AcDbPolyline
 62
4
  6
CONTINUOUS
 90
6
 70
0
 10
855.4885338263
 20
133.9142891967
 10
855.665347757
 20
133.7213315
 10
852.3488197215
 20
133.3069401839
 10
852.1485095664
 20
133.7905300901
 10
855.3292101509
 20
134.1219230217
 10
855.4885338263
 20
133.9142891967
  0
HATCH
  5
364
100
AcDbEntity
  8
ALL_DETAIL_ITEM
100
AcDbHatch
 62
4
  6
CONTINUOUS
 10
0.0
 20
0.0
 30
0.0
210
0.0
220
0.0
230
1.0
  2
SOLID
 70
1
 71
1
 91
1
 92
1
 93
5
 72
1
 10
855.4885338263
 20
133.9142891967
 11
855.665347757
 21
133.7213315
 72
1
 10
855.665347757
 20
133.7213315
 11
852.3488197215
 21
133.3069401839
 72
1
 10
852.3488197215
 20
133.3069401839
 11
852.1485095664
 21
133.7905300901
 72
1
 10
852.1485095664
 20
133.7905300901
 11
855.3292101509
 21
134.1219230217
 72
1
 10
855.3292101509
 20
134.1219230217
 11
855.4885338263
 21
133.9142891967
 97
1
330
363
 75
0
 76
1
 98
1
 10
0.0
 20
0.0
  0
LWPOLYLINE
  5
365
100
AcDbEntity
  8
ALL_DETAIL_ITEM
100
AcDbPolyline
 62
4
  6
CONTINUOUS
 90
7
 70
0
 10
856.0659408386
 20
133.3851957529
 10
856.2866712163
 20
133.2445759137
 10
852.5905153931
 20
132.842648726
 10
852.3488197215
 20
133.3069401839
 10
855.665347757
 20
133.7213315
 10
855.8583062743
 20
133.5445184647
 10
856.0659408386
 20
133.3851957529
  0
HATCH
  5
366
100
AcDbEntity
  8
ALL_DETAIL_ITEM
100
AcDbHatch
 62
4
  6
CONTINUOUS
 10
0.0
 20
0.0
 30
0.0
210
0.0
220
0.0
230
1.0
  2
SOLID
 70
1
 71
1
 91
1
 92
1
 93
6
 72
1
 10
856.0659408386
 20
133.3851957529
 11
856.2866712163
 21
133.2445759137
 72
1
 10
856.2866712163
 20
133.2445759137
 11
852.5905153931
 21
132.842648726
 72
1
 10
852.5905153931
 20
132.842648726
 11
852.3488197215
 21
133.3069401839
 72
1
 10
852.3488197215
 20
133.3069401839
 11
855.665347757
 21
133.7213315
 72
1
 10
855.665347757
 20
133.7213315
 11
855.8583062743
 21
133.5445184647
 72
1
 10
855.8583062743
 20
133.5445184647
 11
856.0659408386
 21
133.3851957529
 97
1
330
365
 75
0
 76
1
 98
1
 10
0.0
 20
0.0
  0
LWPOLYLINE
  5
367
100
AcDbEntity
  8
ALL_DETAIL_ITEM
100
AcDbPolyline
 62
4
  6
CONTINUOUS
 90
7
 70
0
 10
857.0660694471
 20
132.8531500941
 10
857.4715145824
 20
132.6920780971
 10
852.8717571204
 20
132.4011892755
 10
852.5905153931
 20
132.842648726
 10
856.2866712163
 20
133.2445759137
 10
856.6706757012
 20
133.0375239847
 10
857.0660694471
 20
132.8531500941
  0
HATCH
  5
368
100
AcDbEntity
  8
ALL_DETAIL_ITEM
100
AcDbHatch
 62
4
  6
CONTINUOUS
 10
0.0
 20
0.0
 30
0.0
210
0.0
220
0.0
230
1.0
  2
SOLID
 70
1
 71
1
 91
1
 92
1
 93
6
 72
1
 10
857.0660694471
 20
132.8531500941
 11
857.4715145824
 21
132.6920780971
 72
1
 10
857.4715145824
 20
132.6920780971
 11
852.8717571204
 21
132.4011892755
 72
1
 10
852.8717571204
 20
132.4011892755
 11
852.5905153931
 21
132.842648726
 72
1
 10
852.5905153931
 20
132.842648726
 11
856.2866712163
 21
133.2445759137
 72
1
 10
856.2866712163
 20
133.2445759137
 11
856.6706757012
 21
133.0375239847
 72
1
 10
856.6706757012
 20
133.0375239847
 11
857.0660694471
 21
132.8531500941
 97
1
330
367
 75
0
 76
1
 98
1
 10
0.0
 20
0.0
  0
LWPOLYLINE
  5
369
100
AcDbEntity
  8
ALL_DETAIL_ITEM
100
AcDbPolyline
 62
4
  6
CONTINUOUS
 90
7
 70
0
 10
858.3070421254
 20
132.4419391361
 10
858.7342974058
 20
132.353718553
 10
853.1904044714
 20
131.9859216253
 10
852.8717571204
 20
132.4011892755
 10
857.4715145824
 20
132.6920780971
 10
857.8856392252
 20
132.5548530042
 10
858.3070421254
 20
132.4419391361
  0
HATCH
  5
36A
100
AcDbEntity
  8
ALL_DETAIL_ITEM
100
AcDbHatch
 62
4
  6
CONTINUOUS
 10
0.0
 20
0.0
 30
0.0
210
0.0
220
0.0
230
1.0
  2
SOLID
 70
1
 71
1
 91
1
 92
1
 93
6
 72
1
 10
858.3070421254
 20
132.4419391361
 11
858.7342974058
 21
132.353718553
 72
1
 10
858.7342974058
 20
132.353718553
 11
853.1904044714
 21
131.9859216253
 72
1
 10
853.1904044714
 20
131.9859216253
 11
852.8717571204
 21
132.4011892755
 72
1
 10
852.8717571204
 20
132.4011892755
 11
857.4715145824
 21
132.6920780971
 72
1
 10
857.4715145824
 20
132.6920780971
 11
857.8856392252
 21
132.5548530042
 72
1
 10
857.8856392252
 20
132.5548530042
 11
858.3070421254
 21
132.4419391361
 97
1
330
369
 75
0
 76
1
 98
1
 10
0.0
 20
0.0
  0
LWPOLYLINE
  5
36B
100
AcDbEntity
  8
ALL_DETAIL_ITEM
100
AcDbPolyline
 62
4
  6
CONTINUOUS
 90
8
 70
0
 10
881.7929830129
 20
132.240815536
 10
882.4035001151
 20
132.2230544795
 10
853.1904044714
 20
131.9859216253
 10
858.7342974058
 20
132.353718553
 10
859.1659593869
 20
132.290489762
 10
859.6005674783
 20
132.2524667067
 10
860.0366511214
 20
132.2397780437
 10
881.7929830129
 20
132.240815536
  0
HATCH
  5
36C
100
AcDbEntity
  8
ALL_DETAIL_ITEM
100
AcDbHatch
 62
4
  6
CONTINUOUS
 10
0.0
 20
0.0
 30
0.0
210
0.0
220
0.0
230
1.0
  2
SOLID
 70
1
 71
1
 91
1
 92
1
 93
7
 72
1
 10
881.7929830129
 20
132.240815536
 11
882.4035001151
 21
132.2230544795
 72
1
 10
882.4035001151
 20
132.2230544795
 11
853.1904044714
 21
131.9859216253
 72
1
 10
853.1904044714
 20
131.9859216253
 11
858.7342974058
 21
132.353718553
 72
1
 10
858.7342974058
 20
132.353718553
 11
859.1659593869
 21
132.290489762
 72
1
 10
859.1659593869
 20
132.290489762
 11
859.6005674783
 21
132.2524667067
 72
1
 10
859.6005674783
 20
132.2524667067
 11
860.0366511214
 21
132.2397780437
 72
1
 10
860.0366511214
 20
132.2397780437
 11
881.7929830129
 21
132.240815536
 97
1
330
36B
 75
0
 76
1
 98
1
 10
0.0
 20
0.0
  0
LWPOLYLINE
  5
36D
100
AcDbEntity
  8
ALL_DETAIL_ITEM
100
AcDbPolyline
 62
4
  6
CONTINUOUS
 90
7
 70
0
 10
883.6162782204
 20
132.0813018939
 10
884.2144356148
 20
131.9577930768
 10
853.544032333
 20
131.6000062316
 10
853.1904044714
 20
131.9859216253
 10
882.4035001151
 20
132.2230544795
 10
883.0119514451
 20
132.1698222018
 10
883.6162782204
 20
132.0813018939
  0
HATCH
  5
36E
100
AcDbEntity
  8
ALL_DETAIL_ITEM
100
AcDbHatch
 62
4
  6
CONTINUOUS
 10
0.0
 20
0.0
 30
0.0
210
0.0
220
0.0
230
1.0
  2
SOLID
 70
1
 71
1
 91
1
 92
1
 93
6
 72
1
 10
883.6162782204
 20
132.0813018939
 11
884.2144356148
 21
131.9577930768
 72
1
 10
884.2144356148
 20
131.9577930768
 11
853.544032333
 21
131.6000062316
 72
1
 10
853.544032333
 20
131.6000062316
 11
853.1904044714
 21
131.9859216253
 72
1
 10
853.1904044714
 20
131.9859216253
 11
882.4035001151
 21
132.2230544795
 72
1
 10
882.4035001151
 20
132.2230544795
 11
883.0119514451
 21
132.1698222018
 72
1
 10
883.0119514451
 20
132.1698222018
 11
883.6162782204
 21
132.0813018939
 97
1
330
36D
 75
0
 76
1
 98
1
 10
0.0
 20
0.0
  0
LWPOLYLINE
  5
36F
100
AcDbEntity
  8
ALL_DETAIL_ITEM
100
AcDbPolyline
 62
4
  6
CONTINUOUS
 90
50
 70
0
 10
885.3841741785
 20
131.6075985293
 10
885.9517973694
 20
131.3820977323
 10
886.5053486152
 20
131.1239742839
 10
887.0429548957
 20
130.8341015817
 10
887.4844156503
 20
130.5528619024
 10
887.8996847783
 20
130.2342164784
 10
888.2856018121
 20
129.8805904078
 10
888.6392296727
 20
129.4946750143
 10
888.9578770229
 20
129.0794073644
 10
889.2391187494
 20
128.6379479143
 10
889.4808144204
 20
128.1736564569
 10
889.6811245749
 20
127.6900665513
 10
889.8385247228
 20
127.1908586304
 10
889.9518169467
 20
126.6798319904
 10
890.0201390194
 20
126.1608758755
 10
886.9973939525
 20
126.1588859341
 10
886.9407478405
 20
126.4143992539
 10
886.8620477666
 20
126.6640032142
 10
886.7618926894
 20
126.9057981669
 10
886.641044854
 20
127.1379438954
 10
886.5004239909
 20
127.3586736203
 10
886.3411003159
 20
127.5663074451
 10
886.1642863857
 20
127.7592651418
 10
885.9713278689
 20
127.936078177
 10
885.763693305
 20
128.0954008889
 10
885.5429629279
 20
128.2360207282
 10
885.1589584419
 20
128.4430726587
 10
884.7635646951
 20
128.6274465504
 10
884.3581195588
 20
128.7885185482
 10
883.943994915
 20
128.9257436419
 10
883.5225920137
 20
129.0386575106
 10
883.0953367321
 20
129.1268780942
 10
882.6636747499
 20
129.1901068856
 10
882.2290666572
 20
129.228129941
 10
881.7929830129
 20
129.240800031
 10
859.4261340209
 20
129.2575421682
 10
858.8176826926
 20
129.3107744456
 10
858.2133559189
 20
129.3992947531
 10
857.6151985261
 20
129.5228035694
 10
857.0252344656
 20
129.6808829849
 10
856.4454599655
 20
129.872998115
 10
855.8778367759
 20
130.0984989108
 10
855.3242855314
 20
130.3566223578
 10
854.786679252
 20
130.6464950585
 10
854.3452184966
 20
130.9277347371
 10
853.9299493677
 20
131.2463801609
 10
853.544032333
 20
131.6000062316
 10
884.2144356148
 20
131.9577930768
 10
884.8043996769
 20
131.7997136605
 10
885.3841741785
 20
131.6075985293
  0
HATCH
  5
370
100
AcDbEntity
  8
ALL_DETAIL_ITEM
100
AcDbHatch
 62
4
  6
CONTINUOUS
 10
0.0
 20
0.0
 30
0.0
210
0.0
220
0.0
230
1.0
  2
SOLID
 70
1
 71
1
 91
1
 92
1
 93
49
 72
1
 10
885.3841741785
 20
131.6075985293
 11
885.9517973694
 21
131.3820977323
 72
1
 10
885.9517973694
 20
131.3820977323
 11
886.5053486152
 21
131.1239742839
 72
1
 10
886.5053486152
 20
131.1239742839
 11
887.0429548957
 21
130.8341015817
 72
1
 10
887.0429548957
 20
130.8341015817
 11
887.4844156503
 21
130.5528619024
 72
1
 10
887.4844156503
 20
130.5528619024
 11
887.8996847783
 21
130.2342164784
 72
1
 10
887.8996847783
 20
130.2342164784
 11
888.2856018121
 21
129.8805904078
 72
1
 10
888.2856018121
 20
129.8805904078
 11
888.6392296727
 21
129.4946750143
 72
1
 10
888.6392296727
 20
129.4946750143
 11
888.9578770229
 21
129.0794073644
 72
1
 10
888.9578770229
 20
129.0794073644
 11
889.2391187494
 21
128.6379479143
 72
1
 10
889.2391187494
 20
128.6379479143
 11
889.4808144204
 21
128.1736564569
 72
1
 10
889.4808144204
 20
128.1736564569
 11
889.6811245749
 21
127.6900665513
 72
1
 10
889.6811245749
 20
127.6900665513
 11
889.8385247228
 21
127.1908586304
 72
1
 10
889.8385247228
 20
127.1908586304
 11
889.9518169467
 21
126.6798319904
 72
1
 10
889.9518169467
 20
126.6798319904
 11
890.0201390194
 21
126.1608758755
 72
1
 10
890.0201390194
 20
126.1608758755
 11
886.9973939525
 21
126.1588859341
 72
1
 10
886.9973939525
 20
126.1588859341
 11
886.9407478405
 21
126.4143992539
 72
1
 10
886.9407478405
 20
126.4143992539
 11
886.8620477666
 21
126.6640032142
 72
1
 10
886.8620477666
 20
126.6640032142
 11
886.7618926894
 21
126.9057981669
 72
1
 10
886.7618926894
 20
126.9057981669
 11
886.641044854
 21
127.1379438954
 72
1
 10
886.641044854
 20
127.1379438954
 11
886.5004239909
 21
127.3586736203
 72
1
 10
886.5004239909
 20
127.3586736203
 11
886.3411003159
 21
127.5663074451
 72
1
 10
886.3411003159
 20
127.5663074451
 11
886.1642863857
 21
127.7592651418
 72
1
 10
886.1642863857
 20
127.7592651418
 11
885.9713278689
 21
127.936078177
 72
1
 10
885.9713278689
 20
127.936078177
 11
885.763693305
 21
128.0954008889
 72
1
 10
885.763693305
 20
128.0954008889
 11
885.5429629279
 21
128.2360207282
 72
1
 10
885.5429629279
 20
128.2360207282
 11
885.1589584419
 21
128.4430726587
 72
1
 10
885.1589584419
 20
128.4430726587
 11
884.7635646951
 21
128.6274465504
 72
1
 10
884.7635646951
 20
128.6274465504
 11
884.3581195588
 21
128.7885185482
 72
1
 10
884.3581195588
 20
128.7885185482
 11
883.943994915
 21
128.9257436419
 72
1
 10
883.943994915
 20
128.9257436419
 11
883.5225920137
 21
129.0386575106
 72
1
 10
883.5225920137
 20
129.0386575106
 11
883.0953367321
 21
129.1268780942
 72
1
 10
883.0953367321
 20
129.1268780942
 11
882.6636747499
 21
129.1901068856
 72
1
 10
882.6636747499
 20
129.1901068856
 11
882.2290666572
 21
129.228129941
 72
1
 10
882.2290666572
 20
129.228129941
 11
881.7929830129
 21
129.240800031
 72
1
 10
881.7929830129
 20
129.240800031
 11
859.4261340209
 21
129.2575421682
 72
1
 10
859.4261340209
 20
129.2575421682
 11
858.8176826926
 21
129.3107744456
 72
1
 10
858.8176826926
 20
129.3107744456
 11
858.2133559189
 21
129.3992947531
 72
1
 10
858.2133559189
 20
129.3992947531
 11
857.6151985261
 21
129.5228035694
 72
1
 10
857.6151985261
 20
129.5228035694
 11
857.0252344656
 21
129.6808829849
 72
1
 10
857.0252344656
 20
129.6808829849
 11
856.4454599655
 21
129.872998115
 72
1
 10
856.4454599655
 20
129.872998115
 11
855.8778367759
 21
130.0984989108
 72
1
 10
855.8778367759
 20
130.0984989108
 11
855.3242855314
 21
130.3566223578
 72
1
 10
855.3242855314
 20
130.3566223578
 11
854.786679252
 21
130.6464950585
 72
1
 10
854.786679252
 20
130.6464950585
 11
854.3452184966
 21
130.9277347371
 72
1
 10
854.3452184966
 20
130.9277347371
 11
853.9299493677
 21
131.2463801609
 72
1
 10
853.9299493677
 20
131.2463801609
 11
853.544032333
 21
131.6000062316
 72
1
 10
853.544032333
 20
131.6000062316
 11
884.2144356148
 21
131.9577930768
 72
1
 10
884.2144356148
 20
131.9577930768
 11
884.8043996769
 21
131.7997136605
 72
1
 10
884.8043996769
 20
131.7997136605
 11
885.3841741785
 21
131.6075985293
 97
1
330
36F
 75
0
 76
1
 98
1
 10
0.0
 20
0.0
  0
LWPOLYLINE
  5
371
100
AcDbEntity
  8
ALL_DETAIL_ITEM
100
AcDbPolyline
 62
4
  6
CONTINUOUS
 90
30
 70
0
 10
793.2347683667
 20
129.2536486204
 10
793.0389790782
 20
129.240800031
 10
765.8831536159
 20
129.240800031
 10
762.8831536159
 20
116.0357954544
 10
765.8831536159
 20
143.9477248817
 10
765.8831536159
 20
132.240815536
 10
793.0389790782
 20
132.240815536
 10
793.2347683667
 20
132.2279832075
 10
793.4272076462
 20
132.1897046548
 10
793.6130042273
 20
132.1266352141
 10
793.7889790789
 20
132.0398540209
 10
793.9521212226
 20
131.9308459255
 10
794.099639251
 20
131.8014760868
 10
794.2290090898
 20
131.6539580583
 10
794.3380171851
 20
131.4908159147
 10
794.4247983783
 20
131.314841063
 10
794.487867819
 20
131.129044482
 10
794.5261463717
 20
130.9366052024
 10
794.5389790797
 20
130.7408159139
 10
794.5261463717
 20
130.5450266254
 10
794.487867819
 20
130.3525873459
 10
794.4247983783
 20
130.1667907648
 10
794.3380171851
 20
129.9908159132
 10
794.2290090898
 20
129.8276737695
 10
794.099639251
 20
129.6801557411
 10
793.9521212226
 20
129.5507859023
 10
793.7889790789
 20
129.4417778069
 10
793.6130042273
 20
129.3549966138
 10
793.4272076462
 20
129.291927173
 10
793.2347683667
 20
129.2536486204
  0
HATCH
  5
372
100
AcDbEntity
  8
ALL_DETAIL_ITEM
100
AcDbHatch
 62
4
  6
CONTINUOUS
 10
0.0
 20
0.0
 30
0.0
210
0.0
220
0.0
230
1.0
  2
SOLID
 70
1
 71
1
 91
1
 92
1
 93
29
 72
1
 10
793.2347683667
 20
129.2536486204
 11
793.0389790782
 21
129.240800031
 72
1
 10
793.0389790782
 20
129.240800031
 11
765.8831536159
 21
129.240800031
 72
1
 10
765.8831536159
 20
129.240800031
 11
762.8831536159
 21
116.0357954544
 72
1
 10
762.8831536159
 20
116.0357954544
 11
765.8831536159
 21
143.9477248817
 72
1
 10
765.8831536159
 20
143.9477248817
 11
765.8831536159
 21
132.240815536
 72
1
 10
765.8831536159
 20
132.240815536
 11
793.0389790782
 21
132.240815536
 72
1
 10
793.0389790782
 20
132.240815536
 11
793.2347683667
 21
132.2279832075
 72
1
 10
793.2347683667
 20
132.2279832075
 11
793.4272076462
 21
132.1897046548
 72
1
 10
793.4272076462
 20
132.1897046548
 11
793.6130042273
 21
132.1266352141
 72
1
 10
793.6130042273
 20
132.1266352141
 11
793.7889790789
 21
132.0398540209
 72
1
 10
793.7889790789
 20
132.0398540209
 11
793.9521212226
 21
131.9308459255
 72
1
 10
793.9521212226
 20
131.9308459255
 11
794.099639251
 21
131.8014760868
 72
1
 10
794.099639251
 20
131.8014760868
 11
794.2290090898
 21
131.6539580583
 72
1
 10
794.2290090898
 20
131.6539580583
 11
794.3380171851
 21
131.4908159147
 72
1
 10
794.3380171851
 20
131.4908159147
 11
794.4247983783
 21
131.314841063
 72
1
 10
794.4247983783
 20
131.314841063
 11
794.487867819
 21
131.129044482
 72
1
 10
794.487867819
 20
131.129044482
 11
794.5261463717
 21
130.9366052024
 72
1
 10
794.5261463717
 20
130.9366052024
 11
794.5389790797
 21
130.7408159139
 72
1
 10
794.5389790797
 20
130.7408159139
 11
794.5261463717
 21
130.5450266254
 72
1
 10
794.5261463717
 20
130.5450266254
 11
794.487867819
 21
130.3525873459
 72
1
 10
794.487867819
 20
130.3525873459
 11
794.4247983783
 21
130.1667907648
 72
1
 10
794.4247983783
 20
130.1667907648
 11
794.3380171851
 21
129.9908159132
 72
1
 10
794.3380171851
 20
129.9908159132
 11
794.2290090898
 21
129.8276737695
 72
1
 10
794.2290090898
 20
129.8276737695
 11
794.099639251
 21
129.6801557411
 72
1
 10
794.099639251
 20
129.6801557411
 11
793.9521212226
 21
129.5507859023
 72
1
 10
793.9521212226
 20
129.5507859023
 11
793.7889790789
 21
129.4417778069
 72
1
 10
793.7889790789
 20
129.4417778069
 11
793.6130042273
 21
129.3549966138
 72
1
 10
793.6130042273
 20
129.3549966138
 11
793.4272076462
 21
129.291927173
 72
1
 10
793.4272076462
 20
129.291927173
 11
793.2347683667
 21
129.2536486204
 97
1
330
371
 75
0
 76
1
 98
1
 10
0.0
 20
0.0
  0
SOLID
  5
373
100
AcDbEntity
  8
ALL_DETAIL_ITEM
100
AcDbTrace
 62
4
  6
CONTINUOUS
 10
860.0366511214
 20
129.2397780407
 11
859.4261340209
 21
129.2575421682
 12
881.7929830129
 22
129.240800031
 13
881.7929830129
 23
129.240800031
  0
LWPOLYLINE
  5
374
100
AcDbEntity
  8
ALL_DETAIL_ITEM
100
AcDbPolyline
 62
4
  6
CONTINUOUS
 90
37
 70
0
 10
886.9973939525
 20
126.1588859341
 10
890.0201390194
 20
126.1608758755
 10
890.0429709657
 20
125.6379481107
 10
890.0429709657
 20
121.1357039654
 10
890.0201390194
 20
120.6127650841
 10
889.9518169467
 20
120.0938089692
 10
889.8385247228
 20
119.5827823292
 10
889.6811245749
 20
119.0835744083
 10
889.4808144204
 20
118.5999845027
 10
889.2391187494
 20
118.1356930453
 10
888.9578770229
 20
117.6942335952
 10
888.6392296727
 20
117.2789659453
 10
881.7929830129
 20
117.5328183953
 10
882.2290666572
 20
117.5455110193
 10
882.6636747499
 20
117.5835340748
 10
883.0953367321
 20
117.6467628662
 10
883.5225920137
 20
117.7349834497
 10
883.943994915
 20
117.8478973185
 10
884.3581195588
 20
117.9851224122
 10
884.7635646951
 20
118.1461944099
 10
885.1589584419
 20
118.3305683016
 10
885.5429629278
 20
118.5376202317
 10
885.763693305
 20
118.6782400707
 10
885.9713278689
 20
118.8375627826
 10
886.1642863857
 20
119.0143758178
 10
886.3411003159
 20
119.2073335144
 10
886.5004239909
 20
119.4149673393
 10
886.641044854
 20
119.6356970642
 10
886.7618926894
 20
119.8678427927
 10
886.8620477666
 20
120.1096377454
 10
886.9407478405
 20
120.3592417057
 10
886.9973939525
 20
120.6147550255
 10
887.0315549888
 20
120.8742330828
 10
887.0429709619
 20
121.1357039654
 10
887.0429709619
 20
125.6379481107
 10
887.0315549888
 20
125.8994078768
 10
886.9973939525
 20
126.1588859341
  0
HATCH
  5
375
100
AcDbEntity
  8
ALL_DETAIL_ITEM
100
AcDbHatch
 62
4
  6
CONTINUOUS
 10
0.0
 20
0.0
 30
0.0
210
0.0
220
0.0
230
1.0
  2
SOLID
 70
1
 71
1
 91
1
 92
1
 93
36
 72
1
 10
886.9973939525
 20
126.1588859341
 11
890.0201390194
 21
126.1608758755
 72
1
 10
890.0201390194
 20
126.1608758755
 11
890.0429709657
 21
125.6379481107
 72
1
 10
890.0429709657
 20
125.6379481107
 11
890.0429709657
 21
121.1357039654
 72
1
 10
890.0429709657
 20
121.1357039654
 11
890.0201390194
 21
120.6127650841
 72
1
 10
890.0201390194
 20
120.6127650841
 11
889.9518169467
 21
120.0938089692
 72
1
 10
889.9518169467
 20
120.0938089692
 11
889.8385247228
 21
119.5827823292
 72
1
 10
889.8385247228
 20
119.5827823292
 11
889.6811245749
 21
119.0835744083
 72
1
 10
889.6811245749
 20
119.0835744083
 11
889.4808144204
 21
118.5999845027
 72
1
 10
889.4808144204
 20
118.5999845027
 11
889.2391187494
 21
118.1356930453
 72
1
 10
889.2391187494
 20
118.1356930453
 11
888.9578770229
 21
117.6942335952
 72
1
 10
888.9578770229
 20
117.6942335952
 11
888.6392296727
 21
117.2789659453
 72
1
 10
888.6392296727
 20
117.2789659453
 11
881.7929830129
 21
117.5328183953
 72
1
 10
881.7929830129
 20
117.5328183953
 11
882.2290666572
 21
117.5455110193
 72
1
 10
882.2290666572
 20
117.5455110193
 11
882.6636747499
 21
117.5835340748
 72
1
 10
882.6636747499
 20
117.5835340748
 11
883.0953367321
 21
117.6467628662
 72
1
 10
883.0953367321
 20
117.6467628662
 11
883.5225920137
 21
117.7349834497
 72
1
 10
883.5225920137
 20
117.7349834497
 11
883.943994915
 21
117.8478973185
 72
1
 10
883.943994915
 20
117.8478973185
 11
884.3581195588
 21
117.9851224122
 72
1
 10
884.3581195588
 20
117.9851224122
 11
884.7635646951
 21
118.1461944099
 72
1
 10
884.7635646951
 20
118.1461944099
 11
885.1589584419
 21
118.3305683016
 72
1
 10
885.1589584419
 20
118.3305683016
 11
885.5429629278
 21
118.5376202317
 72
1
 10
885.5429629278
 20
118.5376202317
 11
885.763693305
 21
118.6782400707
 72
1
 10
885.763693305
 20
118.6782400707
 11
885.9713278689
 21
118.8375627826
 72
1
 10
885.9713278689
 20
118.8375627826
 11
886.1642863857
 21
119.0143758178
 72
1
 10
886.1642863857
 20
119.0143758178
 11
886.3411003159
 21
119.2073335144
 72
1
 10
886.3411003159
 20
119.2073335144
 11
886.5004239909
 21
119.4149673393
 72
1
 10
886.5004239909
 20
119.4149673393
 11
886.641044854
 21
119.6356970642
 72
1
 10
886.641044854
 20
119.6356970642
 11
886.7618926894
 21
119.8678427927
 72
1
 10
886.7618926894
 20
119.8678427927
 11
886.8620477666
 21
120.1096377454
 72
1
 10
886.8620477666
 20
120.1096377454
 11
886.9407478405
 21
120.3592417057
 72
1
 10
886.9407478405
 20
120.3592417057
 11
886.9973939525
 21
120.6147550255
 72
1
 10
886.9973939525
 20
120.6147550255
 11
887.0315549888
 21
120.8742330828
 72
1
 10
887.0315549888
 20
120.8742330828
 11
887.0429709619
 21
121.1357039654
 72
1
 10
887.0429709619
 20
121.1357039654
 11
887.0429709619
 21
125.6379481107
 72
1
 10
887.0429709619
 20
125.6379481107
 11
887.0315549888
 21
125.8994078768
 72
1
 10
887.0315549888
 20
125.8994078768
 11
886.9973939525
 21
126.1588859341
 97
1
330
374
 75
0
 76
1
 98
1
 10
0.0
 20
0.0
  0
LWPOLYLINE
  5
376
100
AcDbEntity
  8
ALL_DETAIL_ITEM
100
AcDbPolyline
 62
4
  6
CONTINUOUS
 90
6
 70
0
 10
807.6127516581
 20
121.1463373066
 10
807.6241604111
 20
120.8850128522
 10
804.6355691613
 20
120.6236547479
 10
804.6127516557
 20
121.146270007
 10
807.6121463787
 20
145.905500198
 10
807.6127516581
 20
121.1463373066
  0
HATCH
  5
377
100
AcDbEntity
  8
ALL_DETAIL_ITEM
100
AcDbHatch
 62
4
  6
CONTINUOUS
 10
0.0
 20
0.0
 30
0.0
210
0.0
220
0.0
230
1.0
  2
SOLID
 70
1
 71
1
 91
1
 92
1
 93
5
 72
1
 10
807.6127516581
 20
121.1463373066
 11
807.6241604111
 21
120.8850128522
 72
1
 10
807.6241604111
 20
120.8850128522
 11
804.6355691613
 21
120.6236547479
 72
1
 10
804.6355691613
 20
120.6236547479
 11
804.6127516557
 21
121.146270007
 72
1
 10
804.6127516557
 20
121.146270007
 11
807.6121463787
 21
145.905500198
 72
1
 10
807.6121463787
 20
145.905500198
 11
807.6127516581
 21
121.1463373066
 97
1
330
376
 75
0
 76
1
 98
1
 10
0.0
 20
0.0
  0
LWPOLYLINE
  5
378
100
AcDbEntity
  8
ALL_DETAIL_ITEM
100
AcDbPolyline
 62
4
  6
CONTINUOUS
 90
6
 70
0
 10
807.6582871693
 20
120.6257073866
 10
807.7148725155
 20
120.3703389492
 10
804.7038226777
 20
120.1049765171
 10
804.6355691613
 20
120.6236547479
 10
807.6241604111
 20
120.8850128522
 10
807.6582871693
 20
120.6257073866
  0
HATCH
  5
379
100
AcDbEntity
  8
ALL_DETAIL_ITEM
100
AcDbHatch
 62
4
  6
CONTINUOUS
 10
0.0
 20
0.0
 30
0.0
210
0.0
220
0.0
230
1.0
  2
SOLID
 70
1
 71
1
 91
1
 92
1
 93
5
 72
1
 10
807.6582871693
 20
120.6257073866
 11
807.7148725155
 21
120.3703389492
 72
1
 10
807.7148725155
 20
120.3703389492
 11
804.7038226777
 21
120.1049765171
 72
1
 10
804.7038226777
 20
120.1049765171
 11
804.6355691613
 21
120.6236547479
 72
1
 10
804.6355691613
 20
120.6236547479
 11
807.6241604111
 21
120.8850128522
 72
1
 10
807.6241604111
 20
120.8850128522
 11
807.6582871693
 21
120.6257073866
 97
1
330
378
 75
0
 76
1
 98
1
 10
0.0
 20
0.0
  0
LWPOLYLINE
  5
37A
100
AcDbEntity
  8
ALL_DETAIL_ITEM
100
AcDbPolyline
 62
4
  6
CONTINUOUS
 90
6
 70
0
 10
807.7934863118
 20
120.1208592292
 10
807.8935309695
 20
119.879186266
 10
804.8169933702
 20
119.5942732921
 10
804.7038226777
 20
120.1049765171
 10
807.7148725155
 20
120.3703389492
 10
807.7934863118
 20
120.1208592292
  0
HATCH
  5
37B
100
AcDbEntity
  8
ALL_DETAIL_ITEM
100
AcDbHatch
 62
4
  6
CONTINUOUS
 10
0.0
 20
0.0
 30
0.0
210
0.0
220
0.0
230
1.0
  2
SOLID
 70
1
 71
1
 91
1
 92
1
 93
5
 72
1
 10
807.7934863118
 20
120.1208592292
 11
807.8935309695
 21
119.879186266
 72
1
 10
807.8935309695
 20
119.879186266
 11
804.8169933702
 21
119.5942732921
 72
1
 10
804.8169933702
 20
119.5942732921
 11
804.7038226777
 21
120.1049765171
 72
1
 10
804.7038226777
 20
120.1049765171
 11
807.7148725155
 21
120.3703389492
 72
1
 10
807.7148725155
 20
120.3703389492
 11
807.7934863118
 21
120.1208592292
 97
1
330
37A
 75
0
 76
1
 98
1
 10
0.0
 20
0.0
  0
LWPOLYLINE
  5
37C
100
AcDbEntity
  8
ALL_DETAIL_ITEM
100
AcDbPolyline
 62
4
  6
CONTINUOUS
 90
6
 70
0
 10
808.0142459914
 20
119.6471707995
 10
808.1547137531
 20
119.42652897
 10
804.9742209629
 20
119.0953138521
 10
804.8169933702
 20
119.5942732921
 10
807.8935309695
 20
119.879186266
 10
808.0142459914
 20
119.6471707995
  0
HATCH
  5
37D
100
AcDbEntity
  8
ALL_DETAIL_ITEM
100
AcDbHatch
 62
4
  6
CONTINUOUS
 10
0.0
 20
0.0
 30
0.0
210
0.0
220
0.0
230
1.0
  2
SOLID
 70
1
 71
1
 91
1
 92
1
 93
5
 72
1
 10
808.0142459914
 20
119.6471707995
 11
808.1547137531
 21
119.42652897
 72
1
 10
808.1547137531
 20
119.42652897
 11
804.9742209629
 21
119.0953138521
 72
1
 10
804.9742209629
 20
119.0953138521
 11
804.8169933702
 21
119.5942732921
 72
1
 10
804.8169933702
 20
119.5942732921
 11
807.8935309695
 21
119.879186266
 72
1
 10
807.8935309695
 20
119.879186266
 11
808.0142459914
 21
119.6471707995
 97
1
330
37C
 75
0
 76
1
 98
1
 10
0.0
 20
0.0
  0
LWPOLYLINE
  5
37E
100
AcDbEntity
  8
ALL_DETAIL_ITEM
100
AcDbPolyline
 62
4
  6
CONTINUOUS
 90
6
 70
0
 10
808.313866478
 20
119.2189432683
 10
808.4904943546
 20
119.0260288854
 10
805.1743102784
 20
118.6119679258
 10
804.9742209629
 20
119.0953138521
 10
808.1547137531
 20
119.42652897
 10
808.313866478
 20
119.2189432683
  0
HATCH
  5
37F
100
AcDbEntity
  8
ALL_DETAIL_ITEM
100
AcDbHatch
 62
4
  6
CONTINUOUS
 10
0.0
 20
0.0
 30
0.0
210
0.0
220
0.0
230
1.0
  2
SOLID
 70
1
 71
1
 91
1
 92
1
 93
5
 72
1
 10
808.313866478
 20
119.2189432683
 11
808.4904943546
 21
119.0260288854
 72
1
 10
808.4904943546
 20
119.0260288854
 11
805.1743102784
 21
118.6119679258
 72
1
 10
805.1743102784
 20
118.6119679258
 11
804.9742209629
 21
119.0953138521
 72
1
 10
804.9742209629
 20
119.0953138521
 11
808.1547137531
 21
119.42652897
 72
1
 10
808.1547137531
 20
119.42652897
 11
808.313866478
 21
119.2189432683
 97
1
330
37E
 75
0
 76
1
 98
1
 10
0.0
 20
0.0
  0
LWPOLYLINE
  5
380
100
AcDbEntity
  8
ALL_DETAIL_ITEM
100
AcDbPolyline
 62
4
  6
CONTINUOUS
 90
7
 70
0
 10
808.8906823292
 20
118.6899008947
 10
809.1112003678
 20
118.5492446728
 10
805.4157403223
 20
118.1479033429
 10
805.1743102784
 20
118.6119679258
 10
808.4904943546
 20
119.0260288854
 10
808.6832547326
 20
118.8492327634
 10
808.8906823292
 20
118.6899008947
  0
HATCH
  5
381
100
AcDbEntity
  8
ALL_DETAIL_ITEM
100
AcDbHatch
 62
4
  6
CONTINUOUS
 10
0.0
 20
0.0
 30
0.0
210
0.0
220
0.0
230
1.0
  2
SOLID
 70
1
 71
1
 91
1
 92
1
 93
6
 72
1
 10
808.8906823292
 20
118.6899008947
 11
809.1112003678
 21
118.5492446728
 72
1
 10
809.1112003678
 20
118.5492446728
 11
805.4157403223
 21
118.1479033429
 72
1
 10
805.4157403223
 20
118.1479033429
 11
805.1743102784
 21
118.6119679258
 72
1
 10
805.1743102784
 20
118.6119679258
 11
808.4904943546
 21
119.0260288854
 72
1
 10
808.4904943546
 20
119.0260288854
 11
808.6832547326
 21
118.8492327634
 72
1
 10
808.6832547326
 20
118.8492327634
 11
808.8906823292
 21
118.6899008947
 97
1
330
380
 75
0
 76
1
 98
1
 10
0.0
 20
0.0
  0
LWPOLYLINE
  5
382
100
AcDbEntity
  8
ALL_DETAIL_ITEM
100
AcDbPolyline
 62
4
  6
CONTINUOUS
 90
10
 70
0
 10
754.214830607
 20
145.1911482995
 10
734.7999574639
 20
118.4570922602
 10
754.2963753477
 20
146.5689399281
 10
754.3667021073
 20
146.3766648917
 10
754.4101932066
 20
146.1766167482
 10
754.4260384887
 20
145.9724969774
 10
754.413942786
 20
145.7681416578
 10
754.3741314186
 20
145.5673195687
 10
754.3073459969
 20
145.3737994891
 10
754.214830607
 20
145.1911482995
  0
HATCH
  5
383
100
AcDbEntity
  8
ALL_DETAIL_ITEM
100
AcDbHatch
 62
4
  6
CONTINUOUS
 10
0.0
 20
0.0
 30
0.0
210
0.0
220
0.0
230
1.0
  2
SOLID
 70
1
 71
1
 91
1
 92
1
 93
9
 72
1
 10
754.214830607
 20
145.1911482995
 11
734.7999574639
 21
118.4570922602
 72
1
 10
734.7999574639
 20
118.4570922602
 11
754.2963753477
 21
146.5689399281
 72
1
 10
754.2963753477
 20
146.5689399281
 11
754.3667021073
 21
146.3766648917
 72
1
 10
754.3667021073
 20
146.3766648917
 11
754.4101932066
 21
146.1766167482
 72
1
 10
754.4101932066
 20
146.1766167482
 11
754.4260384887
 21
145.9724969774
 72
1
 10
754.4260384887
 20
145.9724969774
 11
754.413942786
 21
145.7681416578
 72
1
 10
754.413942786
 20
145.7681416578
 11
754.3741314186
 21
145.5673195687
 72
1
 10
754.3741314186
 20
145.5673195687
 11
754.3073459969
 21
145.3737994891
 72
1
 10
754.3073459969
 20
145.3737994891
 11
754.214830607
 21
145.1911482995
 97
1
330
382
 75
0
 76
1
 98
1
 10
0.0
 20
0.0
  0
LWPOLYLINE
  5
384
100
AcDbEntity
  8
ALL_DETAIL_ITEM
100
AcDbPolyline
 62
4
  6
CONTINUOUS
 90
7
 70
0
 10
809.8907989755
 20
118.1571906915
 10
810.2963875996
 20
117.995839834
 10
805.6966758458
 20
117.7066196839
 10
805.4157403223
 20
118.1479033429
 10
809.1112003678
 20
118.5492446728
 10
809.4952894541
 20
118.34186087
 10
809.8907989755
 20
118.1571906915
  0
HATCH
  5
385
100
AcDbEntity
  8
ALL_DETAIL_ITEM
100
AcDbHatch
 62
4
  6
CONTINUOUS
 10
0.0
 20
0.0
 30
0.0
210
0.0
220
0.0
230
1.0
  2
SOLID
 70
1
 71
1
 91
1
 92
1
 93
6
 72
1
 10
809.8907989755
 20
118.1571906915
 11
810.2963875996
 21
117.995839834
 72
1
 10
810.2963875996
 20
117.995839834
 11
805.6966758458
 21
117.7066196839
 72
1
 10
805.6966758458
 20
117.7066196839
 11
805.4157403223
 21
118.1479033429
 72
1
 10
805.4157403223
 20
118.1479033429
 11
809.1112003678
 21
118.5492446728
 72
1
 10
809.1112003678
 20
118.5492446728
 11
809.4952894541
 21
118.34186087
 72
1
 10
809.4952894541
 20
118.34186087
 11
809.8907989755
 21
118.1571906915
 97
1
330
384
 75
0
 76
1
 98
1
 10
0.0
 20
0.0
  0
LWPOLYLINE
  5
386
100
AcDbEntity
  8
ALL_DETAIL_ITEM
100
AcDbPolyline
 62
4
  6
CONTINUOUS
 90
7
 70
0
 10
811.1322705783
 20
117.7453169698
 10
811.5597301158
 20
117.6569525586
 10
806.0149812959
 20
117.2914819303
 10
805.6966758458
 20
117.7066196839
 10
810.2963875996
 20
117.995839834
 10
810.7106798113
 20
117.8584139942
 10
811.1322705783
 20
117.7453169698
  0
HATCH
  5
387
100
AcDbEntity
  8
ALL_DETAIL_ITEM
100
AcDbHatch
 62
4
  6
CONTINUOUS
 10
0.0
 20
0.0
 30
0.0
210
0.0
220
0.0
230
1.0
  2
SOLID
 70
1
 71
1
 91
1
 92
1
 93
6
 72
1
 10
811.1322705783
 20
117.7453169698
 11
811.5597301158
 21
117.6569525586
 72
1
 10
811.5597301158
 20
117.6569525586
 11
806.0149812959
 21
117.2914819303
 72
1
 10
806.0149812959
 20
117.2914819303
 11
805.6966758458
 21
117.7066196839
 72
1
 10
805.6966758458
 20
117.7066196839
 11
810.2963875996
 21
117.995839834
 72
1
 10
810.2963875996
 20
117.995839834
 11
810.7106798113
 21
117.8584139942
 72
1
 10
810.7106798113
 20
117.8584139942
 11
811.1322705783
 21
117.7453169698
 97
1
330
386
 75
0
 76
1
 98
1
 10
0.0
 20
0.0
  0
LWPOLYLINE
  5
388
100
AcDbEntity
  8
ALL_DETAIL_ITEM
100
AcDbPolyline
 62
4
  6
CONTINUOUS
 90
10
 70
0
 10
836.4168338402
 20
117.8584139942
 10
841.7117733291
 20
118.1479033429
 10
841.4308378056
 20
117.7066196839
 10
841.1125323555
 20
117.2914819303
 10
834.2647591482
 20
117.54281239
 10
834.7010718884
 20
117.5555320197
 10
835.1359049158
 20
117.5935899591
 10
835.5677835358
 20
117.6569525586
 10
835.9952430733
 20
117.7453169698
 10
836.4168338402
 20
117.8584139942
  0
HATCH
  5
389
100
AcDbEntity
  8
ALL_DETAIL_ITEM
100
AcDbHatch
 62
4
  6
CONTINUOUS
 10
0.0
 20
0.0
 30
0.0
210
0.0
220
0.0
230
1.0
  2
SOLID
 70
1
 71
1
 91
1
 92
1
 93
9
 72
1
 10
836.4168338402
 20
117.8584139942
 11
841.7117733291
 21
118.1479033429
 72
1
 10
841.7117733291
 20
118.1479033429
 11
841.4308378056
 21
117.7066196839
 72
1
 10
841.4308378056
 20
117.7066196839
 11
841.1125323555
 21
117.2914819303
 72
1
 10
841.1125323555
 20
117.2914819303
 11
834.2647591482
 21
117.54281239
 72
1
 10
834.2647591482
 20
117.54281239
 11
834.7010718884
 21
117.5555320197
 72
1
 10
834.7010718884
 20
117.5555320197
 11
835.1359049158
 21
117.5935899591
 72
1
 10
835.1359049158
 20
117.5935899591
 11
835.5677835358
 21
117.6569525586
 72
1
 10
835.5677835358
 20
117.6569525586
 11
835.9952430733
 21
117.7453169698
 72
1
 10
835.9952430733
 20
117.7453169698
 11
836.4168338402
 21
117.8584139942
 97
1
330
388
 75
0
 76
1
 98
1
 10
0.0
 20
0.0
  0
LWPOLYLINE
  5
38A
100
AcDbEntity
  8
ALL_DETAIL_ITEM
100
AcDbPolyline
 62
4
  6
CONTINUOUS
 90
6
 70
0
 10
794.4793530863
 20
117.5386133771
 10
794.6751435755
 20
117.525799001
 10
762.8831536159
 20
116.0357954544
 10
765.8831536159
 20
129.240800031
 10
765.8831536159
 20
117.5359359077
 10
794.4793530863
 20
117.5386133771
  0
HATCH
  5
38B
100
AcDbEntity
  8
ALL_DETAIL_ITEM
100
AcDbHatch
 62
4
  6
CONTINUOUS
 10
0.0
 20
0.0
 30
0.0
210
0.0
220
0.0
230
1.0
  2
SOLID
 70
1
 71
1
 91
1
 92
1
 93
5
 72
1
 10
794.4793530863
 20
117.5386133771
 11
794.6751435755
 21
117.525799001
 72
1
 10
794.6751435755
 20
117.525799001
 11
762.8831536159
 21
116.0357954544
 72
1
 10
762.8831536159
 20
116.0357954544
 11
765.8831536159
 21
129.240800031
 72
1
 10
765.8831536159
 20
129.240800031
 11
765.8831536159
 21
117.5359359077
 72
1
 10
765.8831536159
 20
117.5359359077
 11
794.4793530863
 21
117.5386133771
 97
1
330
38A
 75
0
 76
1
 98
1
 10
0.0
 20
0.0
  0
LWPOLYLINE
  5
38C
100
AcDbEntity
  8
ALL_DETAIL_ITEM
100
AcDbPolyline
 62
4
  6
CONTINUOUS
 90
41
 70
0
 10
853.4803944134
 20
117.5199896482
 10
853.6761837019
 20
117.5328183953
 10
881.7929830129
 20
117.5328183953
 10
888.6392296727
 20
117.2789659453
 10
888.2856018121
 20
116.8930505518
 10
887.8996847783
 20
116.5394244811
 10
887.4844156503
 20
116.2207790572
 10
887.0429548957
 20
115.9395393784
 10
886.5053486152
 20
115.6496666765
 10
885.9517973694
 20
115.391543228
 10
885.3841741785
 20
115.166042431
 10
884.8043996769
 20
114.9739272998
 10
884.2144356148
 20
114.8158478835
 10
883.6162782205
 20
114.6923390665
 10
883.0119514451
 20
114.6038187585
 10
882.4035001151
 20
114.5505864808
 10
881.7929830129
 20
114.5328365401
 10
853.6761837019
 20
114.5328365401
 10
853.4803944134
 20
114.5456550611
 10
853.2879551339
 20
114.5839336138
 10
853.1021585528
 20
114.6470030545
 10
852.9261837012
 20
114.7337842477
 10
852.7630415575
 20
114.842792343
 10
852.6155235291
 20
114.9721621818
 10
852.4861536903
 20
115.1196802102
 10
852.3771455949
 20
115.2828223539
 10
852.2903644018
 20
115.4587972055
 10
852.227294961
 20
115.6445937866
 10
852.1890164084
 20
115.8370330661
 10
852.1761837004
 20
116.0328223547
 10
852.1890164084
 20
116.2286116432
 10
852.227294961
 20
116.4210509227
 10
852.2903644018
 20
116.6068475038
 10
852.3771455949
 20
116.7828223554
 10
852.4861536903
 20
116.9459644991
 10
852.6155235291
 20
117.0934825275
 10
852.7630415575
 20
117.2228523663
 10
852.9261837012
 20
117.3318604616
 10
853.1021585528
 20
117.4186416548
 10
853.2879551339
 20
117.4817110955
 10
853.4803944134
 20
117.5199896482
  0
HATCH
  5
38D
100
AcDbEntity
  8
ALL_DETAIL_ITEM
100
AcDbHatch
 62
4
  6
CONTINUOUS
 10
0.0
 20
0.0
 30
0.0
210
0.0
220
0.0
230
1.0
  2
SOLID
 70
1
 71
1
 91
1
 92
1
 93
40
 72
1
 10
853.4803944134
 20
117.5199896482
 11
853.6761837019
 21
117.5328183953
 72
1
 10
853.6761837019
 20
117.5328183953
 11
881.7929830129
 21
117.5328183953
 72
1
 10
881.7929830129
 20
117.5328183953
 11
888.6392296727
 21
117.2789659453
 72
1
 10
888.6392296727
 20
117.2789659453
 11
888.2856018121
 21
116.8930505518
 72
1
 10
888.2856018121
 20
116.8930505518
 11
887.8996847783
 21
116.5394244811
 72
1
 10
887.8996847783
 20
116.5394244811
 11
887.4844156503
 21
116.2207790572
 72
1
 10
887.4844156503
 20
116.2207790572
 11
887.0429548957
 21
115.9395393784
 72
1
 10
887.0429548957
 20
115.9395393784
 11
886.5053486152
 21
115.6496666765
 72
1
 10
886.5053486152
 20
115.6496666765
 11
885.9517973694
 21
115.391543228
 72
1
 10
885.9517973694
 20
115.391543228
 11
885.3841741785
 21
115.166042431
 72
1
 10
885.3841741785
 20
115.166042431
 11
884.8043996769
 21
114.9739272998
 72
1
 10
884.8043996769
 20
114.9739272998
 11
884.2144356148
 21
114.8158478835
 72
1
 10
884.2144356148
 20
114.8158478835
 11
883.6162782205
 21
114.6923390665
 72
1
 10
883.6162782205
 20
114.6923390665
 11
883.0119514451
 21
114.6038187585
 72
1
 10
883.0119514451
 20
114.6038187585
 11
882.4035001151
 21
114.5505864808
 72
1
 10
882.4035001151
 20
114.5505864808
 11
881.7929830129
 21
114.5328365401
 72
1
 10
881.7929830129
 20
114.5328365401
 11
853.6761837019
 21
114.5328365401
 72
1
 10
853.6761837019
 20
114.5328365401
 11
853.4803944134
 21
114.5456550611
 72
1
 10
853.4803944134
 20
114.5456550611
 11
853.2879551339
 21
114.5839336138
 72
1
 10
853.2879551339
 20
114.5839336138
 11
853.1021585528
 21
114.6470030545
 72
1
 10
853.1021585528
 20
114.6470030545
 11
852.9261837012
 21
114.7337842477
 72
1
 10
852.9261837012
 20
114.7337842477
 11
852.7630415575
 21
114.842792343
 72
1
 10
852.7630415575
 20
114.842792343
 11
852.6155235291
 21
114.9721621818
 72
1
 10
852.6155235291
 20
114.9721621818
 11
852.4861536903
 21
115.1196802102
 72
1
 10
852.4861536903
 20
115.1196802102
 11
852.3771455949
 21
115.2828223539
 72
1
 10
852.3771455949
 20
115.2828223539
 11
852.2903644018
 21
115.4587972055
 72
1
 10
852.2903644018
 20
115.4587972055
 11
852.227294961
 21
115.6445937866
 72
1
 10
852.227294961
 20
115.6445937866
 11
852.1890164084
 21
115.8370330661
 72
1
 10
852.1890164084
 20
115.8370330661
 11
852.1761837004
 21
116.0328223547
 72
1
 10
852.1761837004
 20
116.0328223547
 11
852.1890164084
 21
116.2286116432
 72
1
 10
852.1890164084
 20
116.2286116432
 11
852.227294961
 21
116.4210509227
 72
1
 10
852.227294961
 20
116.4210509227
 11
852.2903644018
 21
116.6068475038
 72
1
 10
852.2903644018
 20
116.6068475038
 11
852.3771455949
 21
116.7828223554
 72
1
 10
852.3771455949
 20
116.7828223554
 11
852.4861536903
 21
116.9459644991
 72
1
 10
852.4861536903
 20
116.9459644991
 11
852.6155235291
 21
117.0934825275
 72
1
 10
852.6155235291
 20
117.0934825275
 11
852.7630415575
 21
117.2228523663
 72
1
 10
852.7630415575
 20
117.2228523663
 11
852.9261837012
 21
117.3318604616
 72
1
 10
852.9261837012
 20
117.3318604616
 11
853.1021585528
 21
117.4186416548
 72
1
 10
853.1021585528
 20
117.4186416548
 11
853.2879551339
 21
117.4817110955
 72
1
 10
853.2879551339
 20
117.4817110955
 11
853.4803944134
 21
117.5199896482
 97
1
330
38C
 75
0
 76
1
 98
1
 10
0.0
 20
0.0
  0
LWPOLYLINE
  5
38E
100
AcDbEntity
  8
ALL_DETAIL_ITEM
100
AcDbPolyline
 62
4
  6
CONTINUOUS
 90
34
 70
0
 10
834.2647591482
 20
117.54281239
 10
841.1125323555
 20
117.2914819303
 10
840.759276602
 20
116.9056531645
 10
840.3737558458
 20
116.5520609205
 10
839.9589006525
 20
116.2333635334
 10
839.5178645752
 20
115.9520510895
 10
838.980044677
 20
115.6616868457
 10
838.4262333394
 20
115.4030880262
 10
837.8583087606
 20
115.1771968257
 10
837.2781970024
 20
114.9847198904
 10
836.6878654582
 20
114.8263638664
 10
836.089316181
 20
114.7026335008
 10
835.4845790933
 20
114.6139325915
 10
834.8757051031
 20
114.5605976365
 10
834.2647591482
 20
114.542796885
 10
812.8627545034
 20
114.542796885
 10
812.2518085485
 20
114.5605976365
 10
811.6429345583
 20
114.6139325915
 10
811.0381974706
 20
114.7026335008
 10
810.4396481934
 20
114.8263638664
 10
809.8493166492
 20
114.9847198904
 10
809.269204891
 20
115.1771968257
 10
808.7012803122
 20
115.4030880262
 10
808.1474689746
 20
115.6616868457
 10
807.6096490762
 20
115.9520510895
 10
807.1686129991
 20
116.2333635334
 10
806.7537578057
 20
116.5520609205
 10
806.3682370494
 20
116.9056531645
 10
806.0149812959
 20
117.2914819303
 10
811.5597301158
 20
117.6569525586
 10
811.9916087357
 20
117.5935899591
 10
812.4264417631
 20
117.5555320197
 10
812.8627545034
 20
117.54281239
 10
834.2647591482
 20
117.54281239
  0
HATCH
  5
38F
100
AcDbEntity
  8
ALL_DETAIL_ITEM
100
AcDbHatch
 62
4
  6
CONTINUOUS
 10
0.0
 20
0.0
 30
0.0
210
0.0
220
0.0
230
1.0
  2
SOLID
 70
1
 71
1
 91
1
 92
1
 93
33
 72
1
 10
834.2647591482
 20
117.54281239
 11
841.1125323555
 21
117.2914819303
 72
1
 10
841.1125323555
 20
117.2914819303
 11
840.759276602
 21
116.9056531645
 72
1
 10
840.759276602
 20
116.9056531645
 11
840.3737558458
 21
116.5520609205
 72
1
 10
840.3737558458
 20
116.5520609205
 11
839.9589006525
 21
116.2333635334
 72
1
 10
839.9589006525
 20
116.2333635334
 11
839.5178645752
 21
115.9520510895
 72
1
 10
839.5178645752
 20
115.9520510895
 11
838.980044677
 21
115.6616868457
 72
1
 10
838.980044677
 20
115.6616868457
 11
838.4262333394
 21
115.4030880262
 72
1
 10
838.4262333394
 20
115.4030880262
 11
837.8583087606
 21
115.1771968257
 72
1
 10
837.8583087606
 20
115.1771968257
 11
837.2781970024
 21
114.9847198904
 72
1
 10
837.2781970024
 20
114.9847198904
 11
836.6878654582
 21
114.8263638664
 72
1
 10
836.6878654582
 20
114.8263638664
 11
836.089316181
 21
114.7026335008
 72
1
 10
836.089316181
 20
114.7026335008
 11
835.4845790933
 21
114.6139325915
 72
1
 10
835.4845790933
 20
114.6139325915
 11
834.8757051031
 21
114.5605976365
 72
1
 10
834.8757051031
 20
114.5605976365
 11
834.2647591482
 21
114.542796885
 72
1
 10
834.2647591482
 20
114.542796885
 11
812.8627545034
 21
114.542796885
 72
1
 10
812.8627545034
 20
114.542796885
 11
812.2518085485
 21
114.5605976365
 72
1
 10
812.2518085485
 20
114.5605976365
 11
811.6429345583
 21
114.6139325915
 72
1
 10
811.6429345583
 20
114.6139325915
 11
811.0381974706
 21
114.7026335008
 72
1
 10
811.0381974706
 20
114.7026335008
 11
810.4396481934
 21
114.8263638664
 72
1
 10
810.4396481934
 20
114.8263638664
 11
809.8493166492
 21
114.9847198904
 72
1
 10
809.8493166492
 20
114.9847198904
 11
809.269204891
 21
115.1771968257
 72
1
 10
809.269204891
 20
115.1771968257
 11
808.7012803122
 21
115.4030880262
 72
1
 10
808.7012803122
 20
115.4030880262
 11
808.1474689746
 21
115.6616868457
 72
1
 10
808.1474689746
 20
115.6616868457
 11
807.6096490762
 21
115.9520510895
 72
1
 10
807.6096490762
 20
115.9520510895
 11
807.1686129991
 21
116.2333635334
 72
1
 10
807.1686129991
 20
116.2333635334
 11
806.7537578057
 21
116.5520609205
 72
1
 10
806.7537578057
 20
116.5520609205
 11
806.3682370494
 21
116.9056531645
 72
1
 10
806.3682370494
 20
116.9056531645
 11
806.0149812959
 21
117.2914819303
 72
1
 10
806.0149812959
 20
117.2914819303
 11
811.5597301158
 21
117.6569525586
 72
1
 10
811.5597301158
 20
117.6569525586
 11
811.9916087357
 21
117.5935899591
 72
1
 10
811.9916087357
 20
117.5935899591
 11
812.4264417631
 21
117.5555320197
 72
1
 10
812.4264417631
 20
117.5555320197
 11
812.8627545034
 21
117.54281239
 72
1
 10
812.8627545034
 20
117.54281239
 11
834.2647591482
 21
117.54281239
 97
1
330
38E
 75
0
 76
1
 98
1
 10
0.0
 20
0.0
  0
LWPOLYLINE
  5
390
100
AcDbEntity
  8
ALL_DETAIL_ITEM
100
AcDbPolyline
 62
4
  6
CONTINUOUS
 90
29
 70
0
 10
660.1549951887
 20
143.2308455402
 10
643.3688177454
 20
114.8722958623
 10
643.2527545486
 20
114.7036429953
 10
643.1148079643
 20
114.552387082
 10
642.9575476763
 20
114.4212874071
 10
642.7839031464
 20
114.3128340571
 10
642.5971090435
 20
114.2290460206
 10
642.4006449883
 20
114.171471189
 10
642.1981707345
 20
114.1411863566
 10
641.9934579943
 20
114.13876357
 10
641.7903201787
 20
114.1642028292
 10
641.5925413609
 20
114.2171003366
 10
641.4038057861
 20
114.2964129479
 10
641.2276292409
 20
114.4006937211
 10
641.0672935609
 20
114.5280246167
 10
640.9257854967
 20
114.6759491985
 10
640.8057410756
 20
114.841809131
 10
640.7093964981
 20
115.0224413318
 10
640.6385464813
 20
115.2145144693
 10
640.5945108271
 20
115.4144616633
 10
640.5781098363
 20
115.6185141345
 10
640.5896490284
 20
115.8229031039
 10
640.6289134501
 20
116.0238597923
 10
640.6951716794
 20
116.2175481209
 10
640.7871894514
 20
116.4004348592
 10
661.4458093362
 20
146.9396599274
 10
679.5228009256
 20
116.4004348592
 10
676.9411726309
 20
114.8722958623
 10
660.1549951887
 20
143.2308455402
  0
HATCH
  5
391
100
AcDbEntity
  8
ALL_DETAIL_ITEM
100
AcDbHatch
 62
4
  6
CONTINUOUS
 10
0.0
 20
0.0
 30
0.0
210
0.0
220
0.0
230
1.0
  2
SOLID
 70
1
 71
1
 91
1
 92
1
 93
28
 72
1
 10
660.1549951887
 20
143.2308455402
 11
643.3688177454
 21
114.8722958623
 72
1
 10
643.3688177454
 20
114.8722958623
 11
643.2527545486
 21
114.7036429953
 72
1
 10
643.2527545486
 20
114.7036429953
 11
643.1148079643
 21
114.552387082
 72
1
 10
643.1148079643
 20
114.552387082
 11
642.9575476763
 21
114.4212874071
 72
1
 10
642.9575476763
 20
114.4212874071
 11
642.7839031464
 21
114.3128340571
 72
1
 10
642.7839031464
 20
114.3128340571
 11
642.5971090435
 21
114.2290460206
 72
1
 10
642.5971090435
 20
114.2290460206
 11
642.4006449883
 21
114.171471189
 72
1
 10
642.4006449883
 20
114.171471189
 11
642.1981707345
 21
114.1411863566
 72
1
 10
642.1981707345
 20
114.1411863566
 11
641.9934579943
 21
114.13876357
 72
1
 10
641.9934579943
 20
114.13876357
 11
641.7903201787
 21
114.1642028292
 72
1
 10
641.7903201787
 20
114.1642028292
 11
641.5925413609
 21
114.2171003366
 72
1
 10
641.5925413609
 20
114.2171003366
 11
641.4038057861
 21
114.2964129479
 72
1
 10
641.4038057861
 20
114.2964129479
 11
641.2276292409
 21
114.4006937211
 72
1
 10
641.2276292409
 20
114.4006937211
 11
641.0672935609
 21
114.5280246167
 72
1
 10
641.0672935609
 20
114.5280246167
 11
640.9257854967
 21
114.6759491985
 72
1
 10
640.9257854967
 20
114.6759491985
 11
640.8057410756
 21
114.841809131
 72
1
 10
640.8057410756
 20
114.841809131
 11
640.7093964981
 21
115.0224413318
 72
1
 10
640.7093964981
 20
115.0224413318
 11
640.6385464813
 21
115.2145144693
 72
1
 10
640.6385464813
 20
115.2145144693
 11
640.5945108271
 21
115.4144616633
 72
1
 10
640.5945108271
 20
115.4144616633
 11
640.5781098363
 21
115.6185141345
 72
1
 10
640.5781098363
 20
115.6185141345
 11
640.5896490284
 21
115.8229031039
 72
1
 10
640.5896490284
 20
115.8229031039
 11
640.6289134501
 21
116.0238597923
 72
1
 10
640.6289134501
 20
116.0238597923
 11
640.6951716794
 21
116.2175481209
 72
1
 10
640.6951716794
 20
116.2175481209
 11
640.7871894514
 21
116.4004348592
 72
1
 10
640.7871894514
 20
116.4004348592
 11
661.4458093362
 21
146.9396599274
 72
1
 10
661.4458093362
 20
146.9396599274
 11
679.5228009256
 21
116.4004348592
 72
1
 10
679.5228009256
 20
116.4004348592
 11
676.9411726309
 21
114.8722958623
 72
1
 10
676.9411726309
 20
114.8722958623
 11
660.1549951887
 21
143.2308455402
 97
1
330
390
 75
0
 76
1
 98
1
 10
0.0
 20
0.0
  0
LWPOLYLINE
  5
392
100
AcDbEntity
  8
ALL_DETAIL_ITEM
100
AcDbPolyline
 62
4
  6
CONTINUOUS
 90
41
 70
0
 10
795.9794935266
 20
116.0387538275
 10
795.9666791505
 20
115.8429633383
 10
795.9284186161
 20
115.6505204756
 10
795.8653665719
 20
115.4647179902
 10
795.7786018556
 20
115.288735014
 10
795.6696090358
 20
115.1255826646
 10
795.5402530097
 20
114.9780525239
 10
795.3927470949
 20
114.8486688735
 10
795.2296151584
 20
114.7396455036
 10
795.0536484329
 20
114.6528478342
 10
794.8678577578
 20
114.5897609976
 10
794.6754220632
 20
114.5514644269
 10
794.4796339767
 20
114.5386133867
 10
764.3832940628
 20
114.5357954595
 10
764.2264912872
 20
114.5439989137
 10
764.0714051414
 20
114.5685487498
 10
763.9197349839
 20
114.6091759625
 10
763.7731427427
 20
114.6654353787
 10
763.6332347043
 20
114.7367105348
 10
763.5015439131
 20
114.8222204325
 10
763.3795133728
 20
114.9210280958
 10
763.2684802348
 20
115.0320508382
 10
763.1696611462
 20
115.1540721266
 10
763.0841389186
 20
115.2857549109
 10
763.0128506632
 20
115.4256562752
 10
762.9565775218
 20
115.5722432482
 10
762.9159361083
 20
115.7239096011
 10
762.8913717516
 20
115.8789934476
 10
762.8831536159
 20
116.0357954544
 10
794.6751435755
 20
117.525799001
 10
794.8675864382
 20
117.4875384666
 10
795.0533889237
 20
117.4244864224
 10
795.2293718999
 20
117.3377217061
 10
795.3925242493
 20
117.2287288863
 10
795.54005439
 20
117.0993728602
 10
795.6694380404
 20
116.9518669454
 10
795.7784614103
 20
116.7887350089
 10
795.8652590796
 20
116.6127682834
 10
795.9283459163
 20
116.4269776083
 10
795.9666424869
 20
116.2345419137
 10
795.9794935266
 20
116.0387538275
  0
HATCH
  5
393
100
AcDbEntity
  8
ALL_DETAIL_ITEM
100
AcDbHatch
 62
4
  6
CONTINUOUS
 10
0.0
 20
0.0
 30
0.0
210
0.0
220
0.0
230
1.0
  2
SOLID
 70
1
 71
1
 91
1
 92
1
 93
40
 72
1
 10
795.9794935266
 20
116.0387538275
 11
795.9666791505
 21
115.8429633383
 72
1
 10
795.9666791505
 20
115.8429633383
 11
795.9284186161
 21
115.6505204756
 72
1
 10
795.9284186161
 20
115.6505204756
 11
795.8653665719
 21
115.4647179902
 72
1
 10
795.8653665719
 20
115.4647179902
 11
795.7786018556
 21
115.288735014
 72
1
 10
795.7786018556
 20
115.288735014
 11
795.6696090358
 21
115.1255826646
 72
1
 10
795.6696090358
 20
115.1255826646
 11
795.5402530097
 21
114.9780525239
 72
1
 10
795.5402530097
 20
114.9780525239
 11
795.3927470949
 21
114.8486688735
 72
1
 10
795.3927470949
 20
114.8486688735
 11
795.2296151584
 21
114.7396455036
 72
1
 10
795.2296151584
 20
114.7396455036
 11
795.0536484329
 21
114.6528478342
 72
1
 10
795.0536484329
 20
114.6528478342
 11
794.8678577578
 21
114.5897609976
 72
1
 10
794.8678577578
 20
114.5897609976
 11
794.6754220632
 21
114.5514644269
 72
1
 10
794.6754220632
 20
114.5514644269
 11
794.4796339767
 21
114.5386133867
 72
1
 10
794.4796339767
 20
114.5386133867
 11
764.3832940628
 21
114.5357954595
 72
1
 10
764.3832940628
 20
114.5357954595
 11
764.2264912872
 21
114.5439989137
 72
1
 10
764.2264912872
 20
114.5439989137
 11
764.0714051414
 21
114.5685487498
 72
1
 10
764.0714051414
 20
114.5685487498
 11
763.9197349839
 21
114.6091759625
 72
1
 10
763.9197349839
 20
114.6091759625
 11
763.7731427427
 21
114.6654353787
 72
1
 10
763.7731427427
 20
114.6654353787
 11
763.6332347043
 21
114.7367105348
 72
1
 10
763.6332347043
 20
114.7367105348
 11
763.5015439131
 21
114.8222204325
 72
1
 10
763.5015439131
 20
114.8222204325
 11
763.3795133728
 21
114.9210280958
 72
1
 10
763.3795133728
 20
114.9210280958
 11
763.2684802348
 21
115.0320508382
 72
1
 10
763.2684802348
 20
115.0320508382
 11
763.1696611462
 21
115.1540721266
 72
1
 10
763.1696611462
 20
115.1540721266
 11
763.0841389186
 21
115.2857549109
 72
1
 10
763.0841389186
 20
115.2857549109
 11
763.0128506632
 21
115.4256562752
 72
1
 10
763.0128506632
 20
115.4256562752
 11
762.9565775218
 21
115.5722432482
 72
1
 10
762.9565775218
 20
115.5722432482
 11
762.9159361083
 21
115.7239096011
 72
1
 10
762.9159361083
 20
115.7239096011
 11
762.8913717516
 21
115.8789934476
 72
1
 10
762.8913717516
 20
115.8789934476
 11
762.8831536159
 21
116.0357954544
 72
1
 10
762.8831536159
 20
116.0357954544
 11
794.6751435755
 21
117.525799001
 72
1
 10
794.6751435755
 20
117.525799001
 11
794.8675864382
 21
117.4875384666
 72
1
 10
794.8675864382
 20
117.4875384666
 11
795.0533889237
 21
117.4244864224
 72
1
 10
795.0533889237
 20
117.4244864224
 11
795.2293718999
 21
117.3377217061
 72
1
 10
795.2293718999
 20
117.3377217061
 11
795.3925242493
 21
117.2287288863
 72
1
 10
795.3925242493
 20
117.2287288863
 11
795.54005439
 21
117.0993728602
 72
1
 10
795.54005439
 20
117.0993728602
 11
795.6694380404
 21
116.9518669454
 72
1
 10
795.6694380404
 20
116.9518669454
 11
795.7784614103
 21
116.7887350089
 72
1
 10
795.7784614103
 20
116.7887350089
 11
795.8652590796
 21
116.6127682834
 72
1
 10
795.8652590796
 20
116.6127682834
 11
795.9283459163
 21
116.4269776083
 72
1
 10
795.9283459163
 20
116.4269776083
 11
795.9666424869
 21
116.2345419137
 72
1
 10
795.9666424869
 20
116.2345419137
 11
795.9794935266
 21
116.0387538275
 97
1
330
392
 75
0
 76
1
 98
1
 10
0.0
 20
0.0
  0
LWPOLYLINE
  5
394
100
AcDbEntity
  8
ALL_DETAIL_ITEM
100
AcDbPolyline
 62
4
  6
CONTINUOUS
 90
44
 70
0
 10
719.072508052
 20
116.2279778992
 10
719.0853407599
 20
116.0322049461
 10
719.072508052
 20
115.8363993221
 10
719.0342294993
 20
115.6439600426
 10
718.9711600586
 20
115.4581634615
 10
718.8843788654
 20
115.282184245
 10
718.77537077
 20
115.1190464662
 10
718.6460009313
 20
114.9715284378
 10
718.4984829028
 20
114.842158599
 10
718.3353407592
 20
114.733153882
 10
718.1593659075
 20
114.6463693105
 10
717.9735693265
 20
114.5832998698
 10
717.7811300469
 20
114.5450213171
 10
717.5853407584
 20
114.5321971936
 10
690.7073405247
 20
114.5321971936
 10
690.5505478296
 20
114.5404057661
 10
690.3954729881
 20
114.5649672081
 10
690.2438150326
 20
114.6056038348
 10
690.0972355594
 20
114.6618704228
 10
689.9573405239
 20
114.733153882
 10
689.8256626453
 20
114.8186631179
 10
689.7036446141
 20
114.9174713713
 10
689.5926232853
 20
115.0284927001
 10
689.4938150319
 20
115.1505107313
 10
689.4083024177
 20
115.282184245
 10
689.3370223368
 20
115.4220836454
 10
689.2807557488
 20
115.5686631186
 10
689.2401191221
 20
115.7203210741
 10
689.2155576801
 20
115.8753959156
 10
689.2073405232
 20
116.0322049461
 10
692.2073405262
 20
145.8789841446
 10
692.2073405262
 20
117.5321790488
 10
717.5853407584
 20
117.5321790488
 10
717.7811300469
 20
117.5193559042
 10
717.9735693265
 20
117.4810773515
 10
718.1593659075
 20
117.4180079108
 10
718.3353407592
 20
117.3312267176
 10
718.4984829028
 20
117.2222186223
 10
718.6460009313
 20
117.0928487835
 10
718.77537077
 20
116.9453307551
 10
718.8843788654
 20
116.7821886114
 10
718.9711600586
 20
116.6062137598
 10
719.0342294993
 20
116.4204171787
 10
719.072508052
 20
116.2279778992
  0
HATCH
  5
395
100
AcDbEntity
  8
ALL_DETAIL_ITEM
100
AcDbHatch
 62
4
  6
CONTINUOUS
 10
0.0
 20
0.0
 30
0.0
210
0.0
220
0.0
230
1.0
  2
SOLID
 70
1
 71
1
 91
1
 92
1
 93
43
 72
1
 10
719.072508052
 20
116.2279778992
 11
719.0853407599
 21
116.0322049461
 72
1
 10
719.0853407599
 20
116.0322049461
 11
719.072508052
 21
115.8363993221
 72
1
 10
719.072508052
 20
115.8363993221
 11
719.0342294993
 21
115.6439600426
 72
1
 10
719.0342294993
 20
115.6439600426
 11
718.9711600586
 21
115.4581634615
 72
1
 10
718.9711600586
 20
115.4581634615
 11
718.8843788654
 21
115.282184245
 72
1
 10
718.8843788654
 20
115.282184245
 11
718.77537077
 21
115.1190464662
 72
1
 10
718.77537077
 20
115.1190464662
 11
718.6460009313
 21
114.9715284378
 72
1
 10
718.6460009313
 20
114.9715284378
 11
718.4984829028
 21
114.842158599
 72
1
 10
718.4984829028
 20
114.842158599
 11
718.3353407592
 21
114.733153882
 72
1
 10
718.3353407592
 20
114.733153882
 11
718.1593659075
 21
114.6463693105
 72
1
 10
718.1593659075
 20
114.6463693105
 11
717.9735693265
 21
114.5832998698
 72
1
 10
717.9735693265
 20
114.5832998698
 11
717.7811300469
 21
114.5450213171
 72
1
 10
717.7811300469
 20
114.5450213171
 11
717.5853407584
 21
114.5321971936
 72
1
 10
717.5853407584
 20
114.5321971936
 11
690.7073405247
 21
114.5321971936
 72
1
 10
690.7073405247
 20
114.5321971936
 11
690.5505478296
 21
114.5404057661
 72
1
 10
690.5505478296
 20
114.5404057661
 11
690.3954729881
 21
114.5649672081
 72
1
 10
690.3954729881
 20
114.5649672081
 11
690.2438150326
 21
114.6056038348
 72
1
 10
690.2438150326
 20
114.6056038348
 11
690.0972355594
 21
114.6618704228
 72
1
 10
690.0972355594
 20
114.6618704228
 11
689.9573405239
 21
114.733153882
 72
1
 10
689.9573405239
 20
114.733153882
 11
689.8256626453
 21
114.8186631179
 72
1
 10
689.8256626453
 20
114.8186631179
 11
689.7036446141
 21
114.9174713713
 72
1
 10
689.7036446141
 20
114.9174713713
 11
689.5926232853
 21
115.0284927001
 72
1
 10
689.5926232853
 20
115.0284927001
 11
689.4938150319
 21
115.1505107313
 72
1
 10
689.4938150319
 20
115.1505107313
 11
689.4083024177
 21
115.282184245
 72
1
 10
689.4083024177
 20
115.282184245
 11
689.3370223368
 21
115.4220836454
 72
1
 10
689.3370223368
 20
115.4220836454
 11
689.2807557488
 21
115.5686631186
 72
1
 10
689.2807557488
 20
115.5686631186
 11
689.2401191221
 21
115.7203210741
 72
1
 10
689.2401191221
 20
115.7203210741
 11
689.2155576801
 21
115.8753959156
 72
1
 10
689.2155576801
 20
115.8753959156
 11
689.2073405232
 21
116.0322049461
 72
1
 10
689.2073405232
 20
116.0322049461
 11
692.2073405262
 21
145.8789841446
 72
1
 10
692.2073405262
 20
145.8789841446
 11
692.2073405262
 21
117.5321790488
 72
1
 10
692.2073405262
 20
117.5321790488
 11
717.5853407584
 21
117.5321790488
 72
1
 10
717.5853407584
 20
117.5321790488
 11
717.7811300469
 21
117.5193559042
 72
1
 10
717.7811300469
 20
117.5193559042
 11
717.9735693265
 21
117.4810773515
 72
1
 10
717.9735693265
 20
117.4810773515
 11
718.1593659075
 21
117.4180079108
 72
1
 10
718.1593659075
 20
117.4180079108
 11
718.3353407592
 21
117.3312267176
 72
1
 10
718.3353407592
 20
117.3312267176
 11
718.4984829028
 21
117.2222186223
 72
1
 10
718.4984829028
 20
117.2222186223
 11
718.6460009313
 21
117.0928487835
 72
1
 10
718.6460009313
 20
117.0928487835
 11
718.77537077
 21
116.9453307551
 72
1
 10
718.77537077
 20
116.9453307551
 11
718.8843788654
 21
116.7821886114
 72
1
 10
718.8843788654
 20
116.7821886114
 11
718.9711600586
 21
116.6062137598
 72
1
 10
718.9711600586
 20
116.6062137598
 11
719.0342294993
 21
116.4204171787
 72
1
 10
719.0342294993
 20
116.4204171787
 11
719.072508052
 21
116.2279778992
 97
1
330
394
 75
0
 76
1
 98
1
 10
0.0
 20
0.0
  0
LWPOLYLINE
  5
396
100
AcDbEntity
  8
ALL_DETAIL_ITEM
100
AcDbPolyline
 62
4
  6
CONTINUOUS
 90
25
 70
0
 10
679.6005938785
 20
115.0224413318
 10
679.504249301
 20
114.841809131
 10
679.3842048799
 20
114.6759491985
 10
679.2426968156
 20
114.5280246167
 10
679.0823611357
 20
114.4006937211
 10
678.9061845905
 20
114.2964129479
 10
678.7174490157
 20
114.2171003366
 10
678.5196701979
 20
114.1642028292
 10
678.3165323823
 20
114.13876357
 10
678.1118196421
 20
114.1411863566
 10
677.9093453883
 20
114.171471189
 10
677.7128813331
 20
114.2290460206
 10
677.5260872302
 20
114.3128340571
 10
677.3524427003
 20
114.4212874071
 10
677.1951824123
 20
114.552387082
 10
677.057235828
 20
114.7036429953
 10
676.9411726309
 20
114.8722958623
 10
679.5228009256
 20
116.4004348592
 10
679.6148186972
 20
116.2175481209
 10
679.6810769265
 20
116.0238597923
 10
679.7203413482
 20
115.8229031039
 10
679.7318805403
 20
115.6185141345
 10
679.7154795495
 20
115.4144616633
 10
679.6714438953
 20
115.2145144693
 10
679.6005938785
 20
115.0224413318
  0
HATCH
  5
397
100
AcDbEntity
  8
ALL_DETAIL_ITEM
100
AcDbHatch
 62
4
  6
CONTINUOUS
 10
0.0
 20
0.0
 30
0.0
210
0.0
220
0.0
230
1.0
  2
SOLID
 70
1
 71
1
 91
1
 92
1
 93
24
 72
1
 10
679.6005938785
 20
115.0224413318
 11
679.504249301
 21
114.841809131
 72
1
 10
679.504249301
 20
114.841809131
 11
679.3842048799
 21
114.6759491985
 72
1
 10
679.3842048799
 20
114.6759491985
 11
679.2426968156
 21
114.5280246167
 72
1
 10
679.2426968156
 20
114.5280246167
 11
679.0823611357
 21
114.4006937211
 72
1
 10
679.0823611357
 20
114.4006937211
 11
678.9061845905
 21
114.2964129479
 72
1
 10
678.9061845905
 20
114.2964129479
 11
678.7174490157
 21
114.2171003366
 72
1
 10
678.7174490157
 20
114.2171003366
 11
678.5196701979
 21
114.1642028292
 72
1
 10
678.5196701979
 20
114.1642028292
 11
678.3165323823
 21
114.13876357
 72
1
 10
678.3165323823
 20
114.13876357
 11
678.1118196421
 21
114.1411863566
 72
1
 10
678.1118196421
 20
114.1411863566
 11
677.9093453883
 21
114.171471189
 72
1
 10
677.9093453883
 20
114.171471189
 11
677.7128813331
 21
114.2290460206
 72
1
 10
677.7128813331
 20
114.2290460206
 11
677.5260872302
 21
114.3128340571
 72
1
 10
677.5260872302
 20
114.3128340571
 11
677.3524427003
 21
114.4212874071
 72
1
 10
677.3524427003
 20
114.4212874071
 11
677.1951824123
 21
114.552387082
 72
1
 10
677.1951824123
 20
114.552387082
 11
677.057235828
 21
114.7036429953
 72
1
 10
677.057235828
 20
114.7036429953
 11
676.9411726309
 21
114.8722958623
 72
1
 10
676.9411726309
 20
114.8722958623
 11
679.5228009256
 21
116.4004348592
 72
1
 10
679.5228009256
 20
116.4004348592
 11
679.6148186972
 21
116.2175481209
 72
1
 10
679.6148186972
 20
116.2175481209
 11
679.6810769265
 21
116.0238597923
 72
1
 10
679.6810769265
 20
116.0238597923
 11
679.7203413482
 21
115.8229031039
 72
1
 10
679.7203413482
 20
115.8229031039
 11
679.7318805403
 21
115.6185141345
 72
1
 10
679.7318805403
 20
115.6185141345
 11
679.7154795495
 21
115.4144616633
 72
1
 10
679.7154795495
 20
115.4144616633
 11
679.6714438953
 21
115.2145144693
 72
1
 10
679.6714438953
 20
115.2145144693
 11
679.6005938785
 21
115.0224413318
 97
1
330
396
 75
0
 76
1
 98
1
 10
0.0
 20
0.0
  0
LINE
  5
398
100
AcDbEntity
  8
ALL_DETAIL_ITEM
100
AcDbLine
 62
4
  6
CONTINUOUS
 10
886.9193381761
 20
115.8728863019
 11
889.3009812324
 21
118.2545293582
  0
LINE
  5
399
100
AcDbEntity
  8
ALL_DETAIL_ITEM
100
AcDbLine
 62
4
  6
CONTINUOUS
 10
878.5082064147
 20
114.5328223524
 11
881.5082064185
 21
117.5328223562
  0
LINE
  5
39A
100
AcDbEntity
  8
ALL_DETAIL_ITEM
100
AcDbLine
 62
4
  6
CONTINUOUS
 10
887.0429709619
 20
123.0675868996
 11
890.0249968837
 21
126.0496128213
  0
LINE
  5
39B
100
AcDbEntity
  8
ALL_DETAIL_ITEM
100
AcDbLine
 62
4
  6
CONTINUOUS
 10
871.4371386029
 20
114.5328223524
 11
874.4371386066
 21
117.5328223562
  0
LINE
  5
39C
100
AcDbEntity
  8
ALL_DETAIL_ITEM
100
AcDbLine
 62
4
  6
CONTINUOUS
 10
885.2813801646
 20
128.3770639141
 11
887.4677776553
 21
130.5634614049
  0
LINE
  5
39D
100
AcDbEntity
  8
ALL_DETAIL_ITEM
100
AcDbLine
 62
4
  6
CONTINUOUS
 10
864.366070791
 20
114.5328223524
 11
867.3660707948
 21
117.5328223562
  0
LINE
  5
39E
100
AcDbEntity
  8
ALL_DETAIL_ITEM
100
AcDbLine
 62
4
  6
CONTINUOUS
 10
879.073936996
 20
129.2406885574
 11
882.0661196292
 21
132.2328711906
  0
LINE
  5
39F
100
AcDbEntity
  8
ALL_DETAIL_ITEM
100
AcDbLine
 62
4
  6
CONTINUOUS
 10
857.2950029792
 20
114.5328223524
 11
860.2950029829
 21
117.5328223562
  0
LINE
  5
3A0
100
AcDbEntity
  8
ALL_DETAIL_ITEM
100
AcDbLine
 62
4
  6
CONTINUOUS
 10
872.0025309724
 20
129.2403503457
 11
875.0026744665
 21
132.2404938398
  0
LINE
  5
3A1
100
AcDbEntity
  8
ALL_DETAIL_ITEM
100
AcDbLine
 62
4
  6
CONTINUOUS
 10
886.7099549124
 20
143.9477742857
 11
888.2103944909
 21
145.4482138642
  0
LINE
  5
3A2
100
AcDbEntity
  8
ALL_DETAIL_ITEM
100
AcDbLine
 62
4
  6
CONTINUOUS
 10
852.2908501133
 20
116.5997372984
 11
853.1114242313
 21
117.4203114165
  0
LINE
  5
3A3
100
AcDbEntity
  8
ALL_DETAIL_ITEM
100
AcDbLine
 62
4
  6
CONTINUOUS
 10
864.9311249488
 20
129.2400121339
 11
867.9312684429
 21
132.240155628
  0
LINE
  5
3A4
100
AcDbEntity
  8
ALL_DETAIL_ITEM
100
AcDbLine
 62
4
  6
CONTINUOUS
 10
879.6388871003
 20
143.9477742855
 11
882.6388871035
 21
146.9477742887
  0
LINE
  5
3A5
100
AcDbEntity
  8
ALL_DETAIL_ITEM
100
AcDbLine
 62
4
  6
CONTINUOUS
 10
858.0525444514
 20
129.4324994484
 11
860.8598624193
 21
132.2398174163
  0
LINE
  5
3A6
100
AcDbEntity
  8
ALL_DETAIL_ITEM
100
AcDbLine
 62
4
  6
CONTINUOUS
 10
872.5678192883
 20
143.9477742853
 11
875.5678192917
 21
146.9477742887
  0
LINE
  5
3A7
100
AcDbEntity
  8
ALL_DETAIL_ITEM
100
AcDbLine
 62
4
  6
CONTINUOUS
 10
836.2938842623
 20
114.7449070711
 11
842.5065225285
 21
120.9575453373
  0
LINE
  5
3A8
100
AcDbEntity
  8
ALL_DETAIL_ITEM
100
AcDbLine
 62
4
  6
CONTINUOUS
 10
853.3551315481
 20
131.806154357
 11
855.4775633429
 21
133.9285861518
  0
LINE
  5
3A9
100
AcDbEntity
  8
ALL_DETAIL_ITEM
100
AcDbLine
 62
4
  6
CONTINUOUS
 10
865.4967514762
 20
143.9477742851
 11
868.4967514798
 21
146.9477742887
  0
LINE
  5
3AA
100
AcDbEntity
  8
ALL_DETAIL_ITEM
100
AcDbLine
 62
4
  6
CONTINUOUS
 10
829.0207159514
 20
114.5428065722
 11
832.0207159552
 21
117.5428065759
  0
LINE
  5
3AB
100
AcDbEntity
  8
ALL_DETAIL_ITEM
100
AcDbLine
 62
4
  6
CONTINUOUS
 10
839.5148571067
 20
125.0369477274
 11
842.5149304531
 21
128.0370210738
  0
LINE
  5
3AC
100
AcDbEntity
  8
ALL_DETAIL_ITEM
100
AcDbLine
 62
4
  6
CONTINUOUS
 10
851.7866631747
 20
137.3087537954
 11
854.7866631784
 21
140.3087537991
  0
LINE
  5
3AD
100
AcDbEntity
  8
ALL_DETAIL_ITEM
100
AcDbLine
 62
4
  6
CONTINUOUS
 10
858.1929525518
 20
143.7150431725
 11
861.4256836679
 21
146.9477742887
  0
LINE
  5
3AE
100
AcDbEntity
  8
ALL_DETAIL_ITEM
100
AcDbLine
 62
4
  6
CONTINUOUS
 10
821.9496481396
 20
114.5428065722
 11
824.9496481433
 21
117.5428065759
  0
LINE
  5
3AF
100
AcDbEntity
  8
ALL_DETAIL_ITEM
100
AcDbLine
 62
4
  6
CONTINUOUS
 10
839.5150299761
 20
132.1081884087
 11
842.5151033221
 21
135.1082617547
  0
LINE
  5
3B0
100
AcDbEntity
  8
ALL_DETAIL_ITEM
100
AcDbLine
 62
4
  6
CONTINUOUS
 10
814.8785803277
 20
114.5428065722
 11
817.8785803315
 21
117.5428065759
  0
LINE
  5
3B1
100
AcDbEntity
  8
ALL_DETAIL_ITEM
100
AcDbLine
 62
4
  6
CONTINUOUS
 10
839.5152028456
 20
139.17942909
 11
842.5152761911
 21
142.1795024355
  0
LINE
  5
3B2
100
AcDbEntity
  8
ALL_DETAIL_ITEM
100
AcDbLine
 62
4
  6
CONTINUOUS
 10
808.6784536316
 20
115.4137476879
 11
811.0358709356
 21
117.7711649919
  0
LINE
  5
3B3
100
AcDbEntity
  8
ALL_DETAIL_ITEM
100
AcDbLine
 62
4
  6
CONTINUOUS
 10
839.5699658226
 20
146.3052598789
 11
840.6110584053
 21
147.3463524616
  0
LINE
  5
3B4
100
AcDbEntity
  8
ALL_DETAIL_ITEM
100
AcDbLine
 62
4
  6
CONTINUOUS
 10
805.0663676906
 20
118.8727295588
 11
807.6127449898
 21
121.419106858
  0
LINE
  5
3B5
100
AcDbEntity
  8
ALL_DETAIL_ITEM
100
AcDbLine
 62
4
  6
CONTINUOUS
 10
793.6611070677
 20
114.5385367478
 11
795.823417122
 21
116.7008468021
  0
LINE
  5
3B6
100
AcDbEntity
  8
ALL_DETAIL_ITEM
100
AcDbLine
 62
4
  6
CONTINUOUS
 10
804.6126454642
 20
125.4900751442
 11
807.6125721299
 21
128.4900018099
  0
LINE
  5
3B7
100
AcDbEntity
  8
ALL_DETAIL_ITEM
100
AcDbLine
 62
4
  6
CONTINUOUS
 10
786.5893771282
 20
114.5378746201
 11
789.5896580618
 21
117.5381555537
  0
LINE
  5
3B8
100
AcDbEntity
  8
ALL_DETAIL_ITEM
100
AcDbLine
 62
4
  6
CONTINUOUS
 10
804.6124726045
 20
132.5609700965
 11
807.6123992699
 21
135.5608967618
  0
LINE
  5
3B9
100
AcDbEntity
  8
ALL_DETAIL_ITEM
100
AcDbLine
 62
4
  6
CONTINUOUS
 10
779.5176471886
 20
114.5372124924
 11
782.517928122
 21
117.5374934258
  0
LINE
  5
3BA
100
AcDbEntity
  8
ALL_DETAIL_ITEM
100
AcDbLine
 62
4
  6
CONTINUOUS
 10
804.6122997449
 20
139.6318650487
 11
807.61222641
 21
142.6317917138
  0
LINE
  5
3BB
100
AcDbEntity
  8
ALL_DETAIL_ITEM
100
AcDbLine
 62
4
  6
CONTINUOUS
 10
772.4459172491
 20
114.5365503647
 11
775.4461981823
 21
117.536831298
  0
LINE
  5
3BC
100
AcDbEntity
  8
ALL_DETAIL_ITEM
100
AcDbLine
 62
4
  6
CONTINUOUS
 10
787.1501827968
 20
129.2408159124
 11
790.1501827998
 21
132.2408159154
  0
LINE
  5
3BD
100
AcDbEntity
  8
ALL_DETAIL_ITEM
100
AcDbLine
 62
4
  6
CONTINUOUS
 10
765.3741873095
 20
114.5358882371
 11
768.3744682426
 21
117.5361691701
  0
LINE
  5
3BE
100
AcDbEntity
  8
ALL_DETAIL_ITEM
100
AcDbLine
 62
4
  6
CONTINUOUS
 10
780.0791149849
 20
129.2408159124
 11
783.0791149879
 21
132.2408159154
  0
LINE
  5
3BF
100
AcDbEntity
  8
ALL_DETAIL_ITEM
100
AcDbLine
 62
4
  6
CONTINUOUS
 10
794.8288381613
 20
143.9905390889
 11
795.9382610218
 21
145.0999619493
  0
LINE
  5
3C0
100
AcDbEntity
  8
ALL_DETAIL_ITEM
100
AcDbLine
 62
4
  6
CONTINUOUS
 10
762.8831536159
 20
119.1159223553
 11
765.8831536159
 21
122.1159223553
  0
LINE
  5
3C1
100
AcDbEntity
  8
ALL_DETAIL_ITEM
100
AcDbLine
 62
4
  6
CONTINUOUS
 10
773.008047173
 20
129.2408159124
 11
776.008047176
 21
132.2408159154
  0
LINE
  5
3C2
100
AcDbEntity
  8
ALL_DETAIL_ITEM
100
AcDbLine
 62
4
  6
CONTINUOUS
 10
787.7142457604
 20
143.9470144998
 11
790.7141481485
 21
146.9469168878
  0
LINE
  5
3C3
100
AcDbEntity
  8
ALL_DETAIL_ITEM
100
AcDbLine
 62
4
  6
CONTINUOUS
 10
762.8831536159
 20
126.1869901672
 11
765.8831536159
 21
129.1869901672
  0
LINE
  5
3C4
100
AcDbEntity
  8
ALL_DETAIL_ITEM
100
AcDbLine
 62
4
  6
CONTINUOUS
 10
765.9369793612
 20
129.2408159124
 11
768.9369793642
 21
132.2408159154
  0
LINE
  5
3C5
100
AcDbEntity
  8
ALL_DETAIL_ITEM
100
AcDbLine
 62
4
  6
CONTINUOUS
 10
780.643408033
 20
143.9472445843
 11
783.6433104211
 21
146.9471469723
  0
LINE
  5
3C6
100
AcDbEntity
  8
ALL_DETAIL_ITEM
100
AcDbLine
 62
4
  6
CONTINUOUS
 10
762.8831536159
 20
133.258057979
 11
765.8831536159
 21
136.258057979
  0
LINE
  5
3C7
100
AcDbEntity
  8
ALL_DETAIL_ITEM
100
AcDbLine
 62
4
  6
CONTINUOUS
 10
773.5725703056
 20
143.9474746687
 11
776.5724726937
 21
146.9473770568
  0
LINE
  5
3C8
100
AcDbEntity
  8
ALL_DETAIL_ITEM
100
AcDbLine
 62
4
  6
CONTINUOUS
 10
762.8831536159
 20
140.3291257909
 11
765.8831536159
 21
143.3291257909
  0
LINE
  5
3C9
100
AcDbEntity
  8
ALL_DETAIL_ITEM
100
AcDbLine
 62
4
  6
CONTINUOUS
 10
766.5017325782
 20
143.9477047532
 11
769.5016349663
 21
146.9476071413
  0
LINE
  5
3CA
100
AcDbEntity
  8
ALL_DETAIL_ITEM
100
AcDbLine
 62
4
  6
CONTINUOUS
 10
732.2905838165
 20
116.8076238034
 11
734.4789718578
 21
118.9960118446
  0
LINE
  5
3CB
100
AcDbEntity
  8
ALL_DETAIL_ITEM
100
AcDbLine
 62
4
  6
CONTINUOUS
 10
736.0664749245
 20
120.5835149114
 11
744.7012286695
 21
129.2182686563
  0
LINE
  5
3CC
100
AcDbEntity
  8
ALL_DETAIL_ITEM
100
AcDbLine
 62
4
  6
CONTINUOUS
 10
729.6510940072
 20
121.2392018059
 11
731.8394820484
 21
123.4275898471
  0
LINE
  5
3CD
100
AcDbEntity
  8
ALL_DETAIL_ITEM
100
AcDbLine
 62
4
  6
CONTINUOUS
 10
746.4811473174
 20
138.0692551161
 11
754.4222267631
 21
146.0103345618
  0
LINE
  5
3CE
100
AcDbEntity
  8
ALL_DETAIL_ITEM
100
AcDbLine
 62
4
  6
CONTINUOUS
 10
715.8730129986
 20
114.5321886092
 11
718.534355001
 21
117.1935306115
  0
LINE
  5
3CF
100
AcDbEntity
  8
ALL_DETAIL_ITEM
100
AcDbLine
 62
4
  6
CONTINUOUS
 10
727.0116041979
 20
125.6707798085
 11
729.1999922391
 21
127.8591678496
  0
LINE
  5
3D0
100
AcDbEntity
  8
ALL_DETAIL_ITEM
100
AcDbLine
 62
4
  6
CONTINUOUS
 10
708.8019451867
 20
114.5321886092
 11
711.8019451899
 21
117.5321886123
  0
LINE
  5
3D1
100
AcDbEntity
  8
ALL_DETAIL_ITEM
100
AcDbLine
 62
4
  6
CONTINUOUS
 10
724.3721143887
 20
130.1023578111
 11
726.5605024297
 21
132.2907458521
  0
LINE
  5
3D2
100
AcDbEntity
  8
ALL_DETAIL_ITEM
100
AcDbLine
 62
4
  6
CONTINUOUS
 10
701.7308773749
 20
114.5321886092
 11
704.7308773782
 21
117.5321886125
  0
LINE
  5
3D3
100
AcDbEntity
  8
ALL_DETAIL_ITEM
100
AcDbLine
 62
4
  6
CONTINUOUS
 10
721.7326245794
 20
134.5339358137
 11
723.9210126203
 21
136.7223238547
  0
LINE
  5
3D4
100
AcDbEntity
  8
ALL_DETAIL_ITEM
100
AcDbLine
 62
4
  6
CONTINUOUS
 10
694.659809563
 20
114.5321886092
 11
697.6598095666
 21
117.5321886128
  0
LINE
  5
3D5
100
AcDbEntity
  8
ALL_DETAIL_ITEM
100
AcDbLine
 62
4
  6
CONTINUOUS
 10
719.0931347701
 20
138.9655138163
 11
721.281522811
 21
141.1539018572
  0
LINE
  5
3D6
100
AcDbEntity
  8
ALL_DETAIL_ITEM
100
AcDbLine
 62
4
  6
CONTINUOUS
 10
689.2073405232
 20
116.1507873812
 11
692.2073405262
 21
119.1507873842
  0
LINE
  5
3D7
100
AcDbEntity
  8
ALL_DETAIL_ITEM
100
AcDbLine
 62
4
  6
CONTINUOUS
 10
716.4536449608
 20
143.3970918188
 11
718.6420330016
 21
145.5854798597
  0
LINE
  5
3D8
100
AcDbEntity
  8
ALL_DETAIL_ITEM
100
AcDbLine
 62
4
  6
CONTINUOUS
 10
689.2073405232
 20
123.2218551931
 11
692.2073405262
 21
126.2218551961
  0
LINE
  5
3D9
100
AcDbEntity
  8
ALL_DETAIL_ITEM
100
AcDbLine
 62
4
  6
CONTINUOUS
 10
675.7682514629
 20
116.8538339447
 11
677.9581588228
 21
119.0437413046
  0
LINE
  5
3DA
100
AcDbEntity
  8
ALL_DETAIL_ITEM
100
AcDbLine
 62
4
  6
CONTINUOUS
 10
689.2073405232
 20
130.2929230049
 11
692.2073405262
 21
133.2929230079
  0
LINE
  5
3DB
100
AcDbEntity
  8
ALL_DETAIL_ITEM
100
AcDbLine
 62
4
  6
CONTINUOUS
 10
673.1390137972
 20
121.2956640908
 11
675.3289211571
 21
123.4855714507
  0
LINE
  5
3DC
100
AcDbEntity
  8
ALL_DETAIL_ITEM
100
AcDbLine
 62
4
  6
CONTINUOUS
 10
689.2073405232
 20
137.3639908168
 11
692.2073405262
 21
140.3639908198
  0
LINE
  5
3DD
100
AcDbEntity
  8
ALL_DETAIL_ITEM
100
AcDbLine
 62
4
  6
CONTINUOUS
 10
670.5097761314
 20
125.7374942369
 11
672.6996834914
 21
127.9274015969
  0
LINE
  5
3DE
100
AcDbEntity
  8
ALL_DETAIL_ITEM
100
AcDbLine
 62
4
  6
CONTINUOUS
 10
689.2073405232
 20
144.4350586287
 11
691.7390739524
 21
146.9667920579
  0
LINE
  5
3DF
100
AcDbEntity
  8
ALL_DETAIL_ITEM
100
AcDbLine
 62
4
  6
CONTINUOUS
 10
667.8805384656
 20
130.179324383
 11
670.0704458257
 21
132.3692317431
  0
LINE
  5
3E0
100
AcDbEntity
  8
ALL_DETAIL_ITEM
100
AcDbLine
 62
4
  6
CONTINUOUS
 10
665.2513007998
 20
134.621154529
 11
667.44120816
 21
136.8110618893
  0
LINE
  5
3E1
100
AcDbEntity
  8
ALL_DETAIL_ITEM
100
AcDbLine
 62
4
  6
CONTINUOUS
 10
641.9877631489
 20
118.42868469
 11
650.5307663951
 21
126.9716879362
  0
LINE
  5
3E2
100
AcDbEntity
  8
ALL_DETAIL_ITEM
100
AcDbLine
 62
4
  6
CONTINUOUS
 10
662.622063134
 20
139.0629846751
 11
664.8119704943
 21
141.2528920354
  0
LINE
  5
3E3
100
AcDbEntity
  8
ALL_DETAIL_ITEM
100
AcDbLine
 62
4
  6
CONTINUOUS
 10
652.2446289531
 20
135.7566183061
 11
662.1827328287
 21
145.6947221816
  0
ENDBLK
  5
3E4
100
AcDbEntity
  8
0
  6
BYBLOCK
 62
0
100
AcDbBlockEnd
  0
BLOCK
  5
3E5
100
AcDbEntity
  8
0
100
AcDbBlockBegin
  2
_FILLED
 70
64
 10
0.0
 20
0.0
  3
_FILLED
  1

  0
SOLID
  5
3E6
100
AcDbEntity
  8
0
  6
BYBLOCK
 62
0
100
AcDbTrace
 10
0.0
 20
0.0
 11
-1.0
 21
0.2142857143
 12
-1.0
 22
-0.2142857143
 13
-1.0
 23
-0.2142857143
  0
ENDBLK
  5
3E7
100
AcDbEntity
  8
0
  6
BYBLOCK
 62
0
100
AcDbBlockEnd
  0
BLOCK
  5
3E8
100
AcDbEntity
  8
0
100
AcDbBlockBegin
  2
_DOTBLANK
 70
64
 10
0.0
 20
0.0
  3
_DOTBLANK
  1

  0
CIRCLE
  5
3E9
100
AcDbEntity
  8
0
  6
BYBLOCK
 62
0
100
AcDbCircle
 10
0.0
 20
0.0
 40
0.2142857143
  0
LINE
  5
3EA
100
AcDbEntity
  8
0
  6
BYBLOCK
 62
0
100
AcDbLine
 10
-1.0
 20
0.0
 11
0.0
 21
0.0
  0
ENDBLK
  5
3EB
100
AcDbEntity
  8
0
  6
BYBLOCK
 62
0
100
AcDbBlockEnd
  0
BLOCK
  5
3EC
100
AcDbEntity
  8
ALL_DIM
100
AcDbBlockBegin
 62
2
  6
CONTINUOUS
  2
*D0
 70
65
 10
0.0
 20
0.0
  3
*D0
  1

  0
MTEXT
  5
3ED
100
AcDbEntity
  8
ALL_DIM
100
AcDbMText
 62
5
  6
CONTINUOUS
  7
STANDARD
 71
3
 72
1
 10
288.767119458
 20
1281.4348145244
 30
0.0
 11
0.6413340016
 21
-0.7672618187
 31
0.0
 44
0.9
  1
R10
 40
17.5
 41
56.25
  0
LINE
  5
3EE
100
AcDbEntity
  8
ALL_DIM
100
AcDbLine
 62
2
  6
CONTINUOUS
 10
293.0944724843
 20
1242.149180687
 11
247.9332421152
 21
1296.1779514412
  0
INSERT
  5
3EF
100
AcDbEntity
  8
ALL_DIM
100
AcDbBlockReference
 62
2
  6
CONTINUOUS
  2
_FILLED
 10
293.0944724843
 20
1242.149180687
 41
17.5
 42
17.5
 43
17.5
 50
309.8913647099
  0
ENDBLK
  5
3F0
100
AcDbEntity
  8
0
  6
BYBLOCK
 62
0
100
AcDbBlockEnd
  0
BLOCK
  5
3F1
100
AcDbEntity
  8
ALL_DIM
100
AcDbBlockBegin
 62
2
  6
CONTINUOUS
  2
*D1
 70
65
 10
0.0
 20
0.0
  3
*D1
  1

  0
TEXT
  5
3F2
100
AcDbEntity
  8
ALL_DIM
100
AcDbText
 62
5
  6
CONTINUOUS
 10
230.7578125
 20
980.6015625
  7
STANDARD
 40
17.5
  1
470
 50
90.0
 41
0.7857142857
 72
1
 11
230.7578125
 21
1001.2265625
100
AcDbText
  0
TEXT
  5
3F3
100
AcDbEntity
  8
ALL_DIM
100
AcDbText
 62
5
  6
CONTINUOUS
 10
220.2578125
 20
1021.8515625
  7
STANDARD
 40
10.5
  1
+2
 50
90.0
 41
0.75
 72
1
 11
220.2578125
 21
1029.7265625
100
AcDbText
  0
TEXT
  5
3F4
100
AcDbEntity
  8
ALL_DIM
100
AcDbText
 62
5
  6
CONTINUOUS
 10
234.2578125
 20
1021.8515625
  7
STANDARD
 40
10.5
  1
  
 50
90.0
 41
0.7857142857
 72
1
 11
234.2578125
 21
1030.1015625
100
AcDbText
  0
LINE
  5
3F5
100
AcDbEntity
  8
ALL_DIM
100
AcDbLine
 62
2
  6
CONTINUOUS
 10
719.5078125
 20
774.4765625
 11
234.5078125
 21
774.4765625
  0
LINE
  5
3F6
100
AcDbEntity
  8
ALL_DIM
100
AcDbLine
 62
2
  6
CONTINUOUS
 10
719.5078125
 20
1244.4765625
 11
234.5078125
 21
1244.4765625
  0
LINE
  5
3F7
100
AcDbEntity
  8
ALL_DIM
100
AcDbLine
 62
2
  6
CONTINUOUS
 10
239.5078125
 20
774.4765625
 11
239.5078125
 21
1009.4765625
  0
LINE
  5
3F8
100
AcDbEntity
  8
ALL_DIM
100
AcDbLine
 62
2
  6
CONTINUOUS
 10
239.5078125
 20
1244.4765625
 11
239.5078125
 21
1009.4765625
  0
INSERT
  5
3F9
100
AcDbEntity
  8
ALL_DIM
100
AcDbBlockReference
 62
2
  6
CONTINUOUS
  2
_FILLED
 10
239.5078125
 20
774.4765625
 41
17.5
 42
17.5
 43
17.5
 50
270.0
  0
INSERT
  5
3FA
100
AcDbEntity
  8
ALL_DIM
100
AcDbBlockReference
 62
2
  6
CONTINUOUS
  2
_FILLED
 10
239.5078125
 20
1244.4765625
 41
17.5
 42
17.5
 43
17.5
 50
90.0
  0
ENDBLK
  5
3FB
100
AcDbEntity
  8
0
  6
BYBLOCK
 62
0
100
AcDbBlockEnd
  0
BLOCK
  5
3FC
100
AcDbEntity
  8
ALL_DIM
100
AcDbBlockBegin
 62
2
  6
CONTINUOUS
  2
*D2
 70
65
 10
0.0
 20
0.0
  3
*D2
  1

  0
TEXT
  5
3FD
100
AcDbEntity
  8
ALL_DIM
100
AcDbText
 62
5
  6
CONTINUOUS
 10
480.6328125
 20
733.2265625
  7
STANDARD
 40
17.5
  1
440
 41
0.7857142857
 72
1
 11
501.2578125
 21
733.2265625
100
AcDbText
  0
TEXT
  5
3FE
100
AcDbEntity
  8
ALL_DIM
100
AcDbText
 62
5
  6
CONTINUOUS
 10
521.8828125
 20
743.7265625
  7
STANDARD
 40
10.5
  1
+2
 41
0.75
 72
1
 11
529.7578125
 21
743.7265625
100
AcDbText
  0
TEXT
  5
3FF
100
AcDbEntity
  8
ALL_DIM
100
AcDbText
 62
5
  6
CONTINUOUS
 10
521.8828125
 20
729.7265625
  7
STANDARD
 40
10.5
  1
  
 41
0.7857142857
 72
1
 11
530.1328125
 21
729.7265625
100
AcDbText
  0
LINE
  5
400
100
AcDbEntity
  8
ALL_DIM
100
AcDbLine
 62
2
  6
CONTINUOUS
 10
289.5078125
 20
774.4765625
 11
289.5078125
 21
719.4765625
  0
LINE
  5
401
100
AcDbEntity
  8
ALL_DIM
100
AcDbLine
 62
2
  6
CONTINUOUS
 10
729.5078125
 20
774.4765625
 11
729.5078125
 21
719.4765625
  0
LINE
  5
402
100
AcDbEntity
  8
ALL_DIM
100
AcDbLine
 62
2
  6
CONTINUOUS
 10
289.5078125
 20
724.4765625
 11
509.5078125
 21
724.4765625
  0
LINE
  5
403
100
AcDbEntity
  8
ALL_DIM
100
AcDbLine
 62
2
  6
CONTINUOUS
 10
729.5078125
 20
724.4765625
 11
509.5078125
 21
724.4765625
  0
INSERT
  5
404
100
AcDbEntity
  8
ALL_DIM
100
AcDbBlockReference
 62
2
  6
CONTINUOUS
  2
_FILLED
 10
289.5078125
 20
724.4765625
 41
17.5
 42
17.5
 43
17.5
 50
180.0
  0
INSERT
  5
405
100
AcDbEntity
  8
ALL_DIM
100
AcDbBlockReference
 62
2
  6
CONTINUOUS
  2
_FILLED
 10
729.5078125
 20
724.4765625
 41
17.5
 42
17.5
 43
17.5
  0
ENDBLK
  5
406
100
AcDbEntity
  8
0
  6
BYBLOCK
 62
0
100
AcDbBlockEnd
  0
ENDSEC
  0
SECTION
  2
ENTITIES
  0
DIMENSION
  5
407
100
AcDbEntity
  8
ALL_DIM
100
AcDbDimension
 62
2
  6
CONTINUOUS
  2
*D0
 10
299.5078125
 20
1234.4765625
 11
270.028566015
 21
1290.2093011112
 70
164
 71
3
 42
10.0
  1
R<>
  3
DIMSTYLE_1
100
AcDbRadialDimension
 15
293.0944724843
 25
1242.149180687
  0
DIMENSION
  5
408
100
AcDbEntity
  8
ALL_DIM
100
AcDbDimension
 62
2
  6
CONTINUOUS
  2
*D1
 10
239.5078125
 20
1244.4765625
 11
239.5078125
 21
1009.1015625
 70
160
 71
2
 42
470.0
  3
DIMSTYLE_2
100
AcDbAlignedDimension
 13
719.5078125
 23
774.4765625
 14
719.5078125
 24
1244.4765625
 50
90.0
100
AcDbRotatedDimension
  0
DIMENSION
  5
409
100
AcDbEntity
  8
ALL_DIM
100
AcDbDimension
 62
2
  6
CONTINUOUS
  2
*D2
 10
729.5078125
 20
724.4765625
 11
509.1328125
 21
724.4765625
 70
160
 71
2
 42
440.0
  3
DIMSTYLE_2
100
AcDbAlignedDimension
 13
289.5078125
 23
774.4765625
 14
729.5078125
 24
774.4765625
100
AcDbRotatedDimension
  0
INSERT
  5
40A
100
AcDbEntity
  8
ALL_DETAIL_ITEM
100
AcDbBlockReference
 62
2
  6
CONTINUOUS
  2
B2B_NASLOV_RISBE_BL0
 10
739.0904398982
 20
192.7917686006
  0
INSERT
  5
40B
100
AcDbEntity
  8
ALL_DETAIL_ITEM
100
AcDbBlockReference
 62
2
  6
CONTINUOUS
  2
STEKLO_B2B_BL1
 10
342.3859460627
 20
438.0606055365
  0
LEADER
  5
40C
100
AcDbEntity
  8
ALL_DETAIL_ITEM
100
AcDbLeader
 62
2
  6
CONTINUOUS
  3
STANDARD
 71
1
 72
0
 73
2
 75
0
 76
2
 10
728.8609261274
 20
1057.9595719811
 30
0.0
 10
767.8897949404
 20
1122.4920275218
 30
0.0
340
40D
212
-12.0434237315
222
-19.9132521681
232
0.0
1001
ACAD
1000
DSTYLE
1002
{
1070
77
1070
0
1070
341
1005
218
1002
}
  0
INSERT
  5
40D
102
{ACAD_REACTORS
330
40C
102
}
100
AcDbEntity
  8
ALL_DETAIL_ITEM
100
AcDbBlockReference
 62
2
  6
CONTINUOUS
  2
POZ_FS_B2B_BL2
 10
779.9332186719
 20
1142.4052796898
  0
LINE
  5
40E
100
AcDbEntity
  8
0
100
AcDbLine
 62
7
  6
CONTINUOUS
 10
0.0
 20
0.0
 11
1050.0
 21
0.0
  0
LINE
  5
40F
100
AcDbEntity
  8
0
100
AcDbLine
 62
7
  6
CONTINUOUS
 10
0.0
 20
0.0
 11
0.0
 21
1485.0
  0
LINE
  5
410
100
AcDbEntity
  8
0
100
AcDbLine
 62
7
  6
CONTINUOUS
 10
1050.0
 20
0.0
 11
1050.0
 21
1485.0
  0
LINE
  5
411
100
AcDbEntity
  8
0
100
AcDbLine
 62
7
  6
CONTINUOUS
 10
0.0
 20
1485.0
 11
1050.0
 21
1485.0
  0
LINE
  5
412
100
AcDbEntity
  8
03___PRT_ALL_CURVES
100
AcDbLine
 62
7
  6
CONTINUOUS
 10
299.5078125
 20
774.4765625
 11
719.5078125
 21
774.4765625
  0
LINE
  5
413
100
AcDbEntity
  8
03___PRT_ALL_CURVES
100
AcDbLine
 62
7
  6
CONTINUOUS
 10
289.5078125
 20
784.4765625
 11
289.5078125
 21
1234.4765625
  0
LINE
  5
414
100
AcDbEntity
  8
03___PRT_ALL_CURVES
100
AcDbLine
 62
7
  6
CONTINUOUS
 10
729.5078125
 20
784.4765625
 11
729.5078125
 21
1234.4765625
  0
LINE
  5
415
100
AcDbEntity
  8
03___PRT_ALL_CURVES
100
AcDbLine
 62
7
  6
CONTINUOUS
 10
299.5078125
 20
1244.4765625
 11
719.5078125
 21
1244.4765625
  0
ARC
  5
416
100
AcDbEntity
  8
03___PRT_ALL_CURVES
100
AcDbCircle
 62
7
  6
CONTINUOUS
 10
299.5078125
 20
784.4765625
 40
10.0
100
AcDbArc
 50
180.0
 51
270.0
  0
ARC
  5
417
100
AcDbEntity
  8
03___PRT_ALL_CURVES
100
AcDbCircle
 62
7
  6
CONTINUOUS
 10
719.5078125
 20
784.4765625
 40
10.0
100
AcDbArc
 50
270.0
 51
360.0
  0
ARC
  5
418
100
AcDbEntity
  8
03___PRT_ALL_CURVES
100
AcDbCircle
 62
7
  6
CONTINUOUS
 10
719.5078125
 20
1234.4765625
 40
10.0
100
AcDbArc
 50
0.0
 51
90.0
  0
ARC
  5
419
100
AcDbEntity
  8
03___PRT_ALL_CURVES
100
AcDbCircle
 62
7
  6
CONTINUOUS
 10
299.5078125
 20
1234.4765625
 40
10.0
100
AcDbArc
 50
90.0
 51
180.0
  0
ENDSEC
  0
SECTION
  2
OBJECTS
  0
DICTIONARY
  5
C
100
AcDbDictionary
280
0
281
1
  3
ACAD_GROUP
350
D
  3
ACAD_MLINESTYLE
350
17
  3
ACAD_LAYOUT
350
1A
  3
ACAD_PLOTSETTINGS
350
19
  3
ACAD_PLOTSTYLENAME
350
E
  0
DICTIONARY
  5
D
102
{ACAD_REACTORS
330
C
102
}
100
AcDbDictionary
280
0
281
1
  0
ACDBDICTIONARYWDFLT
  5
E
102
{ACAD_REACTORS
330
C
102
}
100
AcDbDictionary
281
1
  3
Normal
350
F
100
AcDbDictionaryWithDefault
340
F
  0
DICTIONARY
  5
17
102
{ACAD_REACTORS
330
C
102
}
100
AcDbDictionary
280
0
281
1
  3
Standard
350
18
  0
DICTIONARY
  5
19
102
{ACAD_REACTORS
330
C
102
}
100
AcDbDictionary
281
1
  0
DICTIONARY
  5
1A
102
{ACAD_REACTORS
330
C
102
}
100
AcDbDictionary
281
1
  3
Model
350
41A
  3
Layout1
350
41B
  0
ACDBPLACEHOLDER
  5
F
102
{ACAD_REACTORS
330
E
102
}
  0
MLINESTYLE
  5
18
102
{ACAD_REACTORS
330
17
102
}
100
AcDbMlineStyle
  2
STANDARD
 70
0
  3

 62
256
 51
90.0
 52
90.0
 71
2
 49
0.5
 62
256
  6
BYLAYER
 49
-0.5
 62
256
  6
BYLAYER
  0
LAYOUT
  5
41A
102
{ACAD_REACTORS
330
1A
102
}
100
AcDbPlotSettings
  1

  2
none_device
  4

  6

 40
0.0
 41
0.0
 42
0.0
 43
0.0
 44
210.0
 45
297.0
 46
0.0
 47
0.0
 48
0.0
 49
0.0
140
0.0
141
0.0
142
1.0
143
1.0
 70
1024
 72
1
 73
0
 74
0
  7

 75
0
147
1.0
148
0.0
149
0.0
100
AcDbLayout
  1
Model
 70
0
 71
0
 10
0.0
 20
0.0
 11
210.0
 21
297.0
 12
0.0
 22
0.0
 32
0.0
 14
0.0
 24
0.0
 34
0.0
 15
0.0
 25
0.0
 35
0.0
146
0.0
 13
0.0
 23
0.0
 33
0.0
 16
1.0
 26
0.0
 36
0.0
 17
0.0
 27
1.0
 37
0.0
 76
0
330
215
345
0
346
0
  0
LAYOUT
  5
41B
102
{ACAD_REACTORS
330
1A
102
}
100
AcDbPlotSettings
  1

  2
none_device
  4

  6

 40
0.0
 41
0.0
 42
0.0
 43
0.0
 44
210.0
 45
297.0
 46
0.0
 47
0.0
 48
0.0
 49
0.0
140
0.0
141
0.0
142
1.0
143
1.0
 70
0
 72
1
 73
0
 74
0
  7

 75
0
147
1.0
148
0.0
149
0.0
100
AcDbLayout
  1
Layout1
 70
0
 71
1
 10
0.0
 20
0.0
 11
210.0
 21
297.0
 12
0.0
 22
0.0
 32
0.0
 14
0.0
 24
0.0
 34
0.0
 15
0.0
 25
0.0
 35
0.0
146
0.0
 13
0.0
 23
0.0
 33
0.0
 16
1.0
 26
0.0
 36
0.0
 17
0.0
 27
1.0
 37
0.0
 76
0
330
216
345
0
346
0
  0
ENDSEC
  0
EOF
