999
DXF file: 1135104-izrez-variant-10-u.dxf
999
Pro/ENGINEER 2017170 by Parametric Technology Corporation
  0
SECTION
  2
HEADER
  9
$ACADVER
  1
AC1018
  9
$DWGCODEPAGE
  3
ANSI_1250
  9
$EXTMAX
 10
1050.0
 20
1485.0
 30
0.0
  9
$EXTMIN
 10
0.0
 20
0.0
 30
0.0
  9
$LIMMIN
 10
0.0
 20
0.0
  9
$LIMMAX
 10
1050.0
 20
1485.0
  9
$VIEWCTR
 10
525.0
 20
742.5
  9
$VIEWSIZE
 40
1485.0
  9
$CLAYER
  8
0
  9
$LTSCALE
 40
96.8
  9
$CELTYPE
  6
BYLAYER
  9
$DIMSCALE
 40
1.0
  9
$DIMASZ
 40
17.5
  9
$DIMEXO
 40
0.0
  9
$DIMDLI
 40
66.88
  9
$DIMEXE
 40
1.0
  9
$DIMCEN
 40
15.84
  9
$DIMLFAC
 40
1.0
  9
$DIMBLK
  1
_FILLED
  9
$DIMALT
 70
0
  9
$DIMALTF
 40
25.4
  9
$DIMTXT
 40
17.5
  9
$DIMTOL
 70
1
  9
$DIMLIM
 70
0
  9
$DIMTFAC
 40
1.0
  9
$DIMTP
 40
0.005
  9
$DIMTM
 40
0.005
  9
$DIMGAP
 40
0.625
  9
$DIMDSEP
 70
46
  9
$AUNITS
 70
0
  9
$PDMODE
 70
3
  9
$PDSIZE
 40
1.0
  9
$HANDSEED
  5
6FC
  9
$TILEMODE
 70
1
  9
$MEASUREMENT
 70
1
  9
$INSUNITS
 70
4
  0
ENDSEC
  0
SECTION
  2
CLASSES
  0
CLASS
  1
ACDBDICTIONARYWDFLT
  2
AcDbDictionaryWithDefault
  3
AutoCAD 2000
 90
0
 91
1
280
0
281
0
  0
CLASS
  1
ACDBPLACEHOLDER
  2
AcDbPlaceHolder
  3
AutoCAD 2000
 90
0
 91
1
280
0
281
0
  0
CLASS
  1
LAYOUT
  2
AcDbLayout
  3
AutoCAD 2000
 90
0
 91
0
280
0
281
0
  0
ENDSEC
  0
SECTION
  2
TABLES
  0
TABLE
  2
VPORT
  5
8
100
AcDbSymbolTable
 70
2
  0
VPORT
  5
1F4
100
AcDbSymbolTableRecord
100
AcDbViewportTableRecord
  2
*ACTIVE
 70
0
 10
0.0
 20
0.0
 11
1.0
 21
1.0
 12
525.0
 22
742.5
 13
0.0
 23
0.0
 14
1.0
 24
1.0
 15
0.0
 25
0.0
 16
0.0
 26
0.0
 36
1.0
 17
0.0
 27
0.0
 37
0.0
 40
1485.0
 41
0.7070707071
 42
50.0
 43
0.0
 44
0.0
 50
0.0
 51
0.0
 71
0
 72
100
 73
1
 74
1
 75
0
 76
0
 77
0
 78
0
  0
ENDTAB
  0
TABLE
  2
LTYPE
  5
5
100
AcDbSymbolTable
 70
6
  0
LTYPE
  5
14
100
AcDbSymbolTableRecord
100
AcDbLinetypeTableRecord
  2
BYBLOCK
 70
0
  3

 72
65
 73
0
 40
0.0
  0
LTYPE
  5
15
100
AcDbSymbolTableRecord
100
AcDbLinetypeTableRecord
  2
BYLAYER
 70
0
  3

 72
65
 73
0
 40
0.0
  0
LTYPE
  5
16
100
AcDbSymbolTableRecord
100
AcDbLinetypeTableRecord
  2
CONTINUOUS
 70
64
  3
Solid line
 72
65
 73
0
 40
0.0
  0
LTYPE
  5
1F5
100
AcDbSymbolTableRecord
100
AcDbLinetypeTableRecord
  2
CENTER
 70
64
  3
____ _ ____ _ ____ _ ____ _ ____ _ ____ _ ____
 72
65
 73
4
 40
0.6
 49
0.375
 74
0
 49
-0.075
 74
0
 49
0.075
 74
0
 49
-0.075
 74
0
  0
LTYPE
  5
1F6
100
AcDbSymbolTableRecord
100
AcDbLinetypeTableRecord
  2
HIDDEN
 70
64
  3
- - - - - - - - - - - - - - - - - - - -
 72
65
 73
2
 40
0.2
 49
0.1
 74
0
 49
-0.1
 74
0
  0
LTYPE
  5
1F7
100
AcDbSymbolTableRecord
100
AcDbLinetypeTableRecord
  2
PHANTOM
 70
64
  3
_____ _ _ _____ _ _ _____ _ _ _____
 72
65
 73
6
 40
0.8
 49
0.45
 74
0
 49
-0.05
 74
0
 49
0.1
 74
0
 49
-0.05
 74
0
 49
0.1
 74
0
 49
-0.05
 74
0
  0
LTYPE
  5
1F8
100
AcDbSymbolTableRecord
100
AcDbLinetypeTableRecord
  2
DOT
 70
64
  3
. . . . . . . . . . . . . . . . . . . .
 72
65
 73
2
 40
0.2
 49
0.1
 74
0
 49
-0.1
 74
0
  0
LTYPE
  5
1F9
100
AcDbSymbolTableRecord
100
AcDbLinetypeTableRecord
  2
DASHED
 70
64
  3
- - - - - - - - - - - - - - - - - - - -
 72
65
 73
2
 40
0.2
 49
0.1
 74
0
 49
-0.1
 74
0
  0
ENDTAB
  0
TABLE
  2
LAYER
  5
2
100
AcDbSymbolTable
 70
36
  0
LAYER
  5
10
100
AcDbSymbolTableRecord
100
AcDbLayerTableRecord
  2
0
 70
0
 62
7
  6
CONTINUOUS
370
-3
390
F
  0
LAYER
  5
1FA
100
AcDbSymbolTableRecord
100
AcDbLayerTableRecord
  2
DEFAULT_1
 70
0
 62
7
  6
CENTER
370
-3
390
F
  0
LAYER
  5
1FB
100
AcDbSymbolTableRecord
100
AcDbLayerTableRecord
  2
DEFAULT_2
 70
0
 62
8
  6
HIDDEN
370
-3
390
F
  0
LAYER
  5
1FC
100
AcDbSymbolTableRecord
100
AcDbLayerTableRecord
  2
DEFAULT_3
 70
0
 62
7
  6
PHANTOM
370
-3
390
F
  0
LAYER
  5
1FD
100
AcDbSymbolTableRecord
100
AcDbLayerTableRecord
  2
01___PRT_ALL_DTM_PLN
 70
0
 62
7
  6
CONTINUOUS
370
-3
390
F
  0
LAYER
  5
1FE
100
AcDbSymbolTableRecord
100
AcDbLayerTableRecord
  2
01___PRT_DEF_DTM_PLN
 70
0
 62
7
  6
CONTINUOUS
370
-3
390
F
  0
LAYER
  5
1FF
100
AcDbSymbolTableRecord
100
AcDbLayerTableRecord
  2
02___PRT_ALL_AXES
 70
0
 62
7
  6
CONTINUOUS
370
-3
390
F
  0
LAYER
  5
200
100
AcDbSymbolTableRecord
100
AcDbLayerTableRecord
  2
03___PRT_ALL_CURVES
 70
0
 62
7
  6
CONTINUOUS
370
-3
390
F
  0
LAYER
  5
201
100
AcDbSymbolTableRecord
100
AcDbLayerTableRecord
  2
04___PRT_ALL_DTM_PNT
 70
0
 62
7
  6
CONTINUOUS
370
-3
390
F
  0
LAYER
  5
202
100
AcDbSymbolTableRecord
100
AcDbLayerTableRecord
  2
05___PRT_ALL_DTM_CSYS
 70
0
 62
7
  6
CONTINUOUS
370
-3
390
F
  0
LAYER
  5
203
100
AcDbSymbolTableRecord
100
AcDbLayerTableRecord
  2
05___PRT_DEF_DTM_CSYS
 70
0
 62
7
  6
CONTINUOUS
370
-3
390
F
  0
LAYER
  5
204
100
AcDbSymbolTableRecord
100
AcDbLayerTableRecord
  2
06___PRT_ALL_SURFS
 70
0
 62
7
  6
CONTINUOUS
370
-3
390
F
  0
LAYER
  5
205
100
AcDbSymbolTableRecord
100
AcDbLayerTableRecord
  2
ALL_AXIS
 70
0
 62
7
  6
CONTINUOUS
370
-3
390
F
  0
LAYER
  5
206
100
AcDbSymbolTableRecord
100
AcDbLayerTableRecord
  2
ALL_CURVE
 70
0
 62
7
  6
CONTINUOUS
370
-3
390
F
  0
LAYER
  5
207
100
AcDbSymbolTableRecord
100
AcDbLayerTableRecord
  2
ALL_CURVE_ENT
 70
0
 62
7
  6
CONTINUOUS
370
-3
390
F
  0
LAYER
  5
208
100
AcDbSymbolTableRecord
100
AcDbLayerTableRecord
  2
ALL_DETAIL_ITEM
 70
0
 62
7
  6
CONTINUOUS
370
-3
390
F
  0
LAYER
  5
209
100
AcDbSymbolTableRecord
100
AcDbLayerTableRecord
  2
ALL_DIM
 70
0
 62
7
  6
CONTINUOUS
370
-3
390
F
  0
LAYER
  5
20A
100
AcDbSymbolTableRecord
100
AcDbLayerTableRecord
  2
ALL_FEATURE
 70
0
 62
7
  6
CONTINUOUS
370
-3
390
F
  0
LAYER
  5
20B
100
AcDbSymbolTableRecord
100
AcDbLayerTableRecord
  2
ALL_GEOM_FEAT
 70
0
 62
7
  6
CONTINUOUS
370
-3
390
F
  0
LAYER
  5
20C
100
AcDbSymbolTableRecord
100
AcDbLayerTableRecord
  2
ALL_NOGEOM_FEAT
 70
0
 62
7
  6
CONTINUOUS
370
-3
390
F
  0
LAYER
  5
20D
100
AcDbSymbolTableRecord
100
AcDbLayerTableRecord
  2
ALL_NOTE
 70
0
 62
7
  6
CONTINUOUS
370
-3
390
F
  0
LAYER
  5
20E
100
AcDbSymbolTableRecord
100
AcDbLayerTableRecord
  2
ALL_PARAMETER_DIM
 70
0
 62
7
  6
CONTINUOUS
370
-3
390
F
  0
LAYER
  5
20F
100
AcDbSymbolTableRecord
100
AcDbLayerTableRecord
  2
ALL_PROTRUSION_FEAT
 70
0
 62
7
  6
CONTINUOUS
370
-3
390
F
  0
LAYER
  5
210
100
AcDbSymbolTableRecord
100
AcDbLayerTableRecord
  2
ALL_SNAP_LINE
 70
0
 62
7
  6
CONTINUOUS
370
-3
390
F
  0
LAYER
  5
211
100
AcDbSymbolTableRecord
100
AcDbLayerTableRecord
  2
ALL_SYMBOL
 70
0
 62
7
  6
CONTINUOUS
370
-3
390
F
  0
ENDTAB
  0
TABLE
  2
STYLE
  5
3
100
AcDbSymbolTable
 70
1
  0
STYLE
  5
11
100
AcDbSymbolTableRecord
100
AcDbTextStyleTableRecord
  2
STANDARD
 70
0
 40
0.0
 41
0.6
 50
0.0
 71
0
 42
0.2
  3
txt
  4

  0
STYLE
  5
212
100
AcDbSymbolTableRecord
100
AcDbTextStyleTableRecord
  2
TEXTSTYLE_1
 70
0
 40
0.0
 41
0.8
 50
0.0
 71
0
 42
0.2
  3
gdt
  4

  0
STYLE
  5
213
100
AcDbSymbolTableRecord
100
AcDbTextStyleTableRecord
  2
TEXTSTYLE_2
 70
0
 40
0.0
 41
0.6
 50
0.0
 71
0
 42
0.2
  3
gdt
  4

  0
STYLE
  5
214
100
AcDbSymbolTableRecord
100
AcDbTextStyleTableRecord
  2
TEXTSTYLE_3
 70
0
 40
0.0
 41
0.7619047619
 50
0.0
 71
0
 42
0.2
  3
txt
  4

  0
ENDTAB
  0
TABLE
  2
VIEW
  5
6
100
AcDbSymbolTable
 70
0
  0
ENDTAB
  0
TABLE
  2
UCS
  5
7
100
AcDbSymbolTable
 70
0
  0
ENDTAB
  0
TABLE
  2
APPID
  5
9
100
AcDbSymbolTable
 70
1
  0
APPID
  5
215
100
AcDbSymbolTableRecord
100
AcDbRegAppTableRecord
  2
ACAD
 70
0
  0
ENDTAB
  0
TABLE
  2
BLOCK_RECORD
  5
1
100
AcDbSymbolTable
 70
0
  0
BLOCK_RECORD
  5
216
100
AcDbSymbolTableRecord
100
AcDbBlockTableRecord
  2
*Model_Space
  0
BLOCK_RECORD
  5
217
100
AcDbSymbolTableRecord
100
AcDbBlockTableRecord
  2
*Paper_Space
  0
BLOCK_RECORD
  5
218
100
AcDbSymbolTableRecord
100
AcDbBlockTableRecord
  2
_FILLED
  0
BLOCK_RECORD
  5
219
100
AcDbSymbolTableRecord
100
AcDbBlockTableRecord
  2
_DOTBLANK
  0
BLOCK_RECORD
  5
21A
100
AcDbSymbolTableRecord
100
AcDbBlockTableRecord
  2
*D0
  0
BLOCK_RECORD
  5
21B
100
AcDbSymbolTableRecord
100
AcDbBlockTableRecord
  2
*D1
  0
BLOCK_RECORD
  5
21C
100
AcDbSymbolTableRecord
100
AcDbBlockTableRecord
  2
*D2
  0
BLOCK_RECORD
  5
21D
100
AcDbSymbolTableRecord
100
AcDbBlockTableRecord
  2
*D3
  0
BLOCK_RECORD
  5
21E
100
AcDbSymbolTableRecord
100
AcDbBlockTableRecord
  2
*D4
  0
BLOCK_RECORD
  5
21F
100
AcDbSymbolTableRecord
100
AcDbBlockTableRecord
  2
POZ_FS_B2B_BL2
  0
BLOCK_RECORD
  5
220
100
AcDbSymbolTableRecord
100
AcDbBlockTableRecord
  2
U_LUNO_B2B_BL1
  0
BLOCK_RECORD
  5
221
100
AcDbSymbolTableRecord
100
AcDbBlockTableRecord
  2
B2B_NASLOV_RISBE_BL0
  0
ENDTAB
  0
TABLE
  2
DIMSTYLE
  5
A
100
AcDbSymbolTable
 70
1
100
AcDbDimStyleTable
 71
0
  0
DIMSTYLE
105
222
100
AcDbSymbolTableRecord
100
AcDbDimStyleTableRecord
  2
STANDARD
 70
0
  3

  4

 40
1.0
 41
17.5
 42
0.0
 43
0.38
 44
1.0
 45
0.0
 46
0.0
 47
0.005
 48
0.005
140
17.5
141
0.09
142
0.0
143
25.4
144
1.0
145
0.0
146
1.0
147
0.625
 71
1.0
 72
0.0
 73
0
 74
0
 75
0
 76
0
 77
1
 78
8
 79
2
170
0
171
2
172
0
173
0
174
0
175
0
176
0
177
0
178
5
270
2
179
3
271
3
272
3
273
2
274
2
275
0
280
0
281
0
282
0
283
1
284
8
285
0
286
0
287
3
288
0
340
11
278
46
341
218
342
218
343
218
344
218
  0
DIMSTYLE
105
223
100
AcDbSymbolTableRecord
100
AcDbDimStyleTableRecord
  2
DIMSTYLE_1
 70
0
  3

  4

 40
1.0
 41
17.5
 42
0.0
 43
0.38
 44
1.0
 45
0.0
 46
0.0
 47
0.8
 48
0.8
140
17.5
141
0.09
142
0.0
143
25.4
144
1.0
145
0.0
146
1.0
147
0.875
 71
0.0
 72
0.0
 73
0
 74
0
 75
0
 76
0
 77
1
 78
8
 79
2
170
0
171
2
172
0
173
0
174
0
175
0
176
0
177
0
178
5
270
2
179
3
271
3
272
3
273
2
274
2
275
0
280
0
281
0
282
0
283
1
284
8
285
0
286
0
287
3
288
0
340
11
278
46
341
218
342
218
343
218
344
218
  0
DIMSTYLE
105
224
100
AcDbSymbolTableRecord
100
AcDbDimStyleTableRecord
  2
DIMSTYLE_2
 70
0
  3
<>
  4

 40
1.0
 41
17.5
 42
0.0
 43
0.38
 44
1.0
 45
0.0
 46
0.0
 47
2.0
 48
2.0
140
17.5
141
0.09
142
0.0
143
25.4
144
1.0
145
0.0
146
1.0
147
0.625
 71
0.0
 72
0.0
 73
0
 74
0
 75
0
 76
0
 77
1
 78
8
 79
2
170
0
171
2
172
0
173
0
174
0
175
0
176
0
177
0
178
5
270
2
179
3
271
3
272
3
273
2
274
2
275
0
280
0
281
0
282
0
283
1
284
8
285
0
286
0
287
3
288
0
340
11
278
46
341
218
342
218
343
218
344
218
  0
DIMSTYLE
105
225
100
AcDbSymbolTableRecord
100
AcDbDimStyleTableRecord
  2
DIMSTYLE_3
 70
0
  3
<>
  4

 40
1.0
 41
17.5
 42
0.0
 43
0.38
 44
1.0
 45
0.0
 46
0.0
 47
0.3
 48
0.3
140
17.5
141
0.09
142
0.0
143
25.4
144
1.0
145
0.0
146
1.0
147
0.625
 71
0.0
 72
0.0
 73
0
 74
0
 75
0
 76
0
 77
1
 78
8
 79
2
170
0
171
2
172
0
173
0
174
0
175
0
176
0
177
0
178
5
270
2
179
3
271
3
272
3
273
2
274
2
275
0
280
0
281
0
282
0
283
1
284
8
285
0
286
0
287
3
288
0
340
11
278
46
341
218
342
218
343
218
344
218
  0
ENDTAB
  0
ENDSEC
  0
SECTION
  2
BLOCKS
  0
BLOCK
  5
20
100
AcDbEntity
  8
0
100
AcDbBlockBegin
  2
*Model_Space
 70
0
 10
0.0
 20
0.0
 30
0.0
  3
*Model_Space
  1

  0
ENDBLK
  5
21
100
AcDbEntity
  8
0
100
AcDbBlockEnd
  0
BLOCK
  5
1C
100
AcDbEntity
  8
0
100
AcDbBlockBegin
  2
*Paper_Space
 70
0
 10
0.0
 20
0.0
 30
0.0
  3
*Paper_Space
  1

  0
ENDBLK
  5
1D
100
AcDbEntity
  8
0
100
AcDbBlockEnd
  0
BLOCK
  5
226
100
AcDbEntity
  8
ALL_DETAIL_ITEM
100
AcDbBlockBegin
 62
2
  6
CONTINUOUS
  2
POZ_FS_B2B_BL2
 70
64
 10
819.250875
 20
1186.6944375
  3
POZ_FS_B2B_BL2
  1

  0
TEXT
  5
227
100
AcDbEntity
  8
ALL_DETAIL_ITEM
100
AcDbText
 62
5
  6
CONTINUOUS
 10
810.6890159522
 20
1174.5972855
  7
TEXTSTYLE_3
 40
25.0
  1
1
 41
0.7619047619
 72
0
100
AcDbText
  0
CIRCLE
  5
228
100
AcDbEntity
  8
ALL_DETAIL_ITEM
100
AcDbCircle
 62
2
  6
CONTINUOUS
 10
819.250875
 20
1186.6944375
 40
23.2719072507
  0
ENDBLK
  5
229
100
AcDbEntity
  8
0
  6
BYBLOCK
 62
0
100
AcDbBlockEnd
  0
BLOCK
  5
22A
100
AcDbEntity
  8
ALL_DETAIL_ITEM
100
AcDbBlockBegin
 62
2
  6
CONTINUOUS
  2
U_LUNO_B2B_BL1
 70
64
 10
344.897070022
 20
436.6609156503
  3
U_LUNO_B2B_BL1
  1

  0
TEXT
  5
22B
100
AcDbEntity
  8
ALL_DETAIL_ITEM
100
AcDbText
 62
5
  6
CONTINUOUS
 10
496.485778302
 20
431.0866053818
  7
STANDARD
 40
17.5
  1
14
 50
90.0
 41
0.6785714286
 72
0
100
AcDbText
  0
TEXT
  5
22C
100
AcDbEntity
  8
ALL_DETAIL_ITEM
100
AcDbText
 62
5
  6
CONTINUOUS
 10
485.985778302
 20
454.8366053818
  7
STANDARD
 40
10.5
  1
+1
 50
90.0
 41
0.6428571429
 72
0
100
AcDbText
  0
TEXT
  5
22D
100
AcDbEntity
  8
ALL_DETAIL_ITEM
100
AcDbText
 62
5
  6
CONTINUOUS
 10
397.1932633595
 20
659.3267028658
  7
TEXTSTYLE_2
 40
17.5
  1
n
 41
1.0
 72
0
100
AcDbText
  0
TEXT
  5
22E
100
AcDbEntity
  8
ALL_DETAIL_ITEM
100
AcDbText
 62
5
  6
CONTINUOUS
 10
420.5265966928
 20
659.3267028658
  7
STANDARD
 40
17.5
  1
5
 41
0.7142857143
 72
0
100
AcDbText
  0
TEXT
  5
22F
100
AcDbEntity
  8
ALL_DETAIL_ITEM
100
AcDbText
 62
5
  6
CONTINUOUS
 10
212.3183952706
 20
659.3297371163
  7
TEXTSTYLE_3
 40
25.0
  1
1
 41
0.5714285714
 72
0
100
AcDbText
  0
LINE
  5
230
100
AcDbEntity
  8
ALL_DETAIL_ITEM
100
AcDbLine
 62
9
  6
CONTINUOUS
 10
350.826159366
 20
217.1206962913
 11
358.7687824625
 21
217.1206962913
  0
LINE
  5
231
100
AcDbEntity
  8
ALL_DETAIL_ITEM
100
AcDbLine
 62
9
  6
CONTINUOUS
 10
362.5272165125
 20
217.1206962913
 11
370.469839609
 21
217.1206962913
  0
LINE
  5
232
100
AcDbEntity
  8
ALL_DETAIL_ITEM
100
AcDbLine
 62
9
  6
CONTINUOUS
 10
379.791903075
 20
221.4750469243
 11
341.5040959
 21
221.4750469243
  0
LINE
  5
233
100
AcDbEntity
  8
ALL_DETAIL_ITEM
100
AcDbLine
 62
9
  6
CONTINUOUS
 10
380.6479994875
 20
223.1156213913
 11
340.6479994875
 21
223.1156213913
  0
LINE
  5
234
100
AcDbEntity
  8
ALL_DETAIL_ITEM
100
AcDbLine
 62
9
  6
CONTINUOUS
 10
350.6479994875
 20
232.2116053818
 11
370.6479994875
 21
232.2116053818
  0
LINE
  5
235
100
AcDbEntity
  8
ALL_DETAIL_ITEM
100
AcDbLine
 62
9
  6
CONTINUOUS
 10
366.70861251
 20
291.2116053818
 11
353.6479994875
 21
291.2116053818
  0
LINE
  5
236
100
AcDbEntity
  8
ALL_DETAIL_ITEM
100
AcDbLine
 62
9
  6
CONTINUOUS
 10
354.311418244
 20
298.2341606343
 11
364.7711615345
 21
298.2341606343
  0
LINE
  5
237
100
AcDbEntity
  8
ALL_DETAIL_ITEM
100
AcDbLine
 62
9
  6
CONTINUOUS
 10
285.5099502155
 20
616.2116053818
 11
285.5099502155
 21
416.2116053818
  0
LINE
  5
238
100
AcDbEntity
  8
ALL_DETAIL_ITEM
100
AcDbLine
 62
9
  6
CONTINUOUS
 10
266.943523221
 20
187.5837605898
 11
281.876345781
 21
409.4534787348
  0
LINE
  5
239
100
AcDbEntity
  8
ALL_DETAIL_ITEM
100
AcDbLine
 62
9
  6
CONTINUOUS
 10
282.0235588255
 20
411.5603877508
 11
281.876345781
 21
409.4534787348
  0
LINE
  5
23A
100
AcDbEntity
  8
ALL_DETAIL_ITEM
100
AcDbLine
 62
9
  6
CONTINUOUS
 10
282.0235588255
 20
411.5603877508
 11
282.1317097635
 21
412.3023215888
  0
LINE
  5
23B
100
AcDbEntity
  8
ALL_DETAIL_ITEM
100
AcDbLine
 62
9
  6
CONTINUOUS
 10
282.1317097635
 20
412.3023215888
 11
282.3495023805
 21
413.0197282323
  0
LINE
  5
23C
100
AcDbEntity
  8
ALL_DETAIL_ITEM
100
AcDbLine
 62
9
  6
CONTINUOUS
 10
282.3495023805
 20
413.0197282323
 11
282.672039123
 21
413.6964751868
  0
LINE
  5
23D
100
AcDbEntity
  8
ALL_DETAIL_ITEM
100
AcDbLine
 62
9
  6
CONTINUOUS
 10
282.672039123
 20
413.6964751868
 11
283.0920670305
 21
414.3173442833
  0
LINE
  5
23E
100
AcDbEntity
  8
ALL_DETAIL_ITEM
100
AcDbLine
 62
9
  6
CONTINUOUS
 10
283.0920670305
 20
414.3173442833
 11
283.6001408355
 21
414.8683738903
  0
LINE
  5
23F
100
AcDbEntity
  8
ALL_DETAIL_ITEM
100
AcDbLine
 62
9
  6
CONTINUOUS
 10
283.6001408355
 20
414.8683738903
 11
284.1848353605
 21
415.3371728733
  0
LINE
  5
240
100
AcDbEntity
  8
ALL_DETAIL_ITEM
100
AcDbLine
 62
9
  6
CONTINUOUS
 10
284.1848353605
 20
415.3371728733
 11
284.833002442
 21
415.7131992393
  0
LINE
  5
241
100
AcDbEntity
  8
ALL_DETAIL_ITEM
100
AcDbLine
 62
9
  6
CONTINUOUS
 10
284.833002442
 20
415.7131992393
 11
285.5300665915
 21
415.9879971928
  0
LINE
  5
242
100
AcDbEntity
  8
ALL_DETAIL_ITEM
100
AcDbLine
 62
9
  6
CONTINUOUS
 10
281.876345781
 20
409.4534787348
 11
281.0005338415
 21
409.0810291888
  0
LINE
  5
243
100
AcDbEntity
  8
ALL_DETAIL_ITEM
100
AcDbLine
 62
9
  6
CONTINUOUS
 10
281.0005338415
 20
409.0810291888
 11
279.38535291
 21
408.7360862668
  0
LINE
  5
244
100
AcDbEntity
  8
ALL_DETAIL_ITEM
100
AcDbLine
 62
9
  6
CONTINUOUS
 10
279.38535291
 20
408.7360862668
 11
277.0368392035
 21
408.4198528313
  0
LINE
  5
245
100
AcDbEntity
  8
ALL_DETAIL_ITEM
100
AcDbLine
 62
9
  6
CONTINUOUS
 10
277.0368392035
 20
408.4198528313
 11
273.962883459
 21
408.1334531578
  0
LINE
  5
246
100
AcDbEntity
  8
ALL_DETAIL_ITEM
100
AcDbLine
 62
9
  6
CONTINUOUS
 10
273.962883459
 20
408.1334531578
 11
270.173962882
 21
407.8779795488
  0
LINE
  5
247
100
AcDbEntity
  8
ALL_DETAIL_ITEM
100
AcDbLine
 62
9
  6
CONTINUOUS
 10
270.173962882
 20
407.8779795488
 11
265.6852832495
 21
407.6545284083
  0
LINE
  5
248
100
AcDbEntity
  8
ALL_DETAIL_ITEM
100
AcDbLine
 62
9
  6
CONTINUOUS
 10
265.6852832495
 20
407.6545284083
 11
260.516113949
 21
407.4640427488
  0
LINE
  5
249
100
AcDbEntity
  8
ALL_DETAIL_ITEM
100
AcDbLine
 62
9
  6
CONTINUOUS
 10
260.516113949
 20
407.4640427488
 11
254.685857863
 21
407.3072015133
  0
LINE
  5
24A
100
AcDbEntity
  8
ALL_DETAIL_ITEM
100
AcDbLine
 62
9
  6
CONTINUOUS
 10
254.685857863
 20
407.3072015133
 11
248.215061083
 21
407.1845616668
  0
LINE
  5
24B
100
AcDbEntity
  8
ALL_DETAIL_ITEM
100
AcDbLine
 62
9
  6
CONTINUOUS
 10
248.215061083
 20
407.1845616668
 11
241.1288917755
 21
407.0966188758
  0
LINE
  5
24C
100
AcDbEntity
  8
ALL_DETAIL_ITEM
100
AcDbLine
 62
9
  6
CONTINUOUS
 10
241.1288917755
 20
407.0966188758
 11
233.456069358
 21
407.0437274453
  0
LINE
  5
24D
100
AcDbEntity
  8
ALL_DETAIL_ITEM
100
AcDbLine
 62
9
  6
CONTINUOUS
 10
233.456069358
 20
407.0437274453
 11
225.2265315255
 21
407.0260774908
  0
LINE
  5
24E
100
AcDbEntity
  8
ALL_DETAIL_ITEM
100
AcDbLine
 62
9
  6
CONTINUOUS
 10
225.2265315255
 20
407.0260774908
 11
216.471080476
 21
407.0437243168
  0
LINE
  5
24F
100
AcDbEntity
  8
ALL_DETAIL_ITEM
100
AcDbLine
 62
9
  6
CONTINUOUS
 10
216.471080476
 20
407.0437243168
 11
207.221477441
 21
407.0966098618
  0
LINE
  5
250
100
AcDbEntity
  8
ALL_DETAIL_ITEM
100
AcDbLine
 62
9
  6
CONTINUOUS
 10
207.221477441
 20
407.0966098618
 11
197.512429636
 21
407.1845537743
  0
LINE
  5
251
100
AcDbEntity
  8
ALL_DETAIL_ITEM
100
AcDbLine
 62
9
  6
CONTINUOUS
 10
197.512429636
 20
407.1845537743
 11
187.38389945
 21
407.3072006243
  0
LINE
  5
252
100
AcDbEntity
  8
ALL_DETAIL_ITEM
100
AcDbLine
 62
9
  6
CONTINUOUS
 10
187.38389945
 20
407.3072006243
 11
179.733856112
 21
407.4213930073
  0
LINE
  5
253
100
AcDbEntity
  8
ALL_DETAIL_ITEM
100
AcDbLine
 62
9
  6
CONTINUOUS
 10
358.7600911455
 20
293.4489938993
 11
357.8812422625
 21
295.0602804858
  0
LINE
  5
254
100
AcDbEntity
  8
ALL_DETAIL_ITEM
100
AcDbLine
 62
9
  6
CONTINUOUS
 10
300.250736138
 20
411.2813618558
 11
301.813010868
 21
411.2813618558
  0
LINE
  5
255
100
AcDbEntity
  8
ALL_DETAIL_ITEM
100
AcDbLine
 62
9
  6
CONTINUOUS
 10
296.260168214
 20
411.5603877508
 11
179.840773915
 21
411.5603877473
  0
LINE
  5
256
100
AcDbEntity
  8
ALL_DETAIL_ITEM
100
AcDbLine
 62
9
  6
CONTINUOUS
 10
285.5300665915
 20
415.9879971928
 11
286.2603527625
 21
416.1553872873
  0
LINE
  5
257
100
AcDbEntity
  8
ALL_DETAIL_ITEM
100
AcDbLine
 62
9
  6
CONTINUOUS
 10
286.2603527625
 20
416.1553872873
 11
287.0074388355
 21
416.2116053818
  0
LINE
  5
258
100
AcDbEntity
  8
ALL_DETAIL_ITEM
100
AcDbLine
 62
9
  6
CONTINUOUS
 10
358.316760297
 20
296.9127303988
 11
357.8812422625
 21
295.0602804858
  0
LINE
  5
259
100
AcDbEntity
  8
ALL_DETAIL_ITEM
100
AcDbLine
 62
2
  6
CONTINUOUS
 10
299.8354384475
 20
616.2116053818
 11
453.530665625
 21
616.2116053818
  0
SPLINE
  5
25A
100
AcDbEntity
  8
ALL_DETAIL_ITEM
100
AcDbSpline
 62
2
  6
CONTINUOUS
 70
0
 71
3
 72
26
 73
22
 74
0
 42
0.0000001
 43
0.0000001
 44
0.0000000001
 40
0.0
 40
0.0
 40
0.0
 40
0.0
 40
0.0526315789
 40
0.1052631579
 40
0.1578947368
 40
0.2105263158
 40
0.2631578947
 40
0.3157894737
 40
0.3684210526
 40
0.4210526316
 40
0.4736842105
 40
0.5263157895
 40
0.5789473684
 40
0.6315789474
 40
0.6842105263
 40
0.7368421053
 40
0.7894736842
 40
0.8421052632
 40
0.8947368421
 40
0.9473684211
 40
1.0
 40
1.0
 40
1.0
 40
1.0
 10
453.530665625
 20
616.2116053818
 30
0.0
 10
454.512914374
 20
612.7793965488
 30
0.0
 10
456.4794123925
 20
605.3838690158
 30
0.0
 10
459.378013987
 20
593.0415174793
 30
0.0
 10
462.396911125
 20
578.4172976128
 30
0.0
 10
464.7591214175
 20
564.0759180273
 30
0.0
 10
466.180176204
 20
551.7877886293
 30
0.0
 10
466.896046018
 20
540.9404844998
 30
0.0
 10
467.0403376765
 20
530.9439643053
 30
0.0
 10
466.707061348
 20
521.8329139658
 30
0.0
 10
465.880958097
 20
512.7688532793
 30
0.0
 10
464.4181886305
 20
502.1791740263
 30
0.0
 10
462.6529524145
 20
490.8848176448
 30
0.0
 10
461.2212249885
 20
480.9076104148
 30
0.0
 10
460.3007577205
 20
472.1445170678
 30
0.0
 10
459.8795005045
 20
464.7176385703
 30
0.0
 10
459.891448994
 20
457.3905369908
 30
0.0
 10
460.373514002
 20
448.9353463253
 30
0.0
 10
461.385353152
 20
439.2049785198
 30
0.0
 10
462.913020103
 20
428.3377723993
 30
0.0
 10
464.033350278
 20
420.3754863913
 30
0.0
 10
464.639153389
 20
416.2116053818
 30
0.0
  0
LINE
  5
25B
100
AcDbEntity
  8
ALL_DETAIL_ITEM
100
AcDbLine
 62
2
  6
CONTINUOUS
 10
464.639153389
 20
416.2116053818
 11
373.1479994875
 21
416.2116053818
  0
LINE
  5
25C
100
AcDbEntity
  8
ALL_DETAIL_ITEM
100
AcDbLine
 62
2
  6
CONTINUOUS
 10
373.1479994875
 20
416.2116053818
 11
373.1479994875
 21
486.2116053818
  0
LINE
  5
25D
100
AcDbEntity
  8
ALL_DETAIL_ITEM
100
AcDbLine
 62
2
  6
CONTINUOUS
 10
373.1479994875
 20
486.2116053818
 11
360.6479994875
 21
493.4284837468
  0
LINE
  5
25E
100
AcDbEntity
  8
ALL_DETAIL_ITEM
100
AcDbLine
 62
2
  6
CONTINUOUS
 10
360.6479994875
 20
493.4284837468
 11
348.1479994875
 21
486.2116053818
  0
LINE
  5
25F
100
AcDbEntity
  8
ALL_DETAIL_ITEM
100
AcDbLine
 62
2
  6
CONTINUOUS
 10
348.1479994875
 20
486.2116053818
 11
348.1479994875
 21
416.2116053818
  0
LINE
  5
260
100
AcDbEntity
  8
ALL_DETAIL_ITEM
100
AcDbLine
 62
2
  6
CONTINUOUS
 10
348.1479994875
 20
416.2116053818
 11
299.8354384475
 21
416.2116053818
  0
LINE
  5
261
100
AcDbEntity
  8
ALL_DETAIL_ITEM
100
AcDbLine
 62
2
  6
CONTINUOUS
 10
299.8354384475
 20
416.2116053818
 11
299.8354384475
 21
616.2116053818
  0
LINE
  5
262
100
AcDbEntity
  8
ALL_DETAIL_ITEM
100
AcDbLine
 62
2
  6
CONTINUOUS
 10
430.768576811
 20
416.2116053818
 11
460.7272605732
 21
446.1702891439
  0
LINE
  5
263
100
AcDbEntity
  8
ALL_DETAIL_ITEM
100
AcDbLine
 62
2
  6
CONTINUOUS
 10
395.413237752
 20
416.2116053818
 11
461.4687746531
 21
482.2671422828
  0
LINE
  5
264
100
AcDbEntity
  8
ALL_DETAIL_ITEM
100
AcDbLine
 62
2
  6
CONTINUOUS
 10
373.1479994875
 20
429.3017061763
 11
466.6602528297
 21
522.8139595185
  0
LINE
  5
265
100
AcDbEntity
  8
ALL_DETAIL_ITEM
100
AcDbLine
 62
2
  6
CONTINUOUS
 10
324.702559634
 20
416.2116053818
 11
348.1479994875
 21
439.6570452353
  0
LINE
  5
266
100
AcDbEntity
  8
ALL_DETAIL_ITEM
100
AcDbLine
 62
2
  6
CONTINUOUS
 10
373.1479994875
 20
464.6570452353
 11
465.5360600398
 21
557.0451057875
  0
LINE
  5
267
100
AcDbEntity
  8
ALL_DETAIL_ITEM
100
AcDbLine
 62
2
  6
CONTINUOUS
 10
299.8354384475
 20
426.6998232543
 11
348.1479994875
 21
475.0123842943
  0
LINE
  5
268
100
AcDbEntity
  8
ALL_DETAIL_ITEM
100
AcDbLine
 62
2
  6
CONTINUOUS
 10
364.398656249
 20
491.2630410558
 11
460.5172268496
 21
587.3816116564
  0
LINE
  5
269
100
AcDbEntity
  8
ALL_DETAIL_ITEM
100
AcDbLine
 62
2
  6
CONTINUOUS
 10
299.8354384475
 20
462.0551623133
 11
453.6276936871
 21
615.8474175529
  0
LINE
  5
26A
100
AcDbEntity
  8
ALL_DETAIL_ITEM
100
AcDbLine
 62
2
  6
CONTINUOUS
 10
299.8354384475
 20
497.4105013723
 11
418.636542457
 21
616.2116053818
  0
LINE
  5
26B
100
AcDbEntity
  8
ALL_DETAIL_ITEM
100
AcDbLine
 62
2
  6
CONTINUOUS
 10
299.8354384475
 20
532.7658404313
 11
383.281203398
 21
616.2116053818
  0
LINE
  5
26C
100
AcDbEntity
  8
ALL_DETAIL_ITEM
100
AcDbLine
 62
2
  6
CONTINUOUS
 10
299.8354384475
 20
568.1211794903
 11
347.925864339
 21
616.2116053818
  0
LINE
  5
26D
100
AcDbEntity
  8
ALL_DETAIL_ITEM
100
AcDbLine
 62
2
  6
CONTINUOUS
 10
299.8354384475
 20
603.4765185493
 11
312.57052528
 21
616.2116053818
  0
LINE
  5
26E
100
AcDbEntity
  8
ALL_DETAIL_ITEM
100
AcDbLine
 62
2
  6
CONTINUOUS
 10
462.9254424847
 20
574.826559322
 11
421.540396425
 21
616.2116053818
  0
LINE
  5
26F
100
AcDbEntity
  8
ALL_DETAIL_ITEM
100
AcDbLine
 62
2
  6
CONTINUOUS
 10
466.8900541443
 20
535.5066086035
 11
386.185057366
 21
616.2116053818
  0
LINE
  5
270
100
AcDbEntity
  8
ALL_DETAIL_ITEM
100
AcDbLine
 62
2
  6
CONTINUOUS
 10
464.4438778167
 20
502.5974458721
 11
350.829718307
 21
616.2116053818
  0
LINE
  5
271
100
AcDbEntity
  8
ALL_DETAIL_ITEM
100
AcDbLine
 62
2
  6
CONTINUOUS
 10
460.3268699053
 20
471.3591147245
 11
315.474379248
 21
616.2116053818
  0
LINE
  5
272
100
AcDbEntity
  8
ALL_DETAIL_ITEM
100
AcDbLine
 62
2
  6
CONTINUOUS
 10
462.1207235896
 20
434.2099219811
 11
299.8354384475
 21
596.4952071233
  0
LINE
  5
273
100
AcDbEntity
  8
ALL_DETAIL_ITEM
100
AcDbLine
 62
2
  6
CONTINUOUS
 10
444.76370113
 20
416.2116053818
 11
299.8354384475
 21
561.1398680643
  0
LINE
  5
274
100
AcDbEntity
  8
ALL_DETAIL_ITEM
100
AcDbLine
 62
2
  6
CONTINUOUS
 10
409.408362071
 20
416.2116053818
 11
373.1479994875
 21
452.4719679653
  0
LINE
  5
275
100
AcDbEntity
  8
ALL_DETAIL_ITEM
100
AcDbLine
 62
2
  6
CONTINUOUS
 10
348.1479994875
 20
477.4719679653
 11
299.8354384475
 21
525.7845290053
  0
LINE
  5
276
100
AcDbEntity
  8
ALL_DETAIL_ITEM
100
AcDbLine
 62
2
  6
CONTINUOUS
 10
374.053023012
 20
416.2116053818
 11
373.1479994875
 21
417.1166289063
  0
LINE
  5
277
100
AcDbEntity
  8
ALL_DETAIL_ITEM
100
AcDbLine
 62
2
  6
CONTINUOUS
 10
348.1479994875
 20
442.1166289063
 11
299.8354384475
 21
490.4291899463
  0
LINE
  5
278
100
AcDbEntity
  8
ALL_DETAIL_ITEM
100
AcDbLine
 62
2
  6
CONTINUOUS
 10
338.697683953
 20
416.2116053818
 11
299.8354384475
 21
455.0738508873
  0
LINE
  5
279
100
AcDbEntity
  8
ALL_DETAIL_ITEM
100
AcDbLine
 62
2
  6
CONTINUOUS
 10
303.342344894
 20
416.2116053818
 11
299.8354384475
 21
419.7185118283
  0
LINE
  5
27A
100
AcDbEntity
  8
ALL_DETAIL_ITEM
100
AcDbLine
 62
2
  6
CONTINUOUS
 10
347.3979994875
 20
324.2116053818
 11
323.1479994875
 21
324.2116053818
  0
LINE
  5
27B
100
AcDbEntity
  8
ALL_DETAIL_ITEM
100
AcDbLine
 62
2
  6
CONTINUOUS
 10
323.1479994875
 20
324.2116053818
 11
323.1479994875
 21
331.2116053818
  0
LINE
  5
27C
100
AcDbEntity
  8
ALL_DETAIL_ITEM
100
AcDbLine
 62
2
  6
CONTINUOUS
 10
323.1479994875
 20
331.2116053818
 11
347.3979994875
 21
331.2116053818
  0
LINE
  5
27D
100
AcDbEntity
  8
ALL_DETAIL_ITEM
100
AcDbLine
 62
2
  6
CONTINUOUS
 10
347.3979994875
 20
331.2116053818
 11
347.3979994875
 21
324.2116053818
  0
LINE
  5
27E
100
AcDbEntity
  8
ALL_DETAIL_ITEM
100
AcDbLine
 62
2
  6
CONTINUOUS
 10
373.8979994875
 20
331.2116053818
 11
398.1479994875
 21
331.2116053818
  0
LINE
  5
27F
100
AcDbEntity
  8
ALL_DETAIL_ITEM
100
AcDbLine
 62
2
  6
CONTINUOUS
 10
398.1479994875
 20
331.2116053818
 11
398.1479994875
 21
324.2116053818
  0
LINE
  5
280
100
AcDbEntity
  8
ALL_DETAIL_ITEM
100
AcDbLine
 62
2
  6
CONTINUOUS
 10
398.1479994875
 20
324.2116053818
 11
373.8979994875
 21
324.2116053818
  0
LINE
  5
281
100
AcDbEntity
  8
ALL_DETAIL_ITEM
100
AcDbLine
 62
2
  6
CONTINUOUS
 10
373.8979994875
 20
324.2116053818
 11
373.8979994875
 21
331.2116053818
  0
LINE
  5
282
100
AcDbEntity
  8
ALL_DETAIL_ITEM
100
AcDbLine
 62
2
  6
CONTINUOUS
 10
395.337119312
 20
324.2116053818
 11
398.1479994875
 21
327.0224855573
  0
LINE
  5
283
100
AcDbEntity
  8
ALL_DETAIL_ITEM
100
AcDbLine
 62
2
  6
CONTINUOUS
 10
389.680265063
 20
324.2116053818
 11
396.680265063
 21
331.2116053818
  0
LINE
  5
284
100
AcDbEntity
  8
ALL_DETAIL_ITEM
100
AcDbLine
 62
2
  6
CONTINUOUS
 10
384.023410814
 20
324.2116053818
 11
391.023410814
 21
331.2116053818
  0
LINE
  5
285
100
AcDbEntity
  8
ALL_DETAIL_ITEM
100
AcDbLine
 62
2
  6
CONTINUOUS
 10
378.366556565
 20
324.2116053818
 11
385.366556565
 21
331.2116053818
  0
LINE
  5
286
100
AcDbEntity
  8
ALL_DETAIL_ITEM
100
AcDbLine
 62
2
  6
CONTINUOUS
 10
373.8979994875
 20
325.3999025533
 11
379.709702316
 21
331.2116053818
  0
LINE
  5
287
100
AcDbEntity
  8
ALL_DETAIL_ITEM
100
AcDbLine
 62
2
  6
CONTINUOUS
 10
373.8979994875
 20
331.0567568023
 11
374.052848067
 21
331.2116053818
  0
LINE
  5
288
100
AcDbEntity
  8
ALL_DETAIL_ITEM
100
AcDbLine
 62
2
  6
CONTINUOUS
 10
344.425431071
 20
324.2116053818
 11
347.3979994875
 21
327.1841737983
  0
LINE
  5
289
100
AcDbEntity
  8
ALL_DETAIL_ITEM
100
AcDbLine
 62
2
  6
CONTINUOUS
 10
338.768576822
 20
324.2116053818
 11
345.768576822
 21
331.2116053818
  0
LINE
  5
28A
100
AcDbEntity
  8
ALL_DETAIL_ITEM
100
AcDbLine
 62
2
  6
CONTINUOUS
 10
333.111722573
 20
324.2116053818
 11
340.111722573
 21
331.2116053818
  0
LINE
  5
28B
100
AcDbEntity
  8
ALL_DETAIL_ITEM
100
AcDbLine
 62
2
  6
CONTINUOUS
 10
327.454868324
 20
324.2116053818
 11
334.454868324
 21
331.2116053818
  0
LINE
  5
28C
100
AcDbEntity
  8
ALL_DETAIL_ITEM
100
AcDbLine
 62
2
  6
CONTINUOUS
 10
323.1479994875
 20
325.5615907943
 11
328.798014075
 21
331.2116053818
  0
LINE
  5
28D
100
AcDbEntity
  8
ALL_DETAIL_ITEM
100
AcDbLine
 62
2
  6
CONTINUOUS
 10
345.6479994875
 20
412.2116053818
 11
301.2483781
 21
412.2116053818
  0
SPLINE
  5
28E
100
AcDbEntity
  8
ALL_DETAIL_ITEM
100
AcDbSpline
 62
2
  6
CONTINUOUS
 70
0
 71
3
 72
14
 73
10
 74
0
 42
0.0000001
 43
0.0000001
 44
0.0000000001
 40
0.0
 40
0.0
 40
0.0
 40
0.0
 40
0.1428571429
 40
0.2857142857
 40
0.4285714286
 40
0.5714285714
 40
0.7142857143
 40
0.8571428571
 40
1.0
 40
1.0
 40
1.0
 40
1.0
 10
301.2483781
 20
412.2116053818
 30
0.0
 10
301.1735944065
 20
412.2109772218
 30
0.0
 10
301.029379935
 20
412.1953289238
 30
0.0
 10
300.8288676835
 20
412.1274152853
 30
0.0
 10
300.644912757
 20
412.0188562303
 30
0.0
 10
300.483874061
 20
411.8685950033
 30
0.0
 10
300.3619337595
 20
411.6904222368
 30
0.0
 10
300.2814250365
 20
411.4950699718
 30
0.0
 10
300.2562633965
 20
411.3543942678
 30
0.0
 10
300.250736138
 20
411.2813618558
 30
0.0
  0
LINE
  5
28F
100
AcDbEntity
  8
ALL_DETAIL_ITEM
100
AcDbLine
 62
2
  6
CONTINUOUS
 10
300.250736138
 20
411.2813618558
 11
283.994718058
 21
178.8276433113
  0
ARC
  5
290
100
AcDbEntity
  8
ALL_DETAIL_ITEM
100
AcDbCircle
 62
2
  6
CONTINUOUS
 10
372.4311223145
 20
377.8140756613
 40
217.7535254765
100
AcDbArc
 50
244.9140684792
 51
246.0379943471
  0
LINE
  5
291
100
AcDbEntity
  8
ALL_DETAIL_ITEM
100
AcDbLine
 62
2
  6
CONTINUOUS
 10
280.1086237725
 20
180.6006021858
 11
296.260168214
 21
411.5603877508
  0
ARC
  5
292
100
AcDbEntity
  8
ALL_DETAIL_ITEM
100
AcDbCircle
 62
2
  6
CONTINUOUS
 10
301.248179146
 20
411.2113548508
 40
5.000229123
100
AcDbArc
 50
89.9977202685
 51
175.9972886534
  0
LINE
  5
293
100
AcDbEntity
  8
ALL_DETAIL_ITEM
100
AcDbLine
 62
2
  6
CONTINUOUS
 10
301.2483781
 20
416.2116053818
 11
345.6479994875
 21
416.2116053818
  0
LINE
  5
294
100
AcDbEntity
  8
ALL_DETAIL_ITEM
100
AcDbLine
 62
2
  6
CONTINUOUS
 10
345.6479994875
 20
416.2116053818
 11
345.6479994875
 21
412.2116053818
  0
LINE
  5
295
100
AcDbEntity
  8
ALL_DETAIL_ITEM
100
AcDbLine
 62
2
  6
CONTINUOUS
 10
280.1160102201
 20
180.7062250509
 11
284.42761167
 21
185.0178265008
  0
LINE
  5
296
100
AcDbEntity
  8
ALL_DETAIL_ITEM
100
AcDbLine
 62
2
  6
CONTINUOUS
 10
281.1793648234
 20
195.9117152782
 11
285.4909662381
 21
200.2233166928
  0
LINE
  5
297
100
AcDbEntity
  8
ALL_DETAIL_ITEM
100
AcDbLine
 62
2
  6
CONTINUOUS
 10
282.2427194268
 20
211.1172055055
 11
286.5543208061
 21
215.4288068849
  0
LINE
  5
298
100
AcDbEntity
  8
ALL_DETAIL_ITEM
100
AcDbLine
 62
2
  6
CONTINUOUS
 10
283.3060740301
 20
226.3226957328
 11
287.6176753742
 21
230.634297077
  0
LINE
  5
299
100
AcDbEntity
  8
ALL_DETAIL_ITEM
100
AcDbLine
 62
2
  6
CONTINUOUS
 10
284.3694286334
 20
241.5281859602
 11
288.6810299423
 21
245.839787269
  0
LINE
  5
29A
100
AcDbEntity
  8
ALL_DETAIL_ITEM
100
AcDbLine
 62
2
  6
CONTINUOUS
 10
285.4327832367
 20
256.7336761875
 11
289.7443845103
 21
261.0452774611
  0
LINE
  5
29B
100
AcDbEntity
  8
ALL_DETAIL_ITEM
100
AcDbLine
 62
2
  6
CONTINUOUS
 10
286.4961378401
 20
271.9391664148
 11
290.8077390784
 21
276.2507676531
  0
LINE
  5
29C
100
AcDbEntity
  8
ALL_DETAIL_ITEM
100
AcDbLine
 62
2
  6
CONTINUOUS
 10
287.5594924434
 20
287.1446566422
 11
291.8710936465
 21
291.4562578452
  0
LINE
  5
29D
100
AcDbEntity
  8
ALL_DETAIL_ITEM
100
AcDbLine
 62
2
  6
CONTINUOUS
 10
288.6228470467
 20
302.3501468695
 11
292.9344482145
 21
306.6617480373
  0
LINE
  5
29E
100
AcDbEntity
  8
ALL_DETAIL_ITEM
100
AcDbLine
 62
2
  6
CONTINUOUS
 10
289.6862016501
 20
317.5556370968
 11
293.9978027826
 21
321.8672382293
  0
LINE
  5
29F
100
AcDbEntity
  8
ALL_DETAIL_ITEM
100
AcDbLine
 62
2
  6
CONTINUOUS
 10
290.7495562534
 20
332.7611273241
 11
295.0611573506
 21
337.0727284214
  0
LINE
  5
2A0
100
AcDbEntity
  8
ALL_DETAIL_ITEM
100
AcDbLine
 62
2
  6
CONTINUOUS
 10
291.8129108567
 20
347.9666175515
 11
296.1245119187
 21
352.2782186135
  0
LINE
  5
2A1
100
AcDbEntity
  8
ALL_DETAIL_ITEM
100
AcDbLine
 62
2
  6
CONTINUOUS
 10
292.8762654601
 20
363.1721077788
 11
297.1878664868
 21
367.4837088055
  0
LINE
  5
2A2
100
AcDbEntity
  8
ALL_DETAIL_ITEM
100
AcDbLine
 62
2
  6
CONTINUOUS
 10
341.915763063
 20
412.2116053818
 11
345.6479994875
 21
415.9438418063
  0
LINE
  5
2A3
100
AcDbEntity
  8
ALL_DETAIL_ITEM
100
AcDbLine
 62
2
  6
CONTINUOUS
 10
293.9396200634
 20
378.3775980061
 11
298.2512210548
 21
382.6891989976
  0
LINE
  5
2A4
100
AcDbEntity
  8
ALL_DETAIL_ITEM
100
AcDbLine
 62
2
  6
CONTINUOUS
 10
327.773627439
 20
412.2116053818
 11
331.773620748
 21
416.2115986908
  0
LINE
  5
2A5
100
AcDbEntity
  8
ALL_DETAIL_ITEM
100
AcDbLine
 62
2
  6
CONTINUOUS
 10
295.0029746667
 20
393.5830882335
 11
299.3145756229
 21
397.8946891896
  0
LINE
  5
2A6
100
AcDbEntity
  8
ALL_DETAIL_ITEM
100
AcDbLine
 62
2
  6
CONTINUOUS
 10
313.631491815
 20
412.2116053818
 11
317.6314783039
 21
416.2115918706
  0
LINE
  5
2A7
100
AcDbEntity
  8
ALL_DETAIL_ITEM
100
AcDbLine
 62
2
  6
CONTINUOUS
 10
296.06632927
 20
408.7885784608
 11
303.4893358598
 21
416.2115850505
  0
LINE
  5
2A8
100
AcDbEntity
  8
ALL_DETAIL_ITEM
100
AcDbLine
 62
2
  6
CONTINUOUS
 10
373.1479994875
 20
416.2116053818
 11
510.235778302
 21
416.2116053818
  0
LINE
  5
2A9
100
AcDbEntity
  8
ALL_DETAIL_ITEM
100
AcDbLine
 62
2
  6
CONTINUOUS
 10
373.1479994875
 20
486.2116053818
 11
510.235778302
 21
486.2116053818
  0
LINE
  5
2AA
100
AcDbEntity
  8
ALL_DETAIL_ITEM
100
AcDbLine
 62
2
  6
CONTINUOUS
 10
505.235778302
 20
416.2116053818
 11
505.235778302
 21
451.2116053818
  0
LINE
  5
2AB
100
AcDbEntity
  8
ALL_DETAIL_ITEM
100
AcDbLine
 62
2
  6
CONTINUOUS
 10
505.235778302
 20
486.2116053818
 11
505.235778302
 21
451.2116053818
  0
LINE
  5
2AC
100
AcDbEntity
  8
ALL_DETAIL_ITEM
100
AcDbLine
 62
2
  6
CONTINUOUS
 10
508.9857783022
 20
433.7116053818
 11
501.4857783017
 21
433.7116053818
  0
LINE
  5
2AD
100
AcDbEntity
  8
ALL_DETAIL_ITEM
100
AcDbLine
 62
2
  6
CONTINUOUS
 10
501.4857783017
 20
433.7116053818
 11
505.235778302
 21
416.2116053818
  0
LINE
  5
2AE
100
AcDbEntity
  8
ALL_DETAIL_ITEM
100
AcDbLine
 62
2
  6
CONTINUOUS
 10
505.235778302
 20
416.2116053818
 11
508.9857783022
 21
433.7116053818
  0
SOLID
  5
2AF
100
AcDbEntity
  8
ALL_DETAIL_ITEM
100
AcDbTrace
 62
2
  6
CONTINUOUS
 10
508.9857783022
 20
433.7116053818
 11
505.235778302
 21
416.2116053818
 12
501.4857783017
 22
433.7116053818
 13
501.4857783017
 23
433.7116053818
  0
LINE
  5
2B0
100
AcDbEntity
  8
ALL_DETAIL_ITEM
100
AcDbLine
 62
2
  6
CONTINUOUS
 10
501.4857783017
 20
468.7116053818
 11
508.9857783022
 21
468.7116053818
  0
LINE
  5
2B1
100
AcDbEntity
  8
ALL_DETAIL_ITEM
100
AcDbLine
 62
2
  6
CONTINUOUS
 10
508.9857783022
 20
468.7116053818
 11
505.235778302
 21
486.2116053818
  0
LINE
  5
2B2
100
AcDbEntity
  8
ALL_DETAIL_ITEM
100
AcDbLine
 62
2
  6
CONTINUOUS
 10
505.235778302
 20
486.2116053818
 11
501.4857783017
 21
468.7116053818
  0
SOLID
  5
2B3
100
AcDbEntity
  8
ALL_DETAIL_ITEM
100
AcDbTrace
 62
2
  6
CONTINUOUS
 10
501.4857783017
 20
468.7116053818
 11
505.235778302
 21
486.2116053818
 12
508.9857783022
 22
468.7116053818
 13
508.9857783022
 23
468.7116053818
  0
LINE
  5
2B4
100
AcDbEntity
  8
ALL_DETAIL_ITEM
100
AcDbLine
 62
2
  6
CONTINUOUS
 10
348.1479994875
 20
416.2116053818
 11
348.1479994875
 21
659.9517028658
  0
LINE
  5
2B5
100
AcDbEntity
  8
ALL_DETAIL_ITEM
100
AcDbLine
 62
2
  6
CONTINUOUS
 10
373.1479994875
 20
416.2116053818
 11
373.1479994875
 21
659.9517028658
  0
LINE
  5
2B6
100
AcDbEntity
  8
ALL_DETAIL_ITEM
100
AcDbLine
 62
2
  6
CONTINUOUS
 10
348.1479994875
 20
654.9517028658
 11
323.1479994875
 21
654.9517028658
  0
LINE
  5
2B7
100
AcDbEntity
  8
ALL_DETAIL_ITEM
100
AcDbLine
 62
2
  6
CONTINUOUS
 10
323.1479994875
 20
654.9517028658
 11
360.6479994875
 21
654.9517028658
  0
LINE
  5
2B8
100
AcDbEntity
  8
ALL_DETAIL_ITEM
100
AcDbLine
 62
2
  6
CONTINUOUS
 10
373.1479994875
 20
654.9517028658
 11
433.026596693
 21
654.9517028658
  0
LINE
  5
2B9
100
AcDbEntity
  8
ALL_DETAIL_ITEM
100
AcDbLine
 62
2
  6
CONTINUOUS
 10
433.026596693
 20
654.9517028658
 11
360.6479994875
 21
654.9517028658
  0
LINE
  5
2BA
100
AcDbEntity
  8
ALL_DETAIL_ITEM
100
AcDbLine
 62
2
  6
CONTINUOUS
 10
330.6479994875
 20
658.701702866
 11
330.6479994875
 21
651.2017028655
  0
LINE
  5
2BB
100
AcDbEntity
  8
ALL_DETAIL_ITEM
100
AcDbLine
 62
2
  6
CONTINUOUS
 10
330.6479994875
 20
651.2017028655
 11
348.1479994875
 21
654.9517028658
  0
LINE
  5
2BC
100
AcDbEntity
  8
ALL_DETAIL_ITEM
100
AcDbLine
 62
2
  6
CONTINUOUS
 10
348.1479994875
 20
654.9517028658
 11
330.6479994875
 21
658.701702866
  0
SOLID
  5
2BD
100
AcDbEntity
  8
ALL_DETAIL_ITEM
100
AcDbTrace
 62
2
  6
CONTINUOUS
 10
330.6479994875
 20
658.701702866
 11
348.1479994875
 21
654.9517028658
 12
330.6479994875
 22
651.2017028655
 13
330.6479994875
 23
651.2017028655
  0
LINE
  5
2BE
100
AcDbEntity
  8
ALL_DETAIL_ITEM
100
AcDbLine
 62
2
  6
CONTINUOUS
 10
390.6479994875
 20
651.2017028655
 11
390.6479994875
 21
658.701702866
  0
LINE
  5
2BF
100
AcDbEntity
  8
ALL_DETAIL_ITEM
100
AcDbLine
 62
2
  6
CONTINUOUS
 10
390.6479994875
 20
658.701702866
 11
373.1479994875
 21
654.9517028658
  0
LINE
  5
2C0
100
AcDbEntity
  8
ALL_DETAIL_ITEM
100
AcDbLine
 62
2
  6
CONTINUOUS
 10
373.1479994875
 20
654.9517028658
 11
390.6479994875
 21
651.2017028655
  0
SOLID
  5
2C1
100
AcDbEntity
  8
ALL_DETAIL_ITEM
100
AcDbTrace
 62
2
  6
CONTINUOUS
 10
390.6479994875
 20
651.2017028655
 11
373.1479994875
 21
654.9517028658
 12
390.6479994875
 22
658.701702866
 13
390.6479994875
 23
658.701702866
  0
LINE
  5
2C2
100
AcDbEntity
  8
ALL_DETAIL_ITEM
100
AcDbLine
 62
2
  6
CONTINUOUS
 10
271.404064867
 20
184.9162157688
 11
285.5439557945
 21
178.6230349338
  0
LINE
  5
2C3
100
AcDbEntity
  8
ALL_DETAIL_ITEM
100
AcDbLine
 62
2
  6
CONTINUOUS
 10
250.451354975
 20
197.4465982188
 11
271.404064867
 21
184.9162157688
  0
LINE
  5
2C4
100
AcDbEntity
  8
ALL_DETAIL_ITEM
100
AcDbLine
 62
2
  6
CONTINUOUS
 10
231.946168924
 20
212.3509961118
 11
250.451354975
 21
197.4465982188
  0
LINE
  5
2C5
100
AcDbEntity
  8
ALL_DETAIL_ITEM
100
AcDbLine
 62
2
  6
CONTINUOUS
 10
198.4353981995
 20
616.2116053818
 11
195.671642992
 21
607.0841845188
  0
LINE
  5
2C6
100
AcDbEntity
  8
ALL_DETAIL_ITEM
100
AcDbLine
 62
2
  6
CONTINUOUS
 10
216.618908617
 20
230.0334032688
 11
231.946168924
 21
212.3509961118
  0
LINE
  5
2C7
100
AcDbEntity
  8
ALL_DETAIL_ITEM
100
AcDbLine
 62
2
  6
CONTINUOUS
 10
210.484274769
 20
239.7414997018
 11
216.618908617
 21
230.0334032688
  0
LINE
  5
2C8
100
AcDbEntity
  8
ALL_DETAIL_ITEM
100
AcDbLine
 62
2
  6
CONTINUOUS
 10
195.671642992
 20
607.0841845188
 11
186.101593422
 21
553.6628484593
  0
LINE
  5
2C9
100
AcDbEntity
  8
ALL_DETAIL_ITEM
100
AcDbLine
 62
2
  6
CONTINUOUS
 10
205.154478861
 20
250.0113663503
 11
210.484274769
 21
239.7414997018
  0
LINE
  5
2CA
100
AcDbEntity
  8
ALL_DETAIL_ITEM
100
AcDbLine
 62
2
  6
CONTINUOUS
 10
200.505627367
 20
260.6486376438
 11
205.154478861
 21
250.0113663503
  0
LINE
  5
2CB
100
AcDbEntity
  8
ALL_DETAIL_ITEM
100
AcDbLine
 62
2
  6
CONTINUOUS
 10
188.1239611405
 20
300.7804271643
 11
200.505627367
 21
260.6486376438
  0
LINE
  5
2CC
100
AcDbEntity
  8
ALL_DETAIL_ITEM
100
AcDbLine
 62
2
  6
CONTINUOUS
 10
179.558361742
 20
384.7209032688
 11
181.6338628375
 21
342.4036710398
  0
LINE
  5
2CD
100
AcDbEntity
  8
ALL_DETAIL_ITEM
100
AcDbLine
 62
2
  6
CONTINUOUS
 10
179.738598293
 20
408.0348020608
 11
179.558361742
 21
384.7209032688
  0
LINE
  5
2CE
100
AcDbEntity
  8
ALL_DETAIL_ITEM
100
AcDbLine
 62
2
  6
CONTINUOUS
 10
182.5210305655
 20
503.5613142423
 11
181.169689867
 21
454.0080126438
  0
LINE
  5
2CF
100
AcDbEntity
  8
ALL_DETAIL_ITEM
100
AcDbLine
 62
2
  6
CONTINUOUS
 10
180.4092923895
 20
431.1772058878
 11
179.738598293
 21
408.0348020608
  0
LINE
  5
2D0
100
AcDbEntity
  8
ALL_DETAIL_ITEM
100
AcDbLine
 62
2
  6
CONTINUOUS
 10
181.169689867
 20
454.0080126438
 11
180.4092923895
 21
431.1772058878
  0
LINE
  5
2D1
100
AcDbEntity
  8
ALL_DETAIL_ITEM
100
AcDbLine
 62
2
  6
CONTINUOUS
 10
186.101593422
 20
553.6628484593
 11
182.5210305655
 21
503.5613142423
  0
LINE
  5
2D2
100
AcDbEntity
  8
ALL_DETAIL_ITEM
100
AcDbLine
 62
2
  6
CONTINUOUS
 10
181.6338628375
 20
342.4036710398
 11
188.1239611405
 21
300.7804271643
  0
LINE
  5
2D3
100
AcDbEntity
  8
ALL_DETAIL_ITEM
100
AcDbLine
 62
2
  6
CONTINUOUS
 10
459.929455492
 20
463.6759813938
 11
461.4167915465
 21
481.9897562338
  0
LINE
  5
2D4
100
AcDbEntity
  8
ALL_DETAIL_ITEM
100
AcDbLine
 62
2
  6
CONTINUOUS
 10
464.1039672995
 20
500.2477023933
 11
466.374767992
 21
518.4611376438
  0
LINE
  5
2D5
100
AcDbEntity
  8
ALL_DETAIL_ITEM
100
AcDbLine
 62
2
  6
CONTINUOUS
 10
461.4167915465
 20
481.9897562338
 11
464.1039672995
 21
500.2477023933
  0
LINE
  5
2D6
100
AcDbEntity
  8
ALL_DETAIL_ITEM
100
AcDbLine
 62
2
  6
CONTINUOUS
 10
460.5635789325
 20
447.5069405228
 11
459.929455492
 21
463.6759813938
  0
LINE
  5
2D7
100
AcDbEntity
  8
ALL_DETAIL_ITEM
100
AcDbLine
 62
2
  6
CONTINUOUS
 10
466.374767992
 20
518.4611376438
 11
466.622759933
 21
544.6316187353
  0
LINE
  5
2D8
100
AcDbEntity
  8
ALL_DETAIL_ITEM
100
AcDbLine
 62
2
  6
CONTINUOUS
 10
464.6385520315
 20
416.2116053818
 11
462.476636923
 21
431.3666997163
  0
LINE
  5
2D9
100
AcDbEntity
  8
ALL_DETAIL_ITEM
100
AcDbLine
 62
2
  6
CONTINUOUS
 10
462.476636923
 20
431.3666997163
 11
460.5635789325
 21
447.5069405228
  0
LINE
  5
2DA
100
AcDbEntity
  8
ALL_DETAIL_ITEM
100
AcDbLine
 62
2
  6
CONTINUOUS
 10
466.622759933
 20
544.6316187353
 11
463.618749874
 21
570.8958313738
  0
LINE
  5
2DB
100
AcDbEntity
  8
ALL_DETAIL_ITEM
100
AcDbLine
 62
2
  6
CONTINUOUS
 10
458.318127367
 20
597.4162157688
 11
453.2463690945
 21
616.2116053818
  0
LINE
  5
2DC
100
AcDbEntity
  8
ALL_DETAIL_ITEM
100
AcDbLine
 62
2
  6
CONTINUOUS
 10
463.618749874
 20
570.8958313738
 11
458.318127367
 21
597.4162157688
  0
LINE
  5
2DD
100
AcDbEntity
  8
ALL_DETAIL_ITEM
100
AcDbLine
 62
2
  6
CENTER
 10
360.6479994875
 20
636.3595159913
 11
360.6479994875
 21
405.6031639913
  0
LINE
  5
2DE
100
AcDbEntity
  8
ALL_DETAIL_ITEM
100
AcDbLine
 62
7
  6
CONTINUOUS
 10
367.885903324
 20
216.4958853138
 11
368.729848619
 21
216.6779889388
  0
LINE
  5
2DF
100
AcDbEntity
  8
ALL_DETAIL_ITEM
100
AcDbLine
 62
7
  6
CONTINUOUS
 10
368.729848619
 20
216.6779889388
 11
369.5919415445
 21
216.8858764168
  0
LINE
  5
2E0
100
AcDbEntity
  8
ALL_DETAIL_ITEM
100
AcDbLine
 62
7
  6
CONTINUOUS
 10
369.5919415445
 20
216.8858764168
 11
370.469839609
 21
217.1206962913
  0
LINE
  5
2E1
100
AcDbEntity
  8
ALL_DETAIL_ITEM
100
AcDbLine
 62
7
  6
CONTINUOUS
 10
356.7339322625
 20
216.1374486493
 11
357.3665803485
 21
216.2079397763
  0
LINE
  5
2E2
100
AcDbEntity
  8
ALL_DETAIL_ITEM
100
AcDbLine
 62
7
  6
CONTINUOUS
 10
357.3665803485
 20
216.2079397763
 11
358.019205134
 21
216.3246913038
  0
LINE
  5
2E3
100
AcDbEntity
  8
ALL_DETAIL_ITEM
100
AcDbLine
 62
7
  6
CONTINUOUS
 10
358.019205134
 20
216.3246913038
 11
358.7085793215
 21
216.4958853138
  0
LINE
  5
2E4
100
AcDbEntity
  8
ALL_DETAIL_ITEM
100
AcDbLine
 62
7
  6
CONTINUOUS
 10
364.5620667125
 20
216.1374486493
 11
365.6387989105
 21
216.2079314373
  0
LINE
  5
2E5
100
AcDbEntity
  8
ALL_DETAIL_ITEM
100
AcDbLine
 62
7
  6
CONTINUOUS
 10
365.6387989105
 20
216.2079314373
 11
366.7379715775
 21
216.3247014948
  0
LINE
  5
2E6
100
AcDbEntity
  8
ALL_DETAIL_ITEM
100
AcDbLine
 62
7
  6
CONTINUOUS
 10
366.7379715775
 20
216.3247014948
 11
367.885903324
 21
216.4958853138
  0
LINE
  5
2E7
100
AcDbEntity
  8
ALL_DETAIL_ITEM
100
AcDbLine
 62
7
  6
CONTINUOUS
 10
371.4902622795
 20
217.4262681708
 11
371.646923906
 21
217.4262683543
  0
LINE
  5
2E8
100
AcDbEntity
  8
ALL_DETAIL_ITEM
100
AcDbLine
 62
7
  6
CONTINUOUS
 10
358.7982255865
 20
217.4262681708
 11
362.4977733885
 21
217.4262681708
  0
LINE
  5
2E9
100
AcDbEntity
  8
ALL_DETAIL_ITEM
100
AcDbLine
 62
7
  6
CONTINUOUS
 10
349.649075069
 20
217.4262683543
 11
349.7209261965
 21
217.4262682703
  0
LINE
  5
2EA
100
AcDbEntity
  8
ALL_DETAIL_ITEM
100
AcDbLine
 62
7
  6
CONTINUOUS
 10
349.7209261965
 20
217.4262682703
 11
349.8131149475
 21
217.4239216313
  0
LINE
  5
2EB
100
AcDbEntity
  8
ALL_DETAIL_ITEM
100
AcDbLine
 62
7
  6
CONTINUOUS
 10
340.6479994875
 20
231.2116053818
 11
380.6479994875
 21
231.2116053818
  0
LINE
  5
2EC
100
AcDbEntity
  8
ALL_DETAIL_ITEM
100
AcDbLine
 62
7
  6
CONTINUOUS
 10
353.4100956515
 20
216.4958853138
 11
354.58253587
 21
216.3215987493
  0
LINE
  5
2ED
100
AcDbEntity
  8
ALL_DETAIL_ITEM
100
AcDbLine
 62
7
  6
CONTINUOUS
 10
354.58253587
 20
216.3215987493
 11
355.6802294895
 21
216.2059717048
  0
LINE
  5
2EE
100
AcDbEntity
  8
ALL_DETAIL_ITEM
100
AcDbLine
 62
7
  6
CONTINUOUS
 10
355.6802294895
 20
216.2059717048
 11
356.7339322625
 21
216.1374486493
  0
LINE
  5
2EF
100
AcDbEntity
  8
ALL_DETAIL_ITEM
100
AcDbLine
 62
7
  6
CONTINUOUS
 10
362.5874196535
 20
216.4958853138
 11
363.2913834595
 21
216.3215974838
  0
LINE
  5
2F0
100
AcDbEntity
  8
ALL_DETAIL_ITEM
100
AcDbLine
 62
7
  6
CONTINUOUS
 10
363.2913834595
 20
216.3215974838
 11
363.9430672715
 21
216.2059730148
  0
LINE
  5
2F1
100
AcDbEntity
  8
ALL_DETAIL_ITEM
100
AcDbLine
 62
7
  6
CONTINUOUS
 10
363.9430672715
 20
216.2059730148
 11
364.5620667125
 21
216.1374486493
  0
LINE
  5
2F2
100
AcDbEntity
  8
ALL_DETAIL_ITEM
100
AcDbLine
 62
7
  6
CONTINUOUS
 10
350.826159366
 20
217.1206962913
 11
351.7028529885
 21
216.8861824973
  0
LINE
  5
2F3
100
AcDbEntity
  8
ALL_DETAIL_ITEM
100
AcDbLine
 62
7
  6
CONTINUOUS
 10
351.7028529885
 20
216.8861824973
 11
352.564882959
 21
216.6782782518
  0
LINE
  5
2F4
100
AcDbEntity
  8
ALL_DETAIL_ITEM
100
AcDbLine
 62
7
  6
CONTINUOUS
 10
352.564882959
 20
216.6782782518
 11
353.4100956515
 21
216.4958853138
  0
LINE
  5
2F5
100
AcDbEntity
  8
ALL_DETAIL_ITEM
100
AcDbLine
 62
7
  6
CONTINUOUS
 10
349.8131149475
 20
217.4239216313
 11
350.1520469905
 21
217.3182977158
  0
LINE
  5
2F6
100
AcDbEntity
  8
ALL_DETAIL_ITEM
100
AcDbLine
 62
7
  6
CONTINUOUS
 10
350.1520469905
 20
217.3182977158
 11
350.4897544635
 21
217.2172452383
  0
LINE
  5
2F7
100
AcDbEntity
  8
ALL_DETAIL_ITEM
100
AcDbLine
 62
7
  6
CONTINUOUS
 10
350.4897544635
 20
217.2172452383
 11
350.826159366
 21
217.1206962913
  0
LINE
  5
2F8
100
AcDbEntity
  8
ALL_DETAIL_ITEM
100
AcDbLine
 62
7
  6
CONTINUOUS
 10
362.8966924045
 20
252.1607033528
 11
364.8089401705
 21
252.5038136468
  0
LINE
  5
2F9
100
AcDbEntity
  8
ALL_DETAIL_ITEM
100
AcDbLine
 62
7
  6
CONTINUOUS
 10
364.8089401705
 20
252.5038136468
 11
366.337651174
 21
252.8525165208
  0
LINE
  5
2FA
100
AcDbEntity
  8
ALL_DETAIL_ITEM
100
AcDbLine
 62
7
  6
CONTINUOUS
 10
366.337651174
 20
252.8525165208
 11
367.311388322
 21
253.1984007588
  0
LINE
  5
2FB
100
AcDbEntity
  8
ALL_DETAIL_ITEM
100
AcDbLine
 62
7
  6
CONTINUOUS
 10
367.311388322
 20
253.1984007588
 11
367.3905496215
 21
253.2422412163
  0
LINE
  5
2FC
100
AcDbEntity
  8
ALL_DETAIL_ITEM
100
AcDbLine
 62
7
  6
CONTINUOUS
 10
365.957202254
 20
240.0203296138
 11
368.1082385885
 21
240.3484505958
  0
LINE
  5
2FD
100
AcDbEntity
  8
ALL_DETAIL_ITEM
100
AcDbLine
 62
7
  6
CONTINUOUS
 10
368.1082385885
 20
240.3484505958
 11
369.617755433
 21
240.6765083813
  0
LINE
  5
2FE
100
AcDbEntity
  8
ALL_DETAIL_ITEM
100
AcDbLine
 62
7
  6
CONTINUOUS
 10
369.617755433
 20
240.6765083813
 11
370.2256111615
 21
240.9096212228
  0
LINE
  5
2FF
100
AcDbEntity
  8
ALL_DETAIL_ITEM
100
AcDbLine
 62
7
  6
CONTINUOUS
 10
370.6479994875
 20
239.8866053818
 11
350.6479994875
 21
239.8866053818
  0
LINE
  5
300
100
AcDbEntity
  8
ALL_DETAIL_ITEM
100
AcDbLine
 62
7
  6
CONTINUOUS
 10
364.5750748065
 20
241.2116053818
 11
352.9429668075
 21
241.2116053818
  0
LINE
  5
301
100
AcDbEntity
  8
ALL_DETAIL_ITEM
100
AcDbLine
 62
7
  6
CONTINUOUS
 10
362.9223744325
 20
266.1639676713
 11
364.83438424
 21
266.5094652833
  0
LINE
  5
302
100
AcDbEntity
  8
ALL_DETAIL_ITEM
100
AcDbLine
 62
7
  6
CONTINUOUS
 10
364.83438424
 20
266.5094652833
 11
366.3487285985
 21
266.8553826638
  0
LINE
  5
303
100
AcDbEntity
  8
ALL_DETAIL_ITEM
100
AcDbLine
 62
7
  6
CONTINUOUS
 10
366.3487285985
 20
266.8553826638
 11
367.3143234415
 21
267.1992258578
  0
LINE
  5
304
100
AcDbEntity
  8
ALL_DETAIL_ITEM
100
AcDbLine
 62
7
  6
CONTINUOUS
 10
367.3143234415
 20
267.1992258578
 11
367.39232226
 21
267.2426165698
  0
LINE
  5
305
100
AcDbEntity
  8
ALL_DETAIL_ITEM
100
AcDbLine
 62
7
  6
CONTINUOUS
 10
358.427670007
 20
268.6876778183
 11
356.508684575
 21
268.3414346318
  0
LINE
  5
306
100
AcDbEntity
  8
ALL_DETAIL_ITEM
100
AcDbLine
 62
7
  6
CONTINUOUS
 10
356.508684575
 20
268.3414346318
 11
354.9688584875
 21
267.9929737498
  0
LINE
  5
307
100
AcDbEntity
  8
ALL_DETAIL_ITEM
100
AcDbLine
 62
7
  6
CONTINUOUS
 10
354.9688584875
 20
267.9929737498
 11
353.987205023
 21
267.6456349448
  0
LINE
  5
308
100
AcDbEntity
  8
ALL_DETAIL_ITEM
100
AcDbLine
 62
7
  6
CONTINUOUS
 10
353.987205023
 20
267.6456349448
 11
353.870975498
 21
267.5791337523
  0
LINE
  5
309
100
AcDbEntity
  8
ALL_DETAIL_ITEM
100
AcDbLine
 62
7
  6
CONTINUOUS
 10
358.4578975505
 20
254.6918140373
 11
356.513658559
 21
254.3434251723
  0
LINE
  5
30A
100
AcDbEntity
  8
ALL_DETAIL_ITEM
100
AcDbLine
 62
7
  6
CONTINUOUS
 10
356.513658559
 20
254.3434251723
 11
354.9828631275
 21
253.9954638893
  0
LINE
  5
30B
100
AcDbEntity
  8
ALL_DETAIL_ITEM
100
AcDbLine
 62
7
  6
CONTINUOUS
 10
354.9828631275
 20
253.9954638893
 11
353.9903859105
 21
253.6471597368
  0
LINE
  5
30C
100
AcDbEntity
  8
ALL_DETAIL_ITEM
100
AcDbLine
 62
7
  6
CONTINUOUS
 10
353.9903859105
 20
253.6471597368
 11
353.8718814845
 21
253.5798831148
  0
LINE
  5
30D
100
AcDbEntity
  8
ALL_DETAIL_ITEM
100
AcDbLine
 62
7
  6
CONTINUOUS
 10
362.79256299
 20
259.1425821613
 11
364.7129861715
 21
259.4852733903
  0
LINE
  5
30E
100
AcDbEntity
  8
ALL_DETAIL_ITEM
100
AcDbLine
 62
7
  6
CONTINUOUS
 10
364.7129861715
 20
259.4852733903
 11
366.2691495095
 21
259.8336851223
  0
LINE
  5
30F
100
AcDbEntity
  8
ALL_DETAIL_ITEM
100
AcDbLine
 62
7
  6
CONTINUOUS
 10
366.2691495095
 20
259.8336851223
 11
367.3007025795
 21
260.1925472223
  0
LINE
  5
310
100
AcDbEntity
  8
ALL_DETAIL_ITEM
100
AcDbLine
 62
7
  6
CONTINUOUS
 10
367.3007025795
 20
260.1925472223
 11
367.3918207445
 21
260.2426237143
  0
LINE
  5
311
100
AcDbEntity
  8
ALL_DETAIL_ITEM
100
AcDbLine
 62
7
  6
CONTINUOUS
 10
358.4695197415
 20
261.6943667038
 11
362.739270402
 21
262.3839689418
  0
LINE
  5
312
100
AcDbEntity
  8
ALL_DETAIL_ITEM
100
AcDbLine
 62
7
  6
CONTINUOUS
 10
362.739270402
 20
262.3839689418
 11
364.667023885
 21
262.7286156223
  0
LINE
  5
313
100
AcDbEntity
  8
ALL_DETAIL_ITEM
100
AcDbLine
 62
7
  6
CONTINUOUS
 10
364.667023885
 20
262.7286156223
 11
366.2523882865
 21
263.0812703028
  0
LINE
  5
314
100
AcDbEntity
  8
ALL_DETAIL_ITEM
100
AcDbLine
 62
7
  6
CONTINUOUS
 10
366.2523882865
 20
263.0812703028
 11
367.298342125
 21
263.4430097028
  0
LINE
  5
315
100
AcDbEntity
  8
ALL_DETAIL_ITEM
100
AcDbLine
 62
7
  6
CONTINUOUS
 10
367.298342125
 20
263.4430097028
 11
367.6479994875
 21
263.7972142408
  0
LINE
  5
316
100
AcDbEntity
  8
ALL_DETAIL_ITEM
100
AcDbLine
 62
7
  6
CONTINUOUS
 10
363.616257298
 20
267.7242149123
 11
358.181163396
 21
267.0957996118
  0
LINE
  5
317
100
AcDbEntity
  8
ALL_DETAIL_ITEM
100
AcDbLine
 62
7
  6
CONTINUOUS
 10
358.181163396
 20
267.0957996118
 11
355.6493493285
 21
266.7815919613
  0
LINE
  5
318
100
AcDbEntity
  8
ALL_DETAIL_ITEM
100
AcDbLine
 62
7
  6
CONTINUOUS
 10
355.6493493285
 20
266.7815919613
 11
353.5098104895
 21
266.4673843113
  0
LINE
  5
319
100
AcDbEntity
  8
ALL_DETAIL_ITEM
100
AcDbLine
 62
7
  6
CONTINUOUS
 10
353.5098104895
 20
266.4673843113
 11
351.935855977
 21
266.1531766608
  0
LINE
  5
31A
100
AcDbEntity
  8
ALL_DETAIL_ITEM
100
AcDbLine
 62
7
  6
CONTINUOUS
 10
351.935855977
 20
266.1531766608
 11
351.060232711
 21
265.8444638588
  0
LINE
  5
31B
100
AcDbEntity
  8
ALL_DETAIL_ITEM
100
AcDbLine
 62
7
  6
CONTINUOUS
 10
366.70861251
 20
291.2116053818
 11
365.300159691
 21
290.8570203723
  0
LINE
  5
31C
100
AcDbEntity
  8
ALL_DETAIL_ITEM
100
AcDbLine
 62
7
  6
CONTINUOUS
 10
365.300159691
 20
290.8570203723
 11
363.420270476
 21
290.4999519003
  0
LINE
  5
31D
100
AcDbEntity
  8
ALL_DETAIL_ITEM
100
AcDbLine
 62
7
  6
CONTINUOUS
 10
363.420270476
 20
290.4999519003
 11
361.2585506475
 21
290.1445246038
  0
LINE
  5
31E
100
AcDbEntity
  8
ALL_DETAIL_ITEM
100
AcDbLine
 62
7
  6
CONTINUOUS
 10
361.2585506475
 20
290.1445246038
 11
359.035016219
 21
289.7871665168
  0
LINE
  5
31F
100
AcDbEntity
  8
ALL_DETAIL_ITEM
100
AcDbLine
 62
7
  6
CONTINUOUS
 10
359.035016219
 20
289.7871665168
 11
356.974984819
 21
289.4316230773
  0
LINE
  5
320
100
AcDbEntity
  8
ALL_DETAIL_ITEM
100
AcDbLine
 62
7
  6
CONTINUOUS
 10
356.974984819
 20
289.4316230773
 11
355.2873258155
 21
289.0754360838
  0
LINE
  5
321
100
AcDbEntity
  8
ALL_DETAIL_ITEM
100
AcDbLine
 62
7
  6
CONTINUOUS
 10
355.2873258155
 20
289.0754360838
 11
354.1436686335
 21
288.7177461398
  0
LINE
  5
322
100
AcDbEntity
  8
ALL_DETAIL_ITEM
100
AcDbLine
 62
7
  6
CONTINUOUS
 10
354.1436686335
 20
288.7177461398
 11
353.8686178625
 21
288.5768644993
  0
LINE
  5
323
100
AcDbEntity
  8
ALL_DETAIL_ITEM
100
AcDbLine
 62
7
  6
CONTINUOUS
 10
369.2429804275
 20
275.5794061693
 11
367.6161812125
 21
275.2651985188
  0
LINE
  5
324
100
AcDbEntity
  8
ALL_DETAIL_ITEM
100
AcDbLine
 62
7
  6
CONTINUOUS
 10
367.6161812125
 20
275.2651985188
 11
365.4367581085
 21
274.9509908683
  0
LINE
  5
325
100
AcDbEntity
  8
ALL_DETAIL_ITEM
100
AcDbLine
 62
7
  6
CONTINUOUS
 10
365.4367581085
 20
274.9509908683
 11
362.8773492765
 21
274.6367832183
  0
LINE
  5
326
100
AcDbEntity
  8
ALL_DETAIL_ITEM
100
AcDbLine
 62
7
  6
CONTINUOUS
 10
362.8773492765
 20
274.6367832183
 11
360.143970785
 21
274.3225755678
  0
LINE
  5
327
100
AcDbEntity
  8
ALL_DETAIL_ITEM
100
AcDbLine
 62
7
  6
CONTINUOUS
 10
360.143970785
 20
274.3225755678
 11
357.4483253625
 21
274.0083679178
  0
LINE
  5
328
100
AcDbEntity
  8
ALL_DETAIL_ITEM
100
AcDbLine
 62
7
  6
CONTINUOUS
 10
357.4483253625
 20
274.0083679178
 11
355.006179943
 21
273.6941602673
  0
LINE
  5
329
100
AcDbEntity
  8
ALL_DETAIL_ITEM
100
AcDbLine
 62
7
  6
CONTINUOUS
 10
355.006179943
 20
273.6941602673
 11
353.009557162
 21
273.3799526173
  0
LINE
  5
32A
100
AcDbEntity
  8
ALL_DETAIL_ITEM
100
AcDbLine
 62
7
  6
CONTINUOUS
 10
353.009557162
 20
273.3799526173
 11
351.6179178415
 21
273.0657449668
  0
LINE
  5
32B
100
AcDbEntity
  8
ALL_DETAIL_ITEM
100
AcDbLine
 62
7
  6
CONTINUOUS
 10
351.6179178415
 20
273.0657449668
 11
351.058385649
 21
272.8416182328
  0
LINE
  5
32C
100
AcDbEntity
  8
ALL_DETAIL_ITEM
100
AcDbLine
 62
7
  6
CONTINUOUS
 10
362.877008695
 20
280.1562861143
 11
364.7927667455
 21
280.5009820708
  0
LINE
  5
32D
100
AcDbEntity
  8
ALL_DETAIL_ITEM
100
AcDbLine
 62
7
  6
CONTINUOUS
 10
364.7927667455
 20
280.5009820708
 11
366.329727944
 21
280.8505555873
  0
LINE
  5
32E
100
AcDbEntity
  8
ALL_DETAIL_ITEM
100
AcDbLine
 62
7
  6
CONTINUOUS
 10
366.329727944
 20
280.8505555873
 11
367.30930814
 21
281.1970397813
  0
LINE
  5
32F
100
AcDbEntity
  8
ALL_DETAIL_ITEM
100
AcDbLine
 62
7
  6
CONTINUOUS
 10
367.30930814
 20
281.1970397813
 11
367.392831786
 21
281.2432275058
  0
LINE
  5
330
100
AcDbEntity
  8
ALL_DETAIL_ITEM
100
AcDbLine
 62
7
  6
CONTINUOUS
 10
362.846135329
 20
287.1509749993
 11
364.7579799165
 21
287.4940193313
  0
LINE
  5
331
100
AcDbEntity
  8
ALL_DETAIL_ITEM
100
AcDbLine
 62
7
  6
CONTINUOUS
 10
364.7579799165
 20
287.4940193313
 11
366.2885294225
 21
287.8399932513
  0
LINE
  5
332
100
AcDbEntity
  8
ALL_DETAIL_ITEM
100
AcDbLine
 62
7
  6
CONTINUOUS
 10
366.2885294225
 20
287.8399932513
 11
367.304093951
 21
288.1945917788
  0
LINE
  5
333
100
AcDbEntity
  8
ALL_DETAIL_ITEM
100
AcDbLine
 62
7
  6
CONTINUOUS
 10
367.304093951
 20
288.1945917788
 11
367.396815573
 21
288.2458401008
  0
LINE
  5
334
100
AcDbEntity
  8
ALL_DETAIL_ITEM
100
AcDbLine
 62
7
  6
CONTINUOUS
 10
358.4662408975
 20
282.6932550813
 11
356.518774854
 21
282.3443294083
  0
LINE
  5
335
100
AcDbEntity
  8
ALL_DETAIL_ITEM
100
AcDbLine
 62
7
  6
CONTINUOUS
 10
356.518774854
 20
282.3443294083
 11
354.9777846195
 21
281.9954166478
  0
LINE
  5
336
100
AcDbEntity
  8
ALL_DETAIL_ITEM
100
AcDbLine
 62
7
  6
CONTINUOUS
 10
354.9777846195
 20
281.9954166478
 11
353.989763891
 21
281.6454831013
  0
LINE
  5
337
100
AcDbEntity
  8
ALL_DETAIL_ITEM
100
AcDbLine
 62
7
  6
CONTINUOUS
 10
353.989763891
 20
281.6454831013
 11
353.8699302375
 21
281.5772527738
  0
LINE
  5
338
100
AcDbEntity
  8
ALL_DETAIL_ITEM
100
AcDbLine
 62
7
  6
CONTINUOUS
 10
370.6479994375
 20
239.8866053818
 11
369.5546498035
 21
240.5178511153
  0
LINE
  5
339
100
AcDbEntity
  8
ALL_DETAIL_ITEM
100
AcDbLine
 62
7
  6
CONTINUOUS
 10
351.065686781
 20
251.4130574063
 11
353.171981685
 21
250.1783269508
  0
LINE
  5
33A
100
AcDbEntity
  8
ALL_DETAIL_ITEM
100
AcDbLine
 62
7
  6
CONTINUOUS
 10
351.070189128
 20
244.4096897118
 11
353.173730551
 21
243.1759330598
  0
LINE
  5
33B
100
AcDbEntity
  8
ALL_DETAIL_ITEM
100
AcDbLine
 62
7
  6
CONTINUOUS
 10
353.173730551
 20
243.1759330598
 11
353.581824789
 21
242.9336697888
  0
LINE
  5
33C
100
AcDbEntity
  8
ALL_DETAIL_ITEM
100
AcDbLine
 62
7
  6
CONTINUOUS
 10
353.171981685
 20
250.1783269508
 11
353.6479994875
 21
249.8958455028
  0
LINE
  5
33D
100
AcDbEntity
  8
ALL_DETAIL_ITEM
100
AcDbLine
 62
7
  6
CONTINUOUS
 10
370.241172175
 20
241.3420139533
 11
369.2853868865
 21
241.9219100683
  0
LINE
  5
33E
100
AcDbEntity
  8
ALL_DETAIL_ITEM
100
AcDbLine
 62
7
  6
CONTINUOUS
 10
369.2853868865
 20
241.9219100683
 11
368.1233749235
 21
242.6389188978
  0
LINE
  5
33F
100
AcDbEntity
  8
ALL_DETAIL_ITEM
100
AcDbLine
 62
7
  6
CONTINUOUS
 10
368.1233749235
 20
242.6389188978
 11
367.6479994875
 21
242.9382670473
  0
LINE
  5
340
100
AcDbEntity
  8
ALL_DETAIL_ITEM
100
AcDbLine
 62
7
  6
CONTINUOUS
 10
358.316760297
 20
296.9127303988
 11
356.502814087
 21
296.5258055848
  0
LINE
  5
341
100
AcDbEntity
  8
ALL_DETAIL_ITEM
100
AcDbLine
 62
7
  6
CONTINUOUS
 10
356.502814087
 20
296.5258055848
 11
355.0718258915
 21
296.1470379063
  0
LINE
  5
342
100
AcDbEntity
  8
ALL_DETAIL_ITEM
100
AcDbLine
 62
7
  6
CONTINUOUS
 10
355.0718258915
 20
296.1470379063
 11
354.152121788
 21
295.7573689653
  0
LINE
  5
343
100
AcDbEntity
  8
ALL_DETAIL_ITEM
100
AcDbLine
 62
7
  6
CONTINUOUS
 10
358.316760297
 20
296.9127303988
 11
361.783459088
 21
297.5801435123
  0
LINE
  5
344
100
AcDbEntity
  8
ALL_DETAIL_ITEM
100
AcDbLine
 62
7
  6
CONTINUOUS
 10
361.783459088
 20
297.5801435123
 11
363.387325604
 21
297.9057105073
  0
LINE
  5
345
100
AcDbEntity
  8
ALL_DETAIL_ITEM
100
AcDbLine
 62
7
  6
CONTINUOUS
 10
363.387325604
 20
297.9057105073
 11
364.7711615345
 21
298.2341606343
  0
LINE
  5
346
100
AcDbEntity
  8
ALL_DETAIL_ITEM
100
AcDbLine
 62
7
  6
CONTINUOUS
 10
357.8812422625
 20
295.0602804858
 11
355.3852613985
 21
294.7460728358
  0
LINE
  5
347
100
AcDbEntity
  8
ALL_DETAIL_ITEM
100
AcDbLine
 62
7
  6
CONTINUOUS
 10
355.3852613985
 20
294.7460728358
 11
353.3011712145
 21
294.4318651853
  0
LINE
  5
348
100
AcDbEntity
  8
ALL_DETAIL_ITEM
100
AcDbLine
 62
7
  6
CONTINUOUS
 10
353.3011712145
 20
294.4318651853
 11
351.801853523
 21
294.1176575353
  0
LINE
  5
349
100
AcDbEntity
  8
ALL_DETAIL_ITEM
100
AcDbLine
 62
7
  6
CONTINUOUS
 10
351.801853523
 20
294.1176575353
 11
351.0540102105
 21
293.8402705538
  0
LINE
  5
34A
100
AcDbEntity
  8
ALL_DETAIL_ITEM
100
AcDbLine
 62
7
  6
CONTINUOUS
 10
351.0661054655
 20
272.4119594418
 11
353.1717000425
 21
271.1775980073
  0
LINE
  5
34B
100
AcDbEntity
  8
ALL_DETAIL_ITEM
100
AcDbLine
 62
7
  6
CONTINUOUS
 10
351.0713936065
 20
258.4093268733
 11
353.1748851615
 21
257.1754147958
  0
LINE
  5
34C
100
AcDbEntity
  8
ALL_DETAIL_ITEM
100
AcDbLine
 62
7
  6
CONTINUOUS
 10
351.0744860135
 20
265.4082800993
 11
353.1771160115
 21
264.1744417088
  0
LINE
  5
34D
100
AcDbEntity
  8
ALL_DETAIL_ITEM
100
AcDbLine
 62
7
  6
CONTINUOUS
 10
353.1717000425
 20
271.1775980073
 11
353.6479994875
 21
270.8949567423
  0
LINE
  5
34E
100
AcDbEntity
  8
ALL_DETAIL_ITEM
100
AcDbLine
 62
7
  6
CONTINUOUS
 10
353.1748851615
 20
257.1754147958
 11
353.6479994875
 21
256.8945036338
  0
LINE
  5
34F
100
AcDbEntity
  8
ALL_DETAIL_ITEM
100
AcDbLine
 62
7
  6
CONTINUOUS
 10
353.1771160115
 20
264.1744417088
 11
353.6479994875
 21
263.8947614763
  0
LINE
  5
350
100
AcDbEntity
  8
ALL_DETAIL_ITEM
100
AcDbLine
 62
7
  6
CONTINUOUS
 10
370.242250226
 20
262.3410935743
 11
369.2855146945
 21
262.9214752318
  0
LINE
  5
351
100
AcDbEntity
  8
ALL_DETAIL_ITEM
100
AcDbLine
 62
7
  6
CONTINUOUS
 10
369.2855146945
 20
262.9214752318
 11
368.122341104
 21
263.6393035503
  0
LINE
  5
352
100
AcDbEntity
  8
ALL_DETAIL_ITEM
100
AcDbLine
 62
7
  6
CONTINUOUS
 10
370.241428813
 20
255.3418482298
 11
369.285540128
 21
255.9217630113
  0
LINE
  5
353
100
AcDbEntity
  8
ALL_DETAIL_ITEM
100
AcDbLine
 62
7
  6
CONTINUOUS
 10
369.285540128
 20
255.9217630113
 11
368.1234455425
 21
256.6387755303
  0
LINE
  5
354
100
AcDbEntity
  8
ALL_DETAIL_ITEM
100
AcDbLine
 62
7
  6
CONTINUOUS
 10
370.2389746085
 20
248.3430857783
 11
369.2840919315
 21
248.9226949058
  0
LINE
  5
355
100
AcDbEntity
  8
ALL_DETAIL_ITEM
100
AcDbLine
 62
7
  6
CONTINUOUS
 10
369.2840919315
 20
248.9226949058
 11
368.122843618
 21
249.6395926718
  0
LINE
  5
356
100
AcDbEntity
  8
ALL_DETAIL_ITEM
100
AcDbLine
 62
7
  6
CONTINUOUS
 10
368.1234455425
 20
256.6387755303
 11
367.6479994875
 21
256.9381524663
  0
LINE
  5
357
100
AcDbEntity
  8
ALL_DETAIL_ITEM
100
AcDbLine
 62
7
  6
CONTINUOUS
 10
368.122843618
 20
249.6395926718
 11
367.6479994875
 21
249.9387002038
  0
LINE
  5
358
100
AcDbEntity
  8
ALL_DETAIL_ITEM
100
AcDbLine
 62
7
  6
CONTINUOUS
 10
368.122341104
 20
263.6393035503
 11
367.6479994875
 21
263.9381286928
  0
LINE
  5
359
100
AcDbEntity
  8
ALL_DETAIL_ITEM
100
AcDbLine
 62
7
  6
CONTINUOUS
 10
351.065686781
 20
251.4130574063
 11
350.9614862265
 21
251.4857055118
  0
LINE
  5
35A
100
AcDbEntity
  8
ALL_DETAIL_ITEM
100
AcDbLine
 62
7
  6
CONTINUOUS
 10
350.9614862265
 20
251.4857055118
 11
351.0560012355
 21
251.8420379988
  0
LINE
  5
35B
100
AcDbEntity
  8
ALL_DETAIL_ITEM
100
AcDbLine
 62
7
  6
CONTINUOUS
 10
365.957202254
 20
240.0203296138
 11
365.4931563355
 21
240.4270473733
  0
LINE
  5
35C
100
AcDbEntity
  8
ALL_DETAIL_ITEM
100
AcDbLine
 62
7
  6
CONTINUOUS
 10
365.4931563355
 20
240.4270473733
 11
365.032233961
 21
240.8241441218
  0
LINE
  5
35D
100
AcDbEntity
  8
ALL_DETAIL_ITEM
100
AcDbLine
 62
7
  6
CONTINUOUS
 10
365.032233961
 20
240.8241441218
 11
364.5754665965
 21
241.2116053818
  0
LINE
  5
35E
100
AcDbEntity
  8
ALL_DETAIL_ITEM
100
AcDbLine
 62
7
  6
CONTINUOUS
 10
360.6479994875
 20
493.4284837468
 11
348.1479994875
 21
486.2116053818
  0
LINE
  5
35F
100
AcDbEntity
  8
ALL_DETAIL_ITEM
100
AcDbLine
 62
7
  6
CONTINUOUS
 10
356.7854486695
 20
311.2116053818
 11
364.5105503055
 21
311.2116053818
  0
LINE
  5
360
100
AcDbEntity
  8
ALL_DETAIL_ITEM
100
AcDbLine
 62
7
  6
CONTINUOUS
 10
355.9899658685
 20
307.0141139963
 11
355.5361360925
 21
307.1163922288
  0
LINE
  5
361
100
AcDbEntity
  8
ALL_DETAIL_ITEM
100
AcDbLine
 62
7
  6
CONTINUOUS
 10
355.5361360925
 20
307.1163922288
 11
355.0841177575
 21
307.2512663223
  0
LINE
  5
362
100
AcDbEntity
  8
ALL_DETAIL_ITEM
100
AcDbLine
 62
7
  6
CONTINUOUS
 10
351.0688780655
 20
279.4109276583
 11
352.0249559725
 21
278.8524688003
  0
LINE
  5
363
100
AcDbEntity
  8
ALL_DETAIL_ITEM
100
AcDbLine
 62
7
  6
CONTINUOUS
 10
351.068439282
 20
293.4121799768
 11
352.024891582
 21
292.8535428618
  0
LINE
  5
364
100
AcDbEntity
  8
ALL_DETAIL_ITEM
100
AcDbLine
 62
7
  6
CONTINUOUS
 10
351.070192277
 20
286.4101131138
 11
352.025841157
 21
285.8518190988
  0
LINE
  5
365
100
AcDbEntity
  8
ALL_DETAIL_ITEM
100
AcDbLine
 62
7
  6
CONTINUOUS
 10
352.0249559725
 20
278.8524688003
 11
353.6479994875
 21
277.8949843553
  0
LINE
  5
366
100
AcDbEntity
  8
ALL_DETAIL_ITEM
100
AcDbLine
 62
7
  6
CONTINUOUS
 10
352.025841157
 20
285.8518190988
 11
353.6479994875
 21
284.8947462053
  0
LINE
  5
367
100
AcDbEntity
  8
ALL_DETAIL_ITEM
100
AcDbLine
 62
7
  6
CONTINUOUS
 10
352.024891582
 20
292.8535428618
 11
353.655505824
 21
291.8915902473
  0
LINE
  5
368
100
AcDbEntity
  8
ALL_DETAIL_ITEM
100
AcDbLine
 62
7
  6
CONTINUOUS
 10
370.2380092565
 20
269.3435493538
 11
369.2833351885
 21
269.9231173263
  0
LINE
  5
369
100
AcDbEntity
  8
ALL_DETAIL_ITEM
100
AcDbLine
 62
7
  6
CONTINUOUS
 10
369.2833351885
 20
269.9231173263
 11
368.122389386
 21
270.6398805333
  0
LINE
  5
36A
100
AcDbEntity
  8
ALL_DETAIL_ITEM
100
AcDbLine
 62
7
  6
CONTINUOUS
 10
370.240556613
 20
276.3423469363
 11
369.120509116
 21
277.0228296753
  0
LINE
  5
36B
100
AcDbEntity
  8
ALL_DETAIL_ITEM
100
AcDbLine
 62
7
  6
CONTINUOUS
 10
369.120509116
 20
277.0228296753
 11
367.810562496
 21
277.8351972808
  0
LINE
  5
36C
100
AcDbEntity
  8
ALL_DETAIL_ITEM
100
AcDbLine
 62
7
  6
CONTINUOUS
 10
370.24194944
 20
283.3404684068
 11
369.1203853925
 21
284.0216577743
  0
LINE
  5
36D
100
AcDbEntity
  8
ALL_DETAIL_ITEM
100
AcDbLine
 62
7
  6
CONTINUOUS
 10
369.1203853925
 20
284.0216577743
 11
367.8087056765
 21
284.8352058088
  0
LINE
  5
36E
100
AcDbEntity
  8
ALL_DETAIL_ITEM
100
AcDbLine
 62
7
  6
CONTINUOUS
 10
368.122389386
 20
270.6398805333
 11
367.6479994875
 21
270.9387182908
  0
LINE
  5
36F
100
AcDbEntity
  8
ALL_DETAIL_ITEM
100
AcDbLine
 62
7
  6
CONTINUOUS
 10
367.810562496
 20
277.8351972808
 11
367.6479994875
 21
277.9380065158
  0
LINE
  5
370
100
AcDbEntity
  8
ALL_DETAIL_ITEM
100
AcDbLine
 62
7
  6
CONTINUOUS
 10
367.8087056765
 20
284.8352058088
 11
367.6479994875
 21
284.9368887568
  0
LINE
  5
371
100
AcDbEntity
  8
ALL_DETAIL_ITEM
100
AcDbLine
 62
7
  6
CONTINUOUS
 10
370.2380092565
 20
269.3435493538
 11
370.308943388
 21
269.2952531638
  0
LINE
  5
372
100
AcDbEntity
  8
ALL_DETAIL_ITEM
100
AcDbLine
 62
7
  6
CONTINUOUS
 10
370.308943388
 20
269.2952531638
 11
370.327649425
 21
268.9810455133
  0
LINE
  5
373
100
AcDbEntity
  8
ALL_DETAIL_ITEM
100
AcDbLine
 62
7
  6
CONTINUOUS
 10
370.327649425
 20
268.9810455133
 11
370.224067663
 21
268.9089722683
  0
LINE
  5
374
100
AcDbEntity
  8
ALL_DETAIL_ITEM
100
AcDbLine
 62
7
  6
CONTINUOUS
 10
351.070189128
 20
244.4096897118
 11
350.882485252
 21
244.6057644078
  0
LINE
  5
375
100
AcDbEntity
  8
ALL_DETAIL_ITEM
100
AcDbLine
 62
7
  6
CONTINUOUS
 10
350.882485252
 20
244.6057644078
 11
351.0546987495
 21
244.8419313658
  0
LINE
  5
376
100
AcDbEntity
  8
ALL_DETAIL_ITEM
100
AcDbLine
 62
7
  6
CONTINUOUS
 10
398.1479994875
 20
324.2116053818
 11
323.1479994875
 21
324.2116053818
  0
LINE
  5
377
100
AcDbEntity
  8
ALL_DETAIL_ITEM
100
AcDbLine
 62
7
  6
CONTINUOUS
 10
398.1479994875
 20
331.2116053818
 11
323.1479994875
 21
331.2116053818
  0
LINE
  5
378
100
AcDbEntity
  8
ALL_DETAIL_ITEM
100
AcDbLine
 62
7
  6
CONTINUOUS
 10
354.937800275
 20
307.3281120868
 11
355.084117397
 21
307.2512665118
  0
LINE
  5
379
100
AcDbEntity
  8
ALL_DETAIL_ITEM
100
AcDbLine
 62
7
  6
CONTINUOUS
 10
355.2367530575
 20
306.9997904738
 11
355.694190438
 21
306.7468779728
  0
LINE
  5
37A
100
AcDbEntity
  8
ALL_DETAIL_ITEM
100
AcDbLine
 62
7
  6
CONTINUOUS
 10
355.694190438
 20
306.7468779728
 11
355.9111447175
 21
306.6254729278
  0
LINE
  5
37B
100
AcDbEntity
  8
ALL_DETAIL_ITEM
100
AcDbLine
 62
7
  6
CONTINUOUS
 10
351.8357260345
 20
300.3437098863
 11
352.8277834155
 21
299.7646090878
  0
LINE
  5
37C
100
AcDbEntity
  8
ALL_DETAIL_ITEM
100
AcDbLine
 62
7
  6
CONTINUOUS
 10
352.8277834155
 20
299.7646090878
 11
354.0582661015
 21
299.0393871743
  0
LINE
  5
37D
100
AcDbEntity
  8
ALL_DETAIL_ITEM
100
AcDbLine
 62
7
  6
CONTINUOUS
 10
354.0582661015
 20
299.0393871743
 11
354.4234095505
 21
298.8216073288
  0
LINE
  5
37E
100
AcDbEntity
  8
ALL_DETAIL_ITEM
100
AcDbLine
 62
7
  6
CONTINUOUS
 10
370.23935998
 20
290.3428773588
 11
369.1201328755
 21
291.0230173008
  0
LINE
  5
37F
100
AcDbEntity
  8
ALL_DETAIL_ITEM
100
AcDbLine
 62
7
  6
CONTINUOUS
 10
369.1201328755
 20
291.0230173008
 11
367.8109339205
 21
291.8351268738
  0
LINE
  5
380
100
AcDbEntity
  8
ALL_DETAIL_ITEM
100
AcDbLine
 62
7
  6
CONTINUOUS
 10
370.141681022
 20
297.3219965613
 11
368.7612044775
 21
298.1639889633
  0
LINE
  5
381
100
AcDbEntity
  8
ALL_DETAIL_ITEM
100
AcDbLine
 62
7
  6
CONTINUOUS
 10
368.7612044775
 20
298.1639889633
 11
367.3322219925
 21
299.0606552993
  0
LINE
  5
382
100
AcDbEntity
  8
ALL_DETAIL_ITEM
100
AcDbLine
 62
7
  6
CONTINUOUS
 10
367.8109339205
 20
291.8351268738
 11
367.6375547285
 21
291.9447991143
  0
LINE
  5
383
100
AcDbEntity
  8
ALL_DETAIL_ITEM
100
AcDbLine
 62
7
  6
CONTINUOUS
 10
368.148204972
 20
304.2597293378
 11
366.889127254
 21
305.0708985283
  0
LINE
  5
384
100
AcDbEntity
  8
ALL_DETAIL_ITEM
100
AcDbLine
 62
7
  6
CONTINUOUS
 10
367.3322219925
 20
299.0606552993
 11
366.755568531
 21
299.4354365538
  0
LINE
  5
385
100
AcDbEntity
  8
ALL_DETAIL_ITEM
100
AcDbLine
 62
7
  6
CONTINUOUS
 10
370.240556613
 20
276.3423469363
 11
370.392797898
 21
276.2078214698
  0
LINE
  5
386
100
AcDbEntity
  8
ALL_DETAIL_ITEM
100
AcDbLine
 62
7
  6
CONTINUOUS
 10
370.392797898
 20
276.2078214698
 11
370.227761857
 21
275.9104205458
  0
LINE
  5
387
100
AcDbEntity
  8
ALL_DETAIL_ITEM
100
AcDbLine
 62
7
  6
CONTINUOUS
 10
296.260168214
 20
411.5603877508
 11
296.3692112445
 21
412.3058858313
  0
LINE
  5
388
100
AcDbEntity
  8
ALL_DETAIL_ITEM
100
AcDbLine
 62
7
  6
CONTINUOUS
 10
296.3692112445
 20
412.3058858313
 11
296.58923205
 21
413.0270252003
  0
LINE
  5
389
100
AcDbEntity
  8
ALL_DETAIL_ITEM
100
AcDbLine
 62
7
  6
CONTINUOUS
 10
296.58923205
 20
413.0270252003
 11
296.9108525645
 21
413.6993375228
  0
LINE
  5
38A
100
AcDbEntity
  8
ALL_DETAIL_ITEM
100
AcDbLine
 62
7
  6
CONTINUOUS
 10
296.9108525645
 20
413.6993375228
 11
297.3298224365
 21
414.3176189193
  0
LINE
  5
38B
100
AcDbEntity
  8
ALL_DETAIL_ITEM
100
AcDbLine
 62
7
  6
CONTINUOUS
 10
297.3298224365
 20
414.3176189193
 11
297.8410660715
 21
414.8711187693
  0
LINE
  5
38C
100
AcDbEntity
  8
ALL_DETAIL_ITEM
100
AcDbLine
 62
7
  6
CONTINUOUS
 10
297.8410660715
 20
414.8711187693
 11
298.4294786315
 21
415.3413810388
  0
LINE
  5
38D
100
AcDbEntity
  8
ALL_DETAIL_ITEM
100
AcDbLine
 62
7
  6
CONTINUOUS
 10
298.4294786315
 20
415.3413810388
 11
299.075766684
 21
415.7149926528
  0
LINE
  5
38E
100
AcDbEntity
  8
ALL_DETAIL_ITEM
100
AcDbLine
 62
7
  6
CONTINUOUS
 10
299.075766684
 20
415.7149926528
 11
299.770042926
 21
415.9880964018
  0
LINE
  5
38F
100
AcDbEntity
  8
ALL_DETAIL_ITEM
100
AcDbLine
 62
7
  6
CONTINUOUS
 10
374.8979994875
 20
346.2116053818
 11
346.3979994875
 21
346.2116053818
  0
LINE
  5
390
100
AcDbEntity
  8
ALL_DETAIL_ITEM
100
AcDbLine
 62
7
  6
CONTINUOUS
 10
346.3979994875
 20
350.0458362368
 11
374.8979994875
 21
350.0458362368
  0
LINE
  5
391
100
AcDbEntity
  8
ALL_DETAIL_ITEM
100
AcDbLine
 62
7
  6
CONTINUOUS
 10
348.8979994875
 20
351.2116053818
 11
372.3979994875
 21
351.2116053818
  0
LINE
  5
392
100
AcDbEntity
  8
ALL_DETAIL_ITEM
100
AcDbLine
 62
7
  6
CONTINUOUS
 10
346.3979994875
 20
352.3773745273
 11
374.8979994875
 21
352.3773745273
  0
LINE
  5
393
100
AcDbEntity
  8
ALL_DETAIL_ITEM
100
AcDbLine
 62
7
  6
CONTINUOUS
 10
346.3979994875
 20
353.0458362368
 11
374.8979994875
 21
353.0458362368
  0
LINE
  5
394
100
AcDbEntity
  8
ALL_DETAIL_ITEM
100
AcDbLine
 62
7
  6
CONTINUOUS
 10
348.8979994875
 20
354.2116053818
 11
372.3979994875
 21
354.2116053818
  0
LINE
  5
395
100
AcDbEntity
  8
ALL_DETAIL_ITEM
100
AcDbLine
 62
7
  6
CONTINUOUS
 10
346.3979994875
 20
355.3773745273
 11
374.8979994875
 21
355.3773745273
  0
LINE
  5
396
100
AcDbEntity
  8
ALL_DETAIL_ITEM
100
AcDbLine
 62
7
  6
CONTINUOUS
 10
346.3979994875
 20
356.0458362368
 11
374.8979994875
 21
356.0458362368
  0
LINE
  5
397
100
AcDbEntity
  8
ALL_DETAIL_ITEM
100
AcDbLine
 62
7
  6
CONTINUOUS
 10
348.8979994875
 20
357.2116053818
 11
372.3979994875
 21
357.2116053818
  0
LINE
  5
398
100
AcDbEntity
  8
ALL_DETAIL_ITEM
100
AcDbLine
 62
7
  6
CONTINUOUS
 10
346.3979994875
 20
358.3773745273
 11
374.8979994875
 21
358.3773745273
  0
LINE
  5
399
100
AcDbEntity
  8
ALL_DETAIL_ITEM
100
AcDbLine
 62
7
  6
CONTINUOUS
 10
366.889127254
 20
305.0708985283
 11
365.494211863
 21
306.0518412263
  0
LINE
  5
39A
100
AcDbEntity
  8
ALL_DETAIL_ITEM
100
AcDbLine
 62
7
  6
CONTINUOUS
 10
370.141681022
 20
297.3219965613
 11
370.262648495
 21
297.2289454718
  0
LINE
  5
39B
100
AcDbEntity
  8
ALL_DETAIL_ITEM
100
AcDbLine
 62
7
  6
CONTINUOUS
 10
370.262648495
 20
297.2289454718
 11
370.132606511
 21
296.8956934808
  0
LINE
  5
39C
100
AcDbEntity
  8
ALL_DETAIL_ITEM
100
AcDbLine
 62
7
  6
CONTINUOUS
 10
354.9659331195
 20
307.2972154988
 11
355.2367530575
 21
306.9997904738
  0
LINE
  5
39D
100
AcDbEntity
  8
ALL_DETAIL_ITEM
100
AcDbLine
 62
7
  6
CONTINUOUS
 10
370.24194944
 20
283.3404684068
 11
370.4167585115
 21
283.1203897758
  0
LINE
  5
39E
100
AcDbEntity
  8
ALL_DETAIL_ITEM
100
AcDbLine
 62
7
  6
CONTINUOUS
 10
370.4167585115
 20
283.1203897758
 11
370.2272809105
 21
282.9109485408
  0
LINE
  5
39F
100
AcDbEntity
  8
ALL_DETAIL_ITEM
100
AcDbLine
 62
7
  6
CONTINUOUS
 10
299.8354384475
 20
416.2116053818
 11
299.8354384475
 21
616.2116053818
  0
LINE
  5
3A0
100
AcDbEntity
  8
ALL_DETAIL_ITEM
100
AcDbLine
 62
7
  6
CONTINUOUS
 10
296.260168214
 20
411.5603877508
 11
280.13856772
 21
181.0287879068
  0
LINE
  5
3A1
100
AcDbEntity
  8
ALL_DETAIL_ITEM
100
AcDbLine
 62
7
  6
CONTINUOUS
 10
284.027604881
 20
179.2979107553
 11
300.250736138
 21
411.2813618558
  0
LINE
  5
3A2
100
AcDbEntity
  8
ALL_DETAIL_ITEM
100
AcDbLine
 62
7
  6
CONTINUOUS
 10
285.5439557945
 20
178.6230349338
 11
301.813010868
 21
411.2813618558
  0
LINE
  5
3A3
100
AcDbEntity
  8
ALL_DETAIL_ITEM
100
AcDbLine
 62
7
  6
CONTINUOUS
 10
346.3979994875
 20
359.0458362368
 11
374.8979994875
 21
359.0458362368
  0
LINE
  5
3A4
100
AcDbEntity
  8
ALL_DETAIL_ITEM
100
AcDbLine
 62
7
  6
CONTINUOUS
 10
358.6479994875
 20
359.2116053818
 11
362.6479994875
 21
359.2116053818
  0
LINE
  5
3A5
100
AcDbEntity
  8
ALL_DETAIL_ITEM
100
AcDbLine
 62
7
  6
CONTINUOUS
 10
348.8979994875
 20
360.2116053818
 11
358.6305444225
 21
360.2116053818
  0
LINE
  5
3A6
100
AcDbEntity
  8
ALL_DETAIL_ITEM
100
AcDbLine
 62
7
  6
CONTINUOUS
 10
362.6654545525
 20
360.2116053818
 11
372.3979994875
 21
360.2116053818
  0
LINE
  5
3A7
100
AcDbEntity
  8
ALL_DETAIL_ITEM
100
AcDbLine
 62
7
  6
CONTINUOUS
 10
374.8979994875
 20
361.3773745273
 11
362.6858031285
 21
361.3773745273
  0
LINE
  5
3A8
100
AcDbEntity
  8
ALL_DETAIL_ITEM
100
AcDbLine
 62
7
  6
CONTINUOUS
 10
358.6101958465
 20
361.3773745273
 11
346.3979994875
 21
361.3773745273
  0
LINE
  5
3A9
100
AcDbEntity
  8
ALL_DETAIL_ITEM
100
AcDbLine
 62
7
  6
CONTINUOUS
 10
374.8979994875
 20
362.0458362368
 11
362.697471171
 21
362.0458362368
  0
LINE
  5
3AA
100
AcDbEntity
  8
ALL_DETAIL_ITEM
100
AcDbLine
 62
7
  6
CONTINUOUS
 10
358.598527804
 20
362.0458362368
 11
346.3979994875
 21
362.0458362368
  0
LINE
  5
3AB
100
AcDbEntity
  8
ALL_DETAIL_ITEM
100
AcDbLine
 62
7
  6
CONTINUOUS
 10
372.3979994875
 20
363.2116053818
 11
362.7178197475
 21
363.2116053818
  0
LINE
  5
3AC
100
AcDbEntity
  8
ALL_DETAIL_ITEM
100
AcDbLine
 62
7
  6
CONTINUOUS
 10
358.578179228
 20
363.2116053818
 11
348.8979994875
 21
363.2116053818
  0
LINE
  5
3AD
100
AcDbEntity
  8
ALL_DETAIL_ITEM
100
AcDbLine
 62
7
  6
CONTINUOUS
 10
346.3979994875
 20
364.3773745273
 11
358.557830652
 21
364.3773745273
  0
LINE
  5
3AE
100
AcDbEntity
  8
ALL_DETAIL_ITEM
100
AcDbLine
 62
7
  6
CONTINUOUS
 10
362.7381683235
 20
364.3773745273
 11
374.8979994875
 21
364.3773745273
  0
LINE
  5
3AF
100
AcDbEntity
  8
ALL_DETAIL_ITEM
100
AcDbLine
 62
7
  6
CONTINUOUS
 10
374.8979994875
 20
365.0458362368
 11
362.749836366
 21
365.0458362368
  0
LINE
  5
3B0
100
AcDbEntity
  8
ALL_DETAIL_ITEM
100
AcDbLine
 62
7
  6
CONTINUOUS
 10
358.546162609
 20
365.0458362368
 11
346.3979994875
 21
365.0458362368
  0
LINE
  5
3B1
100
AcDbEntity
  8
ALL_DETAIL_ITEM
100
AcDbLine
 62
7
  6
CONTINUOUS
 10
372.3979994875
 20
366.2116053818
 11
362.770184942
 21
366.2116053818
  0
LINE
  5
3B2
100
AcDbEntity
  8
ALL_DETAIL_ITEM
100
AcDbLine
 62
7
  6
CONTINUOUS
 10
358.525814033
 20
366.2116053818
 11
348.8979994875
 21
366.2116053818
  0
LINE
  5
3B3
100
AcDbEntity
  8
ALL_DETAIL_ITEM
100
AcDbLine
 62
7
  6
CONTINUOUS
 10
346.3979994875
 20
367.3773745273
 11
358.505465457
 21
367.3773745273
  0
LINE
  5
3B4
100
AcDbEntity
  8
ALL_DETAIL_ITEM
100
AcDbLine
 62
7
  6
CONTINUOUS
 10
362.790533518
 20
367.3773745273
 11
374.8979994875
 21
367.3773745273
  0
LINE
  5
3B5
100
AcDbEntity
  8
ALL_DETAIL_ITEM
100
AcDbLine
 62
7
  6
CONTINUOUS
 10
374.8979994875
 20
368.0458362368
 11
362.802201561
 21
368.0458362368
  0
LINE
  5
3B6
100
AcDbEntity
  8
ALL_DETAIL_ITEM
100
AcDbLine
 62
7
  6
CONTINUOUS
 10
358.4937974145
 20
368.0458362368
 11
346.3979994875
 21
368.0458362368
  0
LINE
  5
3B7
100
AcDbEntity
  8
ALL_DETAIL_ITEM
100
AcDbLine
 62
7
  6
CONTINUOUS
 10
372.3979994875
 20
369.2116053818
 11
362.822550137
 21
369.2116053818
  0
LINE
  5
3B8
100
AcDbEntity
  8
ALL_DETAIL_ITEM
100
AcDbLine
 62
7
  6
CONTINUOUS
 10
358.4734488385
 20
369.2116053818
 11
348.8979994875
 21
369.2116053818
  0
LINE
  5
3B9
100
AcDbEntity
  8
ALL_DETAIL_ITEM
100
AcDbLine
 62
7
  6
CONTINUOUS
 10
346.3979994875
 20
370.3773745273
 11
358.453100262
 21
370.3773745273
  0
LINE
  5
3BA
100
AcDbEntity
  8
ALL_DETAIL_ITEM
100
AcDbLine
 62
7
  6
CONTINUOUS
 10
362.842898713
 20
370.3773745273
 11
374.8979994875
 21
370.3773745273
  0
LINE
  5
3BB
100
AcDbEntity
  8
ALL_DETAIL_ITEM
100
AcDbLine
 62
7
  6
CONTINUOUS
 10
374.8979994875
 20
371.0458362368
 11
362.8545667555
 21
371.0458362368
  0
LINE
  5
3BC
100
AcDbEntity
  8
ALL_DETAIL_ITEM
100
AcDbLine
 62
7
  6
CONTINUOUS
 10
358.4414322195
 20
371.0458362368
 11
346.3979994875
 21
371.0458362368
  0
LINE
  5
3BD
100
AcDbEntity
  8
ALL_DETAIL_ITEM
100
AcDbLine
 62
7
  6
CONTINUOUS
 10
372.3979994875
 20
372.2116053818
 11
362.8749153315
 21
372.2116053818
  0
LINE
  5
3BE
100
AcDbEntity
  8
ALL_DETAIL_ITEM
100
AcDbLine
 62
7
  6
CONTINUOUS
 10
358.4210836435
 20
372.2116053818
 11
348.8979994875
 21
372.2116053818
  0
LINE
  5
3BF
100
AcDbEntity
  8
ALL_DETAIL_ITEM
100
AcDbLine
 62
7
  6
CONTINUOUS
 10
346.3979994875
 20
373.3773745273
 11
358.4007350675
 21
373.3773745273
  0
LINE
  5
3C0
100
AcDbEntity
  8
ALL_DETAIL_ITEM
100
AcDbLine
 62
7
  6
CONTINUOUS
 10
362.895263908
 20
373.3773745273
 11
374.8979994875
 21
373.3773745273
  0
LINE
  5
3C1
100
AcDbEntity
  8
ALL_DETAIL_ITEM
100
AcDbLine
 62
7
  6
CONTINUOUS
 10
374.8979994875
 20
374.0458362368
 11
362.9069319505
 21
374.0458362368
  0
LINE
  5
3C2
100
AcDbEntity
  8
ALL_DETAIL_ITEM
100
AcDbLine
 62
7
  6
CONTINUOUS
 10
358.389067025
 20
374.0458362368
 11
346.3979994875
 21
374.0458362368
  0
LINE
  5
3C3
100
AcDbEntity
  8
ALL_DETAIL_ITEM
100
AcDbLine
 62
7
  6
CONTINUOUS
 10
372.3979994875
 20
375.2116053818
 11
362.9272805265
 21
375.2116053818
  0
LINE
  5
3C4
100
AcDbEntity
  8
ALL_DETAIL_ITEM
100
AcDbLine
 62
7
  6
CONTINUOUS
 10
358.368718449
 20
375.2116053818
 11
348.8979994875
 21
375.2116053818
  0
LINE
  5
3C5
100
AcDbEntity
  8
ALL_DETAIL_ITEM
100
AcDbLine
 62
7
  6
CONTINUOUS
 10
346.3979994875
 20
376.3773745273
 11
358.3483698725
 21
376.3773745273
  0
LINE
  5
3C6
100
AcDbEntity
  8
ALL_DETAIL_ITEM
100
AcDbLine
 62
7
  6
CONTINUOUS
 10
362.9476291025
 20
376.3773745273
 11
374.8979994875
 21
376.3773745273
  0
LINE
  5
3C7
100
AcDbEntity
  8
ALL_DETAIL_ITEM
100
AcDbLine
 62
7
  6
CONTINUOUS
 10
348.8979994875
 20
351.2116053818
 11
346.3979994875
 21
352.3773745273
  0
LINE
  5
3C8
100
AcDbEntity
  8
ALL_DETAIL_ITEM
100
AcDbLine
 62
7
  6
CONTINUOUS
 10
348.8979994875
 20
354.2116053818
 11
346.3979994875
 21
355.3773745273
  0
LINE
  5
3C9
100
AcDbEntity
  8
ALL_DETAIL_ITEM
100
AcDbLine
 62
7
  6
CONTINUOUS
 10
348.8979994875
 20
357.2116053818
 11
346.3979994875
 21
358.3773745273
  0
LINE
  5
3CA
100
AcDbEntity
  8
ALL_DETAIL_ITEM
100
AcDbLine
 62
7
  6
CONTINUOUS
 10
348.8979994875
 20
360.2116053818
 11
346.3979994875
 21
361.3773745273
  0
LINE
  5
3CB
100
AcDbEntity
  8
ALL_DETAIL_ITEM
100
AcDbLine
 62
7
  6
CONTINUOUS
 10
374.8979994875
 20
350.0458362368
 11
372.3979994875
 21
351.2116053818
  0
LINE
  5
3CC
100
AcDbEntity
  8
ALL_DETAIL_ITEM
100
AcDbLine
 62
7
  6
CONTINUOUS
 10
348.8979994875
 20
363.2116053818
 11
346.3979994875
 21
364.3773745273
  0
LINE
  5
3CD
100
AcDbEntity
  8
ALL_DETAIL_ITEM
100
AcDbLine
 62
7
  6
CONTINUOUS
 10
374.8979994875
 20
353.0458362368
 11
372.3979994875
 21
354.2116053818
  0
LINE
  5
3CE
100
AcDbEntity
  8
ALL_DETAIL_ITEM
100
AcDbLine
 62
7
  6
CONTINUOUS
 10
368.148204972
 20
304.2597293378
 11
368.342479387
 21
304.0030146213
  0
LINE
  5
3CF
100
AcDbEntity
  8
ALL_DETAIL_ITEM
100
AcDbLine
 62
7
  6
CONTINUOUS
 10
368.342479387
 20
304.0030146213
 11
368.1108915955
 21
303.7464757618
  0
LINE
  5
3D0
100
AcDbEntity
  8
ALL_DETAIL_ITEM
100
AcDbLine
 62
7
  6
CONTINUOUS
 10
370.242250226
 20
262.3410935743
 11
370.4006980905
 21
262.0684772073
  0
LINE
  5
3D1
100
AcDbEntity
  8
ALL_DETAIL_ITEM
100
AcDbLine
 62
7
  6
CONTINUOUS
 10
370.4006980905
 20
262.0684772073
 11
370.225432685
 21
261.9102457073
  0
LINE
  5
3D2
100
AcDbEntity
  8
ALL_DETAIL_ITEM
100
AcDbLine
 62
7
  6
CONTINUOUS
 10
323.1479994875
 20
331.2116053818
 11
323.1479994875
 21
324.2116053818
  0
LINE
  5
3D3
100
AcDbEntity
  8
ALL_DETAIL_ITEM
100
AcDbLine
 62
7
  6
CONTINUOUS
 10
374.8979994875
 20
377.0458362368
 11
362.959297145
 21
377.0458362368
  0
LINE
  5
3D4
100
AcDbEntity
  8
ALL_DETAIL_ITEM
100
AcDbLine
 62
7
  6
CONTINUOUS
 10
358.33670183
 20
377.0458362368
 11
346.3979994875
 21
377.0458362368
  0
LINE
  5
3D5
100
AcDbEntity
  8
ALL_DETAIL_ITEM
100
AcDbLine
 62
7
  6
CONTINUOUS
 10
372.3979994875
 20
378.2116053818
 11
362.979645721
 21
378.2116053818
  0
LINE
  5
3D6
100
AcDbEntity
  8
ALL_DETAIL_ITEM
100
AcDbLine
 62
7
  6
CONTINUOUS
 10
358.316353254
 20
378.2116053818
 11
348.8979994875
 21
378.2116053818
  0
LINE
  5
3D7
100
AcDbEntity
  8
ALL_DETAIL_ITEM
100
AcDbLine
 62
7
  6
CONTINUOUS
 10
346.3979994875
 20
379.3773745273
 11
358.296004678
 21
379.3773745273
  0
LINE
  5
3D8
100
AcDbEntity
  8
ALL_DETAIL_ITEM
100
AcDbLine
 62
7
  6
CONTINUOUS
 10
362.9999942975
 20
379.3773745273
 11
374.8979994875
 21
379.3773745273
  0
LINE
  5
3D9
100
AcDbEntity
  8
ALL_DETAIL_ITEM
100
AcDbLine
 62
7
  6
CONTINUOUS
 10
374.8979994875
 20
380.0458362368
 11
363.01166234
 21
380.0458362368
  0
LINE
  5
3DA
100
AcDbEntity
  8
ALL_DETAIL_ITEM
100
AcDbLine
 62
7
  6
CONTINUOUS
 10
358.2843366355
 20
380.0458362368
 11
346.3979994875
 21
380.0458362368
  0
LINE
  5
3DB
100
AcDbEntity
  8
ALL_DETAIL_ITEM
100
AcDbLine
 62
7
  6
CONTINUOUS
 10
372.3979994875
 20
381.2116053818
 11
363.032010916
 21
381.2116053818
  0
LINE
  5
3DC
100
AcDbEntity
  8
ALL_DETAIL_ITEM
100
AcDbLine
 62
7
  6
CONTINUOUS
 10
358.263988059
 20
381.2116053818
 11
348.8979994875
 21
381.2116053818
  0
LINE
  5
3DD
100
AcDbEntity
  8
ALL_DETAIL_ITEM
100
AcDbLine
 62
7
  6
CONTINUOUS
 10
346.3979994875
 20
382.3773745273
 11
358.243639483
 21
382.3773745273
  0
LINE
  5
3DE
100
AcDbEntity
  8
ALL_DETAIL_ITEM
100
AcDbLine
 62
7
  6
CONTINUOUS
 10
363.052359492
 20
382.3773745273
 11
374.8979994875
 21
382.3773745273
  0
LINE
  5
3DF
100
AcDbEntity
  8
ALL_DETAIL_ITEM
100
AcDbLine
 62
7
  6
CONTINUOUS
 10
374.8979994875
 20
383.0458362368
 11
363.0640275345
 21
383.0458362368
  0
LINE
  5
3E0
100
AcDbEntity
  8
ALL_DETAIL_ITEM
100
AcDbLine
 62
7
  6
CONTINUOUS
 10
358.2319714405
 20
383.0458362368
 11
346.3979994875
 21
383.0458362368
  0
LINE
  5
3E1
100
AcDbEntity
  8
ALL_DETAIL_ITEM
100
AcDbLine
 62
7
  6
CONTINUOUS
 10
372.3979994875
 20
384.2116053818
 11
363.084376111
 21
384.2116053818
  0
LINE
  5
3E2
100
AcDbEntity
  8
ALL_DETAIL_ITEM
100
AcDbLine
 62
7
  6
CONTINUOUS
 10
358.2116228645
 20
384.2116053818
 11
348.8979994875
 21
384.2116053818
  0
LINE
  5
3E3
100
AcDbEntity
  8
ALL_DETAIL_ITEM
100
AcDbLine
 62
7
  6
CONTINUOUS
 10
346.3979994875
 20
385.3773745273
 11
358.1912742885
 21
385.3773745273
  0
LINE
  5
3E4
100
AcDbEntity
  8
ALL_DETAIL_ITEM
100
AcDbLine
 62
7
  6
CONTINUOUS
 10
363.104724687
 20
385.3773745273
 11
374.8979994875
 21
385.3773745273
  0
LINE
  5
3E5
100
AcDbEntity
  8
ALL_DETAIL_ITEM
100
AcDbLine
 62
7
  6
CONTINUOUS
 10
374.8979994875
 20
386.0458362368
 11
363.1163927295
 21
386.0458362368
  0
LINE
  5
3E6
100
AcDbEntity
  8
ALL_DETAIL_ITEM
100
AcDbLine
 62
7
  6
CONTINUOUS
 10
358.1796062455
 20
386.0458362368
 11
346.3979994875
 21
386.0458362368
  0
LINE
  5
3E7
100
AcDbEntity
  8
ALL_DETAIL_ITEM
100
AcDbLine
 62
7
  6
CONTINUOUS
 10
372.3979994875
 20
387.2116053818
 11
363.1367413055
 21
387.2116053818
  0
LINE
  5
3E8
100
AcDbEntity
  8
ALL_DETAIL_ITEM
100
AcDbLine
 62
7
  6
CONTINUOUS
 10
358.1592576695
 20
387.2116053818
 11
348.8979994875
 21
387.2116053818
  0
LINE
  5
3E9
100
AcDbEntity
  8
ALL_DETAIL_ITEM
100
AcDbLine
 62
7
  6
CONTINUOUS
 10
346.3979994875
 20
388.3773745273
 11
358.1389090935
 21
388.3773745273
  0
LINE
  5
3EA
100
AcDbEntity
  8
ALL_DETAIL_ITEM
100
AcDbLine
 62
7
  6
CONTINUOUS
 10
363.1570898815
 20
388.3773745273
 11
374.8979994875
 21
388.3773745273
  0
LINE
  5
3EB
100
AcDbEntity
  8
ALL_DETAIL_ITEM
100
AcDbLine
 62
7
  6
CONTINUOUS
 10
374.8979994875
 20
389.0458362368
 11
363.1687579245
 21
389.0458362368
  0
LINE
  5
3EC
100
AcDbEntity
  8
ALL_DETAIL_ITEM
100
AcDbLine
 62
7
  6
CONTINUOUS
 10
358.127241051
 20
389.0458362368
 11
346.3979994875
 21
389.0458362368
  0
LINE
  5
3ED
100
AcDbEntity
  8
ALL_DETAIL_ITEM
100
AcDbLine
 62
7
  6
CONTINUOUS
 10
372.3979994875
 20
390.2116053818
 11
363.1891065005
 21
390.2116053818
  0
LINE
  5
3EE
100
AcDbEntity
  8
ALL_DETAIL_ITEM
100
AcDbLine
 62
7
  6
CONTINUOUS
 10
358.106892475
 20
390.2116053818
 11
348.8979994875
 21
390.2116053818
  0
LINE
  5
3EF
100
AcDbEntity
  8
ALL_DETAIL_ITEM
100
AcDbLine
 62
7
  6
CONTINUOUS
 10
346.3979994875
 20
391.3773745273
 11
358.0865438985
 21
391.3773745273
  0
LINE
  5
3F0
100
AcDbEntity
  8
ALL_DETAIL_ITEM
100
AcDbLine
 62
7
  6
CONTINUOUS
 10
363.2094550765
 20
391.3773745273
 11
374.8979994875
 21
391.3773745273
  0
LINE
  5
3F1
100
AcDbEntity
  8
ALL_DETAIL_ITEM
100
AcDbLine
 62
7
  6
CONTINUOUS
 10
374.8979994875
 20
392.0458362368
 11
363.221123119
 21
392.0458362368
  0
LINE
  5
3F2
100
AcDbEntity
  8
ALL_DETAIL_ITEM
100
AcDbLine
 62
7
  6
CONTINUOUS
 10
358.074875856
 20
392.0458362368
 11
346.3979994875
 21
392.0458362368
  0
LINE
  5
3F3
100
AcDbEntity
  8
ALL_DETAIL_ITEM
100
AcDbLine
 62
7
  6
CONTINUOUS
 10
372.3979994875
 20
393.2116053818
 11
363.241471695
 21
393.2116053818
  0
LINE
  5
3F4
100
AcDbEntity
  8
ALL_DETAIL_ITEM
100
AcDbLine
 62
7
  6
CONTINUOUS
 10
358.05452728
 20
393.2116053818
 11
348.8979994875
 21
393.2116053818
  0
LINE
  5
3F5
100
AcDbEntity
  8
ALL_DETAIL_ITEM
100
AcDbLine
 62
7
  6
CONTINUOUS
 10
346.4503414045
 20
394.3529670908
 11
358.0346047375
 21
394.3529670908
  0
LINE
  5
3F6
100
AcDbEntity
  8
ALL_DETAIL_ITEM
100
AcDbLine
 62
7
  6
CONTINUOUS
 10
363.261394238
 20
394.3529670908
 11
374.845657571
 21
394.3529670908
  0
LINE
  5
3F7
100
AcDbEntity
  8
ALL_DETAIL_ITEM
100
AcDbLine
 62
7
  6
CONTINUOUS
 10
348.8979994875
 20
366.2116053818
 11
346.3979994875
 21
367.3773745273
  0
LINE
  5
3F8
100
AcDbEntity
  8
ALL_DETAIL_ITEM
100
AcDbLine
 62
7
  6
CONTINUOUS
 10
374.8979994875
 20
356.0458362368
 11
372.3979994875
 21
357.2116053818
  0
LINE
  5
3F9
100
AcDbEntity
  8
ALL_DETAIL_ITEM
100
AcDbLine
 62
7
  6
CONTINUOUS
 10
348.8979994875
 20
369.2116053818
 11
346.3979994875
 21
370.3773745273
  0
LINE
  5
3FA
100
AcDbEntity
  8
ALL_DETAIL_ITEM
100
AcDbLine
 62
7
  6
CONTINUOUS
 10
374.8979994875
 20
359.0458362368
 11
372.3979994875
 21
360.2116053818
  0
LINE
  5
3FB
100
AcDbEntity
  8
ALL_DETAIL_ITEM
100
AcDbLine
 62
7
  6
CONTINUOUS
 10
348.8979994875
 20
372.2116053818
 11
346.3979994875
 21
373.3773745273
  0
LINE
  5
3FC
100
AcDbEntity
  8
ALL_DETAIL_ITEM
100
AcDbLine
 62
7
  6
CONTINUOUS
 10
374.8979994875
 20
362.0458362368
 11
372.3979994875
 21
363.2116053818
  0
LINE
  5
3FD
100
AcDbEntity
  8
ALL_DETAIL_ITEM
100
AcDbLine
 62
7
  6
CONTINUOUS
 10
348.8979994875
 20
375.2116053818
 11
346.3979994875
 21
376.3773745273
  0
LINE
  5
3FE
100
AcDbEntity
  8
ALL_DETAIL_ITEM
100
AcDbLine
 62
7
  6
CONTINUOUS
 10
374.8979994875
 20
365.0458362368
 11
372.3979994875
 21
366.2116053818
  0
LINE
  5
3FF
100
AcDbEntity
  8
ALL_DETAIL_ITEM
100
AcDbLine
 62
7
  6
CONTINUOUS
 10
348.8979994875
 20
378.2116053818
 11
346.3979994875
 21
379.3773745273
  0
LINE
  5
400
100
AcDbEntity
  8
ALL_DETAIL_ITEM
100
AcDbLine
 62
7
  6
CONTINUOUS
 10
374.8979994875
 20
368.0458362368
 11
372.3979994875
 21
369.2116053818
  0
LINE
  5
401
100
AcDbEntity
  8
ALL_DETAIL_ITEM
100
AcDbLine
 62
7
  6
CONTINUOUS
 10
348.8979994875
 20
381.2116053818
 11
346.3979994875
 21
382.3773745273
  0
LINE
  5
402
100
AcDbEntity
  8
ALL_DETAIL_ITEM
100
AcDbLine
 62
7
  6
CONTINUOUS
 10
374.8979994875
 20
371.0458362368
 11
372.3979994875
 21
372.2116053818
  0
LINE
  5
403
100
AcDbEntity
  8
ALL_DETAIL_ITEM
100
AcDbLine
 62
7
  6
CONTINUOUS
 10
348.8979994875
 20
384.2116053818
 11
346.3979994875
 21
385.3773745273
  0
LINE
  5
404
100
AcDbEntity
  8
ALL_DETAIL_ITEM
100
AcDbLine
 62
7
  6
CONTINUOUS
 10
370.23935998
 20
290.3428773588
 11
370.3794968485
 21
290.0329580818
  0
LINE
  5
405
100
AcDbEntity
  8
ALL_DETAIL_ITEM
100
AcDbLine
 62
7
  6
CONTINUOUS
 10
370.3794968485
 20
290.0329580818
 11
370.228359224
 21
289.9107077673
  0
LINE
  5
406
100
AcDbEntity
  8
ALL_DETAIL_ITEM
100
AcDbLine
 62
7
  6
CONTINUOUS
 10
362.4977733885
 20
217.4262681708
 11
362.5874196535
 21
216.4958853138
  0
LINE
  5
407
100
AcDbEntity
  8
ALL_DETAIL_ITEM
100
AcDbLine
 62
7
  6
CONTINUOUS
 10
340.6479994875
 20
231.2116053818
 11
340.6479994875
 21
223.1156213913
  0
LINE
  5
408
100
AcDbEntity
  8
ALL_DETAIL_ITEM
100
AcDbLine
 62
7
  6
CONTINUOUS
 10
345.6479994875
 20
412.2116053818
 11
345.6479994875
 21
416.2116053818
  0
LINE
  5
409
100
AcDbEntity
  8
ALL_DETAIL_ITEM
100
AcDbLine
 62
7
  6
CONTINUOUS
 10
346.3979994875
 20
346.2116053818
 11
346.3979994875
 21
350.0458362368
  0
LINE
  5
40A
100
AcDbEntity
  8
ALL_DETAIL_ITEM
100
AcDbLine
 62
7
  6
CONTINUOUS
 10
346.3979994875
 20
352.3773745273
 11
346.3979994875
 21
353.0458362368
  0
LINE
  5
40B
100
AcDbEntity
  8
ALL_DETAIL_ITEM
100
AcDbLine
 62
7
  6
CONTINUOUS
 10
346.3979994875
 20
355.3773745273
 11
346.3979994875
 21
356.0458362368
  0
LINE
  5
40C
100
AcDbEntity
  8
ALL_DETAIL_ITEM
100
AcDbLine
 62
7
  6
CONTINUOUS
 10
346.3979994875
 20
358.3773745273
 11
346.3979994875
 21
359.0458362368
  0
LINE
  5
40D
100
AcDbEntity
  8
ALL_DETAIL_ITEM
100
AcDbLine
 62
7
  6
CONTINUOUS
 10
346.3979994875
 20
361.3773745273
 11
346.3979994875
 21
362.0458362368
  0
LINE
  5
40E
100
AcDbEntity
  8
ALL_DETAIL_ITEM
100
AcDbLine
 62
7
  6
CONTINUOUS
 10
346.3979994875
 20
364.3773745273
 11
346.3979994875
 21
365.0458362368
  0
LINE
  5
40F
100
AcDbEntity
  8
ALL_DETAIL_ITEM
100
AcDbLine
 62
7
  6
CONTINUOUS
 10
346.3979994875
 20
367.3773745273
 11
346.3979994875
 21
368.0458362368
  0
LINE
  5
410
100
AcDbEntity
  8
ALL_DETAIL_ITEM
100
AcDbLine
 62
7
  6
CONTINUOUS
 10
346.3979994875
 20
370.3773745273
 11
346.3979994875
 21
371.0458362368
  0
LINE
  5
411
100
AcDbEntity
  8
ALL_DETAIL_ITEM
100
AcDbLine
 62
7
  6
CONTINUOUS
 10
346.3979994875
 20
373.3773745273
 11
346.3979994875
 21
374.0458362368
  0
LINE
  5
412
100
AcDbEntity
  8
ALL_DETAIL_ITEM
100
AcDbLine
 62
7
  6
CONTINUOUS
 10
346.3979994875
 20
376.3773745273
 11
346.3979994875
 21
377.0458362368
  0
LINE
  5
413
100
AcDbEntity
  8
ALL_DETAIL_ITEM
100
AcDbLine
 62
7
  6
CONTINUOUS
 10
346.3979994875
 20
379.3773745273
 11
346.3979994875
 21
380.0458362368
  0
LINE
  5
414
100
AcDbEntity
  8
ALL_DETAIL_ITEM
100
AcDbLine
 62
7
  6
CONTINUOUS
 10
346.3979994875
 20
382.3773745273
 11
346.3979994875
 21
383.0458362368
  0
LINE
  5
415
100
AcDbEntity
  8
ALL_DETAIL_ITEM
100
AcDbLine
 62
7
  6
CONTINUOUS
 10
346.3979994875
 20
385.3773745273
 11
346.3979994875
 21
386.0458362368
  0
LINE
  5
416
100
AcDbEntity
  8
ALL_DETAIL_ITEM
100
AcDbLine
 62
7
  6
CONTINUOUS
 10
346.3979994875
 20
388.3773745273
 11
346.3979994875
 21
389.0458362368
  0
LINE
  5
417
100
AcDbEntity
  8
ALL_DETAIL_ITEM
100
AcDbLine
 62
7
  6
CONTINUOUS
 10
346.3979994875
 20
391.3773745273
 11
346.3979994875
 21
392.0458362368
  0
LINE
  5
418
100
AcDbEntity
  8
ALL_DETAIL_ITEM
100
AcDbLine
 62
7
  6
CONTINUOUS
 10
347.3979994875
 20
331.2116053818
 11
347.3979994875
 21
324.2116053818
  0
LINE
  5
419
100
AcDbEntity
  8
ALL_DETAIL_ITEM
100
AcDbLine
 62
7
  6
CONTINUOUS
 10
349.1284987355
 20
401.7116053818
 11
346.4503414045
 21
394.3529670908
  0
LINE
  5
41A
100
AcDbEntity
  8
ALL_DETAIL_ITEM
100
AcDbLine
 62
7
  6
CONTINUOUS
 10
346.3979994875
 20
392.0458362368
 11
348.8979994875
 21
393.2116053818
  0
LINE
  5
41B
100
AcDbEntity
  8
ALL_DETAIL_ITEM
100
AcDbLine
 62
7
  6
CONTINUOUS
 10
346.3979994875
 20
389.0458362368
 11
348.8979994875
 21
390.2116053818
  0
LINE
  5
41C
100
AcDbEntity
  8
ALL_DETAIL_ITEM
100
AcDbLine
 62
7
  6
CONTINUOUS
 10
346.3979994875
 20
386.0458362368
 11
348.8979994875
 21
387.2116053818
  0
LINE
  5
41D
100
AcDbEntity
  8
ALL_DETAIL_ITEM
100
AcDbLine
 62
7
  6
CONTINUOUS
 10
346.3979994875
 20
383.0458362368
 11
348.8979994875
 21
384.2116053818
  0
LINE
  5
41E
100
AcDbEntity
  8
ALL_DETAIL_ITEM
100
AcDbLine
 62
7
  6
CONTINUOUS
 10
372.3979994875
 20
393.2116053818
 11
374.845657571
 21
394.3529670908
  0
LINE
  5
41F
100
AcDbEntity
  8
ALL_DETAIL_ITEM
100
AcDbLine
 62
7
  6
CONTINUOUS
 10
346.3979994875
 20
380.0458362368
 11
348.8979994875
 21
381.2116053818
  0
LINE
  5
420
100
AcDbEntity
  8
ALL_DETAIL_ITEM
100
AcDbLine
 62
7
  6
CONTINUOUS
 10
349.128098307
 20
401.7116053818
 11
357.906159228
 21
401.7116053818
  0
LINE
  5
421
100
AcDbEntity
  8
ALL_DETAIL_ITEM
100
AcDbLine
 62
7
  6
CONTINUOUS
 10
363.389839747
 20
401.7116053818
 11
372.1679006685
 21
401.7116053818
  0
LINE
  5
422
100
AcDbEntity
  8
ALL_DETAIL_ITEM
100
AcDbLine
 62
7
  6
CONTINUOUS
 10
301.2483781
 20
412.2116053818
 11
345.6479994875
 21
412.2116053818
  0
LINE
  5
423
100
AcDbEntity
  8
ALL_DETAIL_ITEM
100
AcDbLine
 62
7
  6
CONTINUOUS
 10
374.8979994875
 20
374.0458362368
 11
372.3979994875
 21
375.2116053818
  0
LINE
  5
424
100
AcDbEntity
  8
ALL_DETAIL_ITEM
100
AcDbLine
 62
7
  6
CONTINUOUS
 10
348.8979994875
 20
387.2116053818
 11
346.3979994875
 21
388.3773745273
  0
LINE
  5
425
100
AcDbEntity
  8
ALL_DETAIL_ITEM
100
AcDbLine
 62
7
  6
CONTINUOUS
 10
374.8979994875
 20
377.0458362368
 11
372.3979994875
 21
378.2116053818
  0
LINE
  5
426
100
AcDbEntity
  8
ALL_DETAIL_ITEM
100
AcDbLine
 62
7
  6
CONTINUOUS
 10
348.8979994875
 20
390.2116053818
 11
346.3979994875
 21
391.3773745273
  0
LINE
  5
427
100
AcDbEntity
  8
ALL_DETAIL_ITEM
100
AcDbLine
 62
7
  6
CONTINUOUS
 10
374.8979994875
 20
380.0458362368
 11
372.3979994875
 21
381.2116053818
  0
LINE
  5
428
100
AcDbEntity
  8
ALL_DETAIL_ITEM
100
AcDbLine
 62
7
  6
CONTINUOUS
 10
348.8979994875
 20
393.2116053818
 11
346.4503414045
 21
394.3529670908
  0
LINE
  5
429
100
AcDbEntity
  8
ALL_DETAIL_ITEM
100
AcDbLine
 62
7
  6
CONTINUOUS
 10
374.8979994875
 20
383.0458362368
 11
372.3979994875
 21
384.2116053818
  0
LINE
  5
42A
100
AcDbEntity
  8
ALL_DETAIL_ITEM
100
AcDbLine
 62
7
  6
CONTINUOUS
 10
374.8979994875
 20
386.0458362368
 11
372.3979994875
 21
387.2116053818
  0
LINE
  5
42B
100
AcDbEntity
  8
ALL_DETAIL_ITEM
100
AcDbLine
 62
7
  6
CONTINUOUS
 10
374.8979994875
 20
389.0458362368
 11
372.3979994875
 21
390.2116053818
  0
LINE
  5
42C
100
AcDbEntity
  8
ALL_DETAIL_ITEM
100
AcDbLine
 62
7
  6
CONTINUOUS
 10
374.8979994875
 20
392.0458362368
 11
372.3979994875
 21
393.2116053818
  0
LINE
  5
42D
100
AcDbEntity
  8
ALL_DETAIL_ITEM
100
AcDbLine
 62
7
  6
CONTINUOUS
 10
358.6479994875
 20
359.2116053818
 11
357.906159228
 21
401.7116053818
  0
LINE
  5
42E
100
AcDbEntity
  8
ALL_DETAIL_ITEM
100
AcDbLine
 62
7
  6
CONTINUOUS
 10
348.1479994875
 20
486.2116053818
 11
348.1479994875
 21
416.2116053818
  0
LINE
  5
42F
100
AcDbEntity
  8
ALL_DETAIL_ITEM
100
AcDbLine
 62
7
  6
CONTINUOUS
 10
350.6479994875
 20
239.8866053818
 11
350.6479994875
 21
232.2116053818
  0
LINE
  5
430
100
AcDbEntity
  8
ALL_DETAIL_ITEM
100
AcDbLine
 62
7
  6
CONTINUOUS
 10
353.6479994875
 20
241.2116053818
 11
353.6479994875
 21
243.0451415483
  0
LINE
  5
431
100
AcDbEntity
  8
ALL_DETAIL_ITEM
100
AcDbLine
 62
7
  6
CONTINUOUS
 10
353.6479994875
 20
246.4381670498
 11
353.6479994875
 21
250.0446399433
  0
LINE
  5
432
100
AcDbEntity
  8
ALL_DETAIL_ITEM
100
AcDbLine
 62
7
  6
CONTINUOUS
 10
353.6479994875
 20
253.4384770628
 11
353.6479994875
 21
257.0454722358
  0
LINE
  5
433
100
AcDbEntity
  8
ALL_DETAIL_ITEM
100
AcDbLine
 62
7
  6
CONTINUOUS
 10
353.6479994875
 20
260.4386177413
 11
353.6479994875
 21
264.0465847538
  0
LINE
  5
434
100
AcDbEntity
  8
ALL_DETAIL_ITEM
100
AcDbLine
 62
7
  6
CONTINUOUS
 10
353.6479994875
 20
267.4388823113
 11
353.6479994875
 21
271.0451368048
  0
LINE
  5
435
100
AcDbEntity
  8
ALL_DETAIL_ITEM
100
AcDbLine
 62
7
  6
CONTINUOUS
 10
353.6479994875
 20
274.4371075383
 11
353.6479994875
 21
278.0446473498
  0
LINE
  5
436
100
AcDbEntity
  8
ALL_DETAIL_ITEM
100
AcDbLine
 62
7
  6
CONTINUOUS
 10
353.6479994875
 20
281.4367838363
 11
353.6479994875
 21
285.0449313893
  0
LINE
  5
437
100
AcDbEntity
  8
ALL_DETAIL_ITEM
100
AcDbLine
 62
7
  6
CONTINUOUS
 10
353.6479994875
 20
288.4371774943
 11
353.6479994875
 21
291.2116053818
  0
LINE
  5
438
100
AcDbEntity
  8
ALL_DETAIL_ITEM
100
AcDbLine
 62
7
  6
CONTINUOUS
 10
353.6571377985
 20
292.0394277023
 11
353.6479994875
 21
291.2116053818
  0
LINE
  5
439
100
AcDbEntity
  8
ALL_DETAIL_ITEM
100
AcDbLine
 62
7
  6
CONTINUOUS
 10
362.6479994875
 20
359.2116053818
 11
363.389839747
 21
401.7116053818
  0
LINE
  5
43A
100
AcDbEntity
  8
ALL_DETAIL_ITEM
100
AcDbLine
 62
7
  6
CONTINUOUS
 10
372.3979994875
 20
390.2116053818
 11
374.8979994875
 21
391.3773745273
  0
LINE
  5
43B
100
AcDbEntity
  8
ALL_DETAIL_ITEM
100
AcDbLine
 62
7
  6
CONTINUOUS
 10
346.3979994875
 20
377.0458362368
 11
348.8979994875
 21
378.2116053818
  0
LINE
  5
43C
100
AcDbEntity
  8
ALL_DETAIL_ITEM
100
AcDbLine
 62
7
  6
CONTINUOUS
 10
372.3979994875
 20
387.2116053818
 11
374.8979994875
 21
388.3773745273
  0
LINE
  5
43D
100
AcDbEntity
  8
ALL_DETAIL_ITEM
100
AcDbLine
 62
7
  6
CONTINUOUS
 10
346.3979994875
 20
374.0458362368
 11
348.8979994875
 21
375.2116053818
  0
LINE
  5
43E
100
AcDbEntity
  8
ALL_DETAIL_ITEM
100
AcDbLine
 62
7
  6
CONTINUOUS
 10
372.3979994875
 20
384.2116053818
 11
374.8979994875
 21
385.3773745273
  0
LINE
  5
43F
100
AcDbEntity
  8
ALL_DETAIL_ITEM
100
AcDbLine
 62
7
  6
CONTINUOUS
 10
346.3979994875
 20
371.0458362368
 11
348.8979994875
 21
372.2116053818
  0
LINE
  5
440
100
AcDbEntity
  8
ALL_DETAIL_ITEM
100
AcDbLine
 62
7
  6
CONTINUOUS
 10
372.3979994875
 20
381.2116053818
 11
374.8979994875
 21
382.3773745273
  0
LINE
  5
441
100
AcDbEntity
  8
ALL_DETAIL_ITEM
100
AcDbLine
 62
7
  6
CONTINUOUS
 10
346.3979994875
 20
368.0458362368
 11
348.8979994875
 21
369.2116053818
  0
LINE
  5
442
100
AcDbEntity
  8
ALL_DETAIL_ITEM
100
AcDbLine
 62
7
  6
CONTINUOUS
 10
372.3979994875
 20
378.2116053818
 11
374.8979994875
 21
379.3773745273
  0
LINE
  5
443
100
AcDbEntity
  8
ALL_DETAIL_ITEM
100
AcDbLine
 62
7
  6
CONTINUOUS
 10
346.3979994875
 20
365.0458362368
 11
348.8979994875
 21
366.2116053818
  0
LINE
  5
444
100
AcDbEntity
  8
ALL_DETAIL_ITEM
100
AcDbLine
 62
7
  6
CONTINUOUS
 10
372.3979994875
 20
375.2116053818
 11
374.8979994875
 21
376.3773745273
  0
LINE
  5
445
100
AcDbEntity
  8
ALL_DETAIL_ITEM
100
AcDbLine
 62
7
  6
CONTINUOUS
 10
346.3979994875
 20
362.0458362368
 11
348.8979994875
 21
363.2116053818
  0
LINE
  5
446
100
AcDbEntity
  8
ALL_DETAIL_ITEM
100
AcDbLine
 62
7
  6
CONTINUOUS
 10
372.3979994875
 20
372.2116053818
 11
374.8979994875
 21
373.3773745273
  0
LINE
  5
447
100
AcDbEntity
  8
ALL_DETAIL_ITEM
100
AcDbLine
 62
7
  6
CONTINUOUS
 10
346.3979994875
 20
359.0458362368
 11
348.8979994875
 21
360.2116053818
  0
LINE
  5
448
100
AcDbEntity
  8
ALL_DETAIL_ITEM
100
AcDbLine
 62
7
  6
CONTINUOUS
 10
299.770042926
 20
415.9880964018
 11
300.503101053
 21
416.1557583803
  0
LINE
  5
449
100
AcDbEntity
  8
ALL_DETAIL_ITEM
100
AcDbLine
 62
7
  6
CONTINUOUS
 10
300.503101053
 20
416.1557583803
 11
301.2483781
 21
416.2116053818
  0
LINE
  5
44A
100
AcDbEntity
  8
ALL_DETAIL_ITEM
100
AcDbLine
 62
7
  6
CONTINUOUS
 10
301.2483781
 20
412.2116053818
 11
301.0320148445
 21
412.1879220583
  0
LINE
  5
44B
100
AcDbEntity
  8
ALL_DETAIL_ITEM
100
AcDbLine
 62
7
  6
CONTINUOUS
 10
301.0320148445
 20
412.1879220583
 11
300.8316272375
 21
412.1206410493
  0
LINE
  5
44C
100
AcDbEntity
  8
ALL_DETAIL_ITEM
100
AcDbLine
 62
7
  6
CONTINUOUS
 10
300.8316272375
 20
412.1206410493
 11
300.6487321285
 21
412.0119058683
  0
LINE
  5
44D
100
AcDbEntity
  8
ALL_DETAIL_ITEM
100
AcDbLine
 62
7
  6
CONTINUOUS
 10
300.6487321285
 20
412.0119058683
 11
300.49039046
 21
411.8639430798
  0
LINE
  5
44E
100
AcDbEntity
  8
ALL_DETAIL_ITEM
100
AcDbLine
 62
7
  6
CONTINUOUS
 10
300.49039046
 20
411.8639430798
 11
300.368839023
 21
411.6875589868
  0
LINE
  5
44F
100
AcDbEntity
  8
ALL_DETAIL_ITEM
100
AcDbLine
 62
7
  6
CONTINUOUS
 10
300.368839023
 20
411.6875589868
 11
300.288552747
 21
411.4924597563
  0
LINE
  5
450
100
AcDbEntity
  8
ALL_DETAIL_ITEM
100
AcDbLine
 62
7
  6
CONTINUOUS
 10
300.288552747
 20
411.4924597563
 11
300.250736138
 21
411.2813618558
  0
LINE
  5
451
100
AcDbEntity
  8
ALL_DETAIL_ITEM
100
AcDbLine
 62
7
  6
CONTINUOUS
 10
179.9755716755
 20
416.2116053818
 11
464.6385520315
 21
416.2116053818
  0
LINE
  5
452
100
AcDbEntity
  8
ALL_DETAIL_ITEM
100
AcDbLine
 62
7
  6
CONTINUOUS
 10
364.5105503055
 20
311.2116053818
 11
365.5135898335
 21
305.9501947223
  0
LINE
  5
453
100
AcDbEntity
  8
ALL_DETAIL_ITEM
100
AcDbLine
 62
7
  6
CONTINUOUS
 10
366.152444623
 20
302.5991030608
 11
366.7854001875
 21
299.2789555888
  0
LINE
  5
454
100
AcDbEntity
  8
ALL_DETAIL_ITEM
100
AcDbLine
 62
7
  6
CONTINUOUS
 10
367.6479994875
 20
242.7968843153
 11
367.6479994875
 21
246.3943854403
  0
LINE
  5
455
100
AcDbEntity
  8
ALL_DETAIL_ITEM
100
AcDbLine
 62
7
  6
CONTINUOUS
 10
367.6479994875
 20
249.7966395013
 11
367.6479994875
 21
253.3954602238
  0
LINE
  5
456
100
AcDbEntity
  8
ALL_DETAIL_ITEM
100
AcDbLine
 62
7
  6
CONTINUOUS
 10
367.6479994875
 20
256.7965979223
 11
367.6479994875
 21
260.3949720978
  0
LINE
  5
457
100
AcDbEntity
  8
ALL_DETAIL_ITEM
100
AcDbLine
 62
7
  6
CONTINUOUS
 10
367.6479994875
 20
263.7972142408
 11
367.6479994875
 21
267.3944319123
  0
LINE
  5
458
100
AcDbEntity
  8
ALL_DETAIL_ITEM
100
AcDbLine
 62
7
  6
CONTINUOUS
 10
367.6479994875
 20
270.7962085208
 11
367.6479994875
 21
274.3946878028
  0
LINE
  5
459
100
AcDbEntity
  8
ALL_DETAIL_ITEM
100
AcDbLine
 62
7
  6
CONTINUOUS
 10
367.6479994875
 20
277.7969772533
 11
367.6479994875
 21
281.3949403003
  0
LINE
  5
45A
100
AcDbEntity
  8
ALL_DETAIL_ITEM
100
AcDbLine
 62
7
  6
CONTINUOUS
 10
367.6479994875
 20
284.7972945163
 11
367.6479994875
 21
288.3945973943
  0
LINE
  5
45B
100
AcDbEntity
  8
ALL_DETAIL_ITEM
100
AcDbLine
 62
7
  6
CONTINUOUS
 10
370.6479994875
 20
232.2116053818
 11
370.6479994875
 21
239.8866053818
  0
LINE
  5
45C
100
AcDbEntity
  8
ALL_DETAIL_ITEM
100
AcDbLine
 62
7
  6
CONTINUOUS
 10
373.1479994875
 20
486.2116053818
 11
373.1479994875
 21
416.2116053818
  0
LINE
  5
45D
100
AcDbEntity
  8
ALL_DETAIL_ITEM
100
AcDbLine
 62
7
  6
CONTINUOUS
 10
373.8979994875
 20
331.2116053818
 11
373.8979994875
 21
324.2116053818
  0
LINE
  5
45E
100
AcDbEntity
  8
ALL_DETAIL_ITEM
100
AcDbLine
 62
7
  6
CONTINUOUS
 10
374.8979994875
 20
346.2116053818
 11
374.8979994875
 21
350.0458362368
  0
LINE
  5
45F
100
AcDbEntity
  8
ALL_DETAIL_ITEM
100
AcDbLine
 62
7
  6
CONTINUOUS
 10
374.8979994875
 20
352.3773745273
 11
374.8979994875
 21
353.0458362368
  0
LINE
  5
460
100
AcDbEntity
  8
ALL_DETAIL_ITEM
100
AcDbLine
 62
7
  6
CONTINUOUS
 10
374.8979994875
 20
355.3773745273
 11
374.8979994875
 21
356.0458362368
  0
LINE
  5
461
100
AcDbEntity
  8
ALL_DETAIL_ITEM
100
AcDbLine
 62
7
  6
CONTINUOUS
 10
374.8979994875
 20
358.3773745273
 11
374.8979994875
 21
359.0458362368
  0
LINE
  5
462
100
AcDbEntity
  8
ALL_DETAIL_ITEM
100
AcDbLine
 62
7
  6
CONTINUOUS
 10
374.8979994875
 20
361.3773745273
 11
374.8979994875
 21
362.0458362368
  0
LINE
  5
463
100
AcDbEntity
  8
ALL_DETAIL_ITEM
100
AcDbLine
 62
7
  6
CONTINUOUS
 10
374.8979994875
 20
364.3773745273
 11
374.8979994875
 21
365.0458362368
  0
LINE
  5
464
100
AcDbEntity
  8
ALL_DETAIL_ITEM
100
AcDbLine
 62
7
  6
CONTINUOUS
 10
374.8979994875
 20
367.3773745273
 11
374.8979994875
 21
368.0458362368
  0
LINE
  5
465
100
AcDbEntity
  8
ALL_DETAIL_ITEM
100
AcDbLine
 62
7
  6
CONTINUOUS
 10
374.8979994875
 20
370.3773745273
 11
374.8979994875
 21
371.0458362368
  0
LINE
  5
466
100
AcDbEntity
  8
ALL_DETAIL_ITEM
100
AcDbLine
 62
7
  6
CONTINUOUS
 10
374.8979994875
 20
373.3773745273
 11
374.8979994875
 21
374.0458362368
  0
LINE
  5
467
100
AcDbEntity
  8
ALL_DETAIL_ITEM
100
AcDbLine
 62
7
  6
CONTINUOUS
 10
374.8979994875
 20
376.3773745273
 11
374.8979994875
 21
377.0458362368
  0
LINE
  5
468
100
AcDbEntity
  8
ALL_DETAIL_ITEM
100
AcDbLine
 62
7
  6
CONTINUOUS
 10
374.8979994875
 20
379.3773745273
 11
374.8979994875
 21
380.0458362368
  0
LINE
  5
469
100
AcDbEntity
  8
ALL_DETAIL_ITEM
100
AcDbLine
 62
7
  6
CONTINUOUS
 10
374.8979994875
 20
382.3773745273
 11
374.8979994875
 21
383.0458362368
  0
LINE
  5
46A
100
AcDbEntity
  8
ALL_DETAIL_ITEM
100
AcDbLine
 62
7
  6
CONTINUOUS
 10
374.8979994875
 20
385.3773745273
 11
374.8979994875
 21
386.0458362368
  0
LINE
  5
46B
100
AcDbEntity
  8
ALL_DETAIL_ITEM
100
AcDbLine
 62
7
  6
CONTINUOUS
 10
374.8979994875
 20
388.3773745273
 11
374.8979994875
 21
389.0458362368
  0
LINE
  5
46C
100
AcDbEntity
  8
ALL_DETAIL_ITEM
100
AcDbLine
 62
7
  6
CONTINUOUS
 10
374.8979994875
 20
391.3773745273
 11
374.8979994875
 21
392.0458362368
  0
LINE
  5
46D
100
AcDbEntity
  8
ALL_DETAIL_ITEM
100
AcDbLine
 62
7
  6
CONTINUOUS
 10
380.6479994875
 20
231.2116053818
 11
380.6479994875
 21
223.1156213913
  0
LINE
  5
46E
100
AcDbEntity
  8
ALL_DETAIL_ITEM
100
AcDbLine
 62
7
  6
CONTINUOUS
 10
358.7085793215
 20
216.4958853138
 11
358.7982255865
 21
217.4262681708
  0
LINE
  5
46F
100
AcDbEntity
  8
ALL_DETAIL_ITEM
100
AcDbLine
 62
7
  6
CONTINUOUS
 10
355.1098375355
 20
307.3958756523
 11
355.084117397
 21
307.2512665118
  0
LINE
  5
470
100
AcDbEntity
  8
ALL_DETAIL_ITEM
100
AcDbLine
 62
7
  6
CONTINUOUS
 10
356.0857488885
 20
307.5413533308
 11
356.036580728
 21
307.2771583858
  0
LINE
  5
471
100
AcDbEntity
  8
ALL_DETAIL_ITEM
100
AcDbLine
 62
7
  6
CONTINUOUS
 10
356.036580728
 20
307.2771583858
 11
355.9899658685
 21
307.0141139963
  0
LINE
  5
472
100
AcDbEntity
  8
ALL_DETAIL_ITEM
100
AcDbLine
 62
7
  6
CONTINUOUS
 10
356.7854486695
 20
311.2116053818
 11
356.0857488885
 21
307.5413533308
  0
LINE
  5
473
100
AcDbEntity
  8
ALL_DETAIL_ITEM
100
AcDbLine
 62
7
  6
CONTINUOUS
 10
355.974636369
 20
306.9585162858
 11
355.2138386945
 21
302.9677772538
  0
LINE
  5
474
100
AcDbEntity
  8
ALL_DETAIL_ITEM
100
AcDbLine
 62
7
  6
CONTINUOUS
 10
354.462328372
 20
299.0257547188
 11
354.311418244
 21
298.2341606343
  0
LINE
  5
475
100
AcDbEntity
  8
ALL_DETAIL_ITEM
100
AcDbLine
 62
7
  6
CONTINUOUS
 10
355.1173590635
 20
307.4351011303
 11
355.1098375355
 21
307.3958756523
  0
LINE
  5
476
100
AcDbEntity
  8
ALL_DETAIL_ITEM
100
AcDbLine
 62
7
  6
CONTINUOUS
 10
355.974636369
 20
306.9585162858
 11
355.9811194995
 21
306.9863117888
  0
LINE
  5
477
100
AcDbEntity
  8
ALL_DETAIL_ITEM
100
AcDbLine
 62
7
  6
CONTINUOUS
 10
355.9811194995
 20
306.9863117888
 11
355.9899658685
 21
307.0141139963
  0
LINE
  5
478
100
AcDbEntity
  8
ALL_DETAIL_ITEM
100
AcDbLine
 62
7
  6
CONTINUOUS
 10
372.3979994875
 20
369.2116053818
 11
374.8979994875
 21
370.3773745273
  0
LINE
  5
479
100
AcDbEntity
  8
ALL_DETAIL_ITEM
100
AcDbLine
 62
7
  6
CONTINUOUS
 10
346.3979994875
 20
356.0458362368
 11
348.8979994875
 21
357.2116053818
  0
LINE
  5
47A
100
AcDbEntity
  8
ALL_DETAIL_ITEM
100
AcDbLine
 62
7
  6
CONTINUOUS
 10
372.3979994875
 20
366.2116053818
 11
374.8979994875
 21
367.3773745273
  0
LINE
  5
47B
100
AcDbEntity
  8
ALL_DETAIL_ITEM
100
AcDbLine
 62
7
  6
CONTINUOUS
 10
346.3979994875
 20
353.0458362368
 11
348.8979994875
 21
354.2116053818
  0
LINE
  5
47C
100
AcDbEntity
  8
ALL_DETAIL_ITEM
100
AcDbLine
 62
7
  6
CONTINUOUS
 10
372.3979994875
 20
363.2116053818
 11
374.8979994875
 21
364.3773745273
  0
LINE
  5
47D
100
AcDbEntity
  8
ALL_DETAIL_ITEM
100
AcDbLine
 62
7
  6
CONTINUOUS
 10
346.3979994875
 20
350.0458362368
 11
348.8979994875
 21
351.2116053818
  0
LINE
  5
47E
100
AcDbEntity
  8
ALL_DETAIL_ITEM
100
AcDbLine
 62
7
  6
CONTINUOUS
 10
372.3979994875
 20
360.2116053818
 11
374.8979994875
 21
361.3773745273
  0
LINE
  5
47F
100
AcDbEntity
  8
ALL_DETAIL_ITEM
100
AcDbLine
 62
7
  6
CONTINUOUS
 10
372.3979994875
 20
357.2116053818
 11
374.8979994875
 21
358.3773745273
  0
LINE
  5
480
100
AcDbEntity
  8
ALL_DETAIL_ITEM
100
AcDbLine
 62
7
  6
CONTINUOUS
 10
372.3979994875
 20
354.2116053818
 11
374.8979994875
 21
355.3773745273
  0
LINE
  5
481
100
AcDbEntity
  8
ALL_DETAIL_ITEM
100
AcDbLine
 62
7
  6
CONTINUOUS
 10
372.3979994875
 20
351.2116053818
 11
374.8979994875
 21
352.3773745273
  0
LINE
  5
482
100
AcDbEntity
  8
ALL_DETAIL_ITEM
100
AcDbLine
 62
7
  6
CONTINUOUS
 10
372.1675002395
 20
401.7116053818
 11
374.845657571
 21
394.3529670908
  0
LINE
  5
483
100
AcDbEntity
  8
ALL_DETAIL_ITEM
100
AcDbLine
 62
7
  6
CONTINUOUS
 10
398.1479994875
 20
331.2116053818
 11
398.1479994875
 21
324.2116053818
  0
LINE
  5
484
100
AcDbEntity
  8
ALL_DETAIL_ITEM
100
AcDbLine
 62
7
  6
CONTINUOUS
 10
367.6479994875
 20
277.7969772533
 11
367.618865352
 21
277.6952656723
  0
LINE
  5
485
100
AcDbEntity
  8
ALL_DETAIL_ITEM
100
AcDbLine
 62
7
  6
CONTINUOUS
 10
367.618865352
 20
277.6952656723
 11
367.5317464765
 21
277.5938298398
  0
LINE
  5
486
100
AcDbEntity
  8
ALL_DETAIL_ITEM
100
AcDbLine
 62
7
  6
CONTINUOUS
 10
367.5317464765
 20
277.5938298398
 11
367.3873040075
 21
277.4923231568
  0
LINE
  5
487
100
AcDbEntity
  8
ALL_DETAIL_ITEM
100
AcDbLine
 62
7
  6
CONTINUOUS
 10
351.060232711
 20
265.8444638588
 11
350.926888292
 21
265.5247613603
  0
LINE
  5
488
100
AcDbEntity
  8
ALL_DETAIL_ITEM
100
AcDbLine
 62
7
  6
CONTINUOUS
 10
350.926888292
 20
265.5247613603
 11
351.0744860135
 21
265.4082800993
  0
LINE
  5
489
100
AcDbEntity
  8
ALL_DETAIL_ITEM
100
AcDbLine
 62
7
  6
CONTINUOUS
 10
353.6571520395
 20
292.0400723753
 11
353.7165359875
 21
292.1790790083
  0
LINE
  5
48A
100
AcDbEntity
  8
ALL_DETAIL_ITEM
100
AcDbLine
 62
7
  6
CONTINUOUS
 10
353.7165359875
 20
292.1790790083
 11
354.272738503
 21
292.4994535303
  0
LINE
  5
48B
100
AcDbEntity
  8
ALL_DETAIL_ITEM
100
AcDbLine
 62
7
  6
CONTINUOUS
 10
354.272738503
 20
292.4994535303
 11
355.368658333
 21
292.8170664758
  0
LINE
  5
48C
100
AcDbEntity
  8
ALL_DETAIL_ITEM
100
AcDbLine
 62
7
  6
CONTINUOUS
 10
355.368658333
 20
292.8170664758
 11
356.9090262745
 21
293.1355611993
  0
LINE
  5
48D
100
AcDbEntity
  8
ALL_DETAIL_ITEM
100
AcDbLine
 62
7
  6
CONTINUOUS
 10
356.9090262745
 20
293.1355611993
 11
358.759781265
 21
293.4489437998
  0
LINE
  5
48E
100
AcDbEntity
  8
ALL_DETAIL_ITEM
100
AcDbLine
 62
7
  6
CONTINUOUS
 10
351.0530659755
 20
286.8405969883
 11
350.891242677
 21
286.5766739288
  0
LINE
  5
48F
100
AcDbEntity
  8
ALL_DETAIL_ITEM
100
AcDbLine
 62
7
  6
CONTINUOUS
 10
350.891242677
 20
286.5766739288
 11
351.070192277
 21
286.4101131138
  0
LINE
  5
490
100
AcDbEntity
  8
ALL_DETAIL_ITEM
100
AcDbLine
 62
7
  6
CONTINUOUS
 10
354.462357463
 20
299.0259073148
 11
354.720564572
 21
299.3276985108
  0
LINE
  5
491
100
AcDbEntity
  8
ALL_DETAIL_ITEM
100
AcDbLine
 62
7
  6
CONTINUOUS
 10
354.720564572
 20
299.3276985108
 11
355.557795228
 21
299.7019715388
  0
LINE
  5
492
100
AcDbEntity
  8
ALL_DETAIL_ITEM
100
AcDbLine
 62
7
  6
CONTINUOUS
 10
355.557795228
 20
299.7019715388
 11
356.8809016185
 21
300.0816383158
  0
LINE
  5
493
100
AcDbEntity
  8
ALL_DETAIL_ITEM
100
AcDbLine
 62
7
  6
CONTINUOUS
 10
356.8809016185
 20
300.0816383158
 11
358.5505584765
 21
300.4650575483
  0
LINE
  5
494
100
AcDbEntity
  8
ALL_DETAIL_ITEM
100
AcDbLine
 62
7
  6
CONTINUOUS
 10
358.5505584765
 20
300.4650575483
 11
360.394217543
 21
300.8544825538
  0
LINE
  5
495
100
AcDbEntity
  8
ALL_DETAIL_ITEM
100
AcDbLine
 62
7
  6
CONTINUOUS
 10
360.394217543
 20
300.8544825538
 11
362.223099226
 21
301.2477769378
  0
LINE
  5
496
100
AcDbEntity
  8
ALL_DETAIL_ITEM
100
AcDbLine
 62
7
  6
CONTINUOUS
 10
362.223099226
 20
301.2477769378
 11
363.850727072
 21
301.6489032598
  0
LINE
  5
497
100
AcDbEntity
  8
ALL_DETAIL_ITEM
100
AcDbLine
 62
7
  6
CONTINUOUS
 10
363.850727072
 20
301.6489032598
 11
365.1148439195
 21
302.0527074998
  0
LINE
  5
498
100
AcDbEntity
  8
ALL_DETAIL_ITEM
100
AcDbLine
 62
7
  6
CONTINUOUS
 10
365.1148439195
 20
302.0527074998
 11
365.685419111
 21
302.3227357118
  0
LINE
  5
499
100
AcDbEntity
  8
ALL_DETAIL_ITEM
100
AcDbLine
 62
7
  6
CONTINUOUS
 10
351.818232542
 20
300.8003034563
 11
351.644970607
 21
300.6282961828
  0
LINE
  5
49A
100
AcDbEntity
  8
ALL_DETAIL_ITEM
100
AcDbLine
 62
7
  6
CONTINUOUS
 10
351.644970607
 20
300.6282961828
 11
351.8357260345
 21
300.3437098863
  0
LINE
  5
49B
100
AcDbEntity
  8
ALL_DETAIL_ITEM
100
AcDbLine
 62
7
  6
CONTINUOUS
 10
355.5389414265
 20
307.7673534878
 11
355.9226096905
 21
308.0937627058
  0
LINE
  5
49C
100
AcDbEntity
  8
ALL_DETAIL_ITEM
100
AcDbLine
 62
7
  6
CONTINUOUS
 10
355.9226096905
 20
308.0937627058
 11
356.249743908
 21
308.4015837793
  0
LINE
  5
49D
100
AcDbEntity
  8
ALL_DETAIL_ITEM
100
AcDbLine
 62
7
  6
CONTINUOUS
 10
355.1173579125
 20
307.4350951313
 11
355.5389414265
 21
307.7673534878
  0
LINE
  5
49E
100
AcDbEntity
  8
ALL_DETAIL_ITEM
100
AcDbLine
 62
7
  6
CONTINUOUS
 10
355.4030237105
 20
303.0954823888
 11
354.579613775
 21
302.5396578358
  0
LINE
  5
49F
100
AcDbEntity
  8
ALL_DETAIL_ITEM
100
AcDbLine
 62
7
  6
CONTINUOUS
 10
354.579613775
 20
302.5396578358
 11
353.1049029245
 21
301.5944304438
  0
LINE
  5
4A0
100
AcDbEntity
  8
ALL_DETAIL_ITEM
100
AcDbLine
 62
7
  6
CONTINUOUS
 10
353.1049029245
 20
301.5944304438
 11
351.818232542
 21
300.8003034563
  0
LINE
  5
4A1
100
AcDbEntity
  8
ALL_DETAIL_ITEM
100
AcDbLine
 62
7
  6
CONTINUOUS
 10
355.403029594
 20
303.0955258388
 11
355.5146280225
 21
303.1651018838
  0
LINE
  5
4A2
100
AcDbEntity
  8
ALL_DETAIL_ITEM
100
AcDbLine
 62
7
  6
CONTINUOUS
 10
355.5146280225
 20
303.1651018838
 11
356.3605526605
 21
303.5041220703
  0
LINE
  5
4A3
100
AcDbEntity
  8
ALL_DETAIL_ITEM
100
AcDbLine
 62
7
  6
CONTINUOUS
 10
356.3605526605
 20
303.5041220703
 11
357.603108455
 21
303.8308825508
  0
LINE
  5
4A4
100
AcDbEntity
  8
ALL_DETAIL_ITEM
100
AcDbLine
 62
7
  6
CONTINUOUS
 10
357.603108455
 20
303.8308825508
 11
359.0679036905
 21
304.1452238653
  0
LINE
  5
4A5
100
AcDbEntity
  8
ALL_DETAIL_ITEM
100
AcDbLine
 62
7
  6
CONTINUOUS
 10
359.0679036905
 20
304.1452238653
 11
360.6521654895
 21
304.4537131843
  0
LINE
  5
4A6
100
AcDbEntity
  8
ALL_DETAIL_ITEM
100
AcDbLine
 62
7
  6
CONTINUOUS
 10
360.6521654895
 20
304.4537131843
 11
362.2121342555
 21
304.7616884368
  0
LINE
  5
4A7
100
AcDbEntity
  8
ALL_DETAIL_ITEM
100
AcDbLine
 62
7
  6
CONTINUOUS
 10
362.2121342555
 20
304.7616884368
 11
363.589281294
 21
305.0624046508
  0
LINE
  5
4A8
100
AcDbEntity
  8
ALL_DETAIL_ITEM
100
AcDbLine
 62
7
  6
CONTINUOUS
 10
363.589281294
 20
305.0624046508
 11
364.6585812105
 21
305.3631893058
  0
LINE
  5
4A9
100
AcDbEntity
  8
ALL_DETAIL_ITEM
100
AcDbLine
 62
7
  6
CONTINUOUS
 10
364.6585812105
 20
305.3631893058
 11
365.32323515
 21
305.6581888008
  0
LINE
  5
4AA
100
AcDbEntity
  8
ALL_DETAIL_ITEM
100
AcDbLine
 62
7
  6
CONTINUOUS
 10
365.32323515
 20
305.6581888008
 11
365.5135898335
 21
305.9501947223
  0
LINE
  5
4AB
100
AcDbEntity
  8
ALL_DETAIL_ITEM
100
AcDbLine
 62
7
  6
CONTINUOUS
 10
355.1173590635
 20
307.4351011303
 11
354.937800275
 21
307.3281120868
  0
LINE
  5
4AC
100
AcDbEntity
  8
ALL_DETAIL_ITEM
100
AcDbLine
 62
7
  6
CONTINUOUS
 10
370.2268535205
 20
247.9099695083
 11
370.3897511885
 21
248.2115139928
  0
LINE
  5
4AD
100
AcDbEntity
  8
ALL_DETAIL_ITEM
100
AcDbLine
 62
7
  6
CONTINUOUS
 10
370.3897511885
 20
248.2115139928
 11
370.2389746085
 21
248.3430857783
  0
LINE
  5
4AE
100
AcDbEntity
  8
ALL_DETAIL_ITEM
100
AcDbLine
 62
7
  6
CONTINUOUS
 10
351.0557320105
 20
258.8425401988
 11
350.8821875805
 21
258.6121930543
  0
LINE
  5
4AF
100
AcDbEntity
  8
ALL_DETAIL_ITEM
100
AcDbLine
 62
7
  6
CONTINUOUS
 10
350.8821875805
 20
258.6121930543
 11
351.0713936065
 21
258.4093268733
  0
LINE
  5
4B0
100
AcDbEntity
  8
ALL_DETAIL_ITEM
100
AcDbLine
 62
7
  6
CONTINUOUS
 10
353.6479994875
 20
271.0451368048
 11
353.9412367255
 21
271.3698000923
  0
LINE
  5
4B1
100
AcDbEntity
  8
ALL_DETAIL_ITEM
100
AcDbLine
 62
7
  6
CONTINUOUS
 10
353.9412367255
 20
271.3698000923
 11
354.799924103
 21
271.6929597468
  0
LINE
  5
4B2
100
AcDbEntity
  8
ALL_DETAIL_ITEM
100
AcDbLine
 62
7
  6
CONTINUOUS
 10
354.799924103
 20
271.6929597468
 11
356.174279875
 21
272.0228575008
  0
LINE
  5
4B3
100
AcDbEntity
  8
ALL_DETAIL_ITEM
100
AcDbLine
 62
7
  6
CONTINUOUS
 10
356.174279875
 20
272.0228575008
 11
357.9081800265
 21
272.3471321553
  0
LINE
  5
4B4
100
AcDbEntity
  8
ALL_DETAIL_ITEM
100
AcDbLine
 62
7
  6
CONTINUOUS
 10
357.9081800265
 20
272.3471321553
 11
359.9025405435
 21
272.6770655338
  0
LINE
  5
4B5
100
AcDbEntity
  8
ALL_DETAIL_ITEM
100
AcDbLine
 62
7
  6
CONTINUOUS
 10
359.9025405435
 20
272.6770655338
 11
361.9338262205
 21
273.0007368598
  0
LINE
  5
4B6
100
AcDbEntity
  8
ALL_DETAIL_ITEM
100
AcDbLine
 62
7
  6
CONTINUOUS
 10
361.9338262205
 20
273.0007368598
 11
363.850332429
 21
273.3252113498
  0
LINE
  5
4B7
100
AcDbEntity
  8
ALL_DETAIL_ITEM
100
AcDbLine
 62
7
  6
CONTINUOUS
 10
363.850332429
 20
273.3252113498
 11
365.5172604935
 21
273.6519456578
  0
LINE
  5
4B8
100
AcDbEntity
  8
ALL_DETAIL_ITEM
100
AcDbLine
 62
7
  6
CONTINUOUS
 10
365.5172604935
 20
273.6519456578
 11
366.792872052
 21
273.9903056343
  0
LINE
  5
4B9
100
AcDbEntity
  8
ALL_DETAIL_ITEM
100
AcDbLine
 62
7
  6
CONTINUOUS
 10
366.792872052
 20
273.9903056343
 11
367.3969011565
 21
274.2461462398
  0
LINE
  5
4BA
100
AcDbEntity
  8
ALL_DETAIL_ITEM
100
AcDbLine
 62
7
  6
CONTINUOUS
 10
351.0537599955
 20
279.8403027058
 11
350.883280423
 21
279.6641056228
  0
LINE
  5
4BB
100
AcDbEntity
  8
ALL_DETAIL_ITEM
100
AcDbLine
 62
7
  6
CONTINUOUS
 10
350.883280423
 20
279.6641056228
 11
351.0688780655
 21
279.4109276583
  0
LINE
  5
4BC
100
AcDbEntity
  8
ALL_DETAIL_ITEM
100
AcDbLine
 62
7
  6
CONTINUOUS
 10
367.6479994875
 20
284.7972945163
 11
367.30779151
 21
284.4479793483
  0
LINE
  5
4BD
100
AcDbEntity
  8
ALL_DETAIL_ITEM
100
AcDbLine
 62
7
  6
CONTINUOUS
 10
367.30779151
 20
284.4479793483
 11
366.323811762
 21
284.1002455343
  0
LINE
  5
4BE
100
AcDbEntity
  8
ALL_DETAIL_ITEM
100
AcDbLine
 62
7
  6
CONTINUOUS
 10
366.323811762
 20
284.1002455343
 11
364.7802941575
 21
283.7499991233
  0
LINE
  5
4BF
100
AcDbEntity
  8
ALL_DETAIL_ITEM
100
AcDbLine
 62
7
  6
CONTINUOUS
 10
364.7802941575
 20
283.7499991233
 11
362.856355909
 21
283.4043728903
  0
LINE
  5
4C0
100
AcDbEntity
  8
ALL_DETAIL_ITEM
100
AcDbLine
 62
7
  6
CONTINUOUS
 10
362.856355909
 20
283.4043728903
 11
358.4662408975
 21
282.6932550813
  0
LINE
  5
4C1
100
AcDbEntity
  8
ALL_DETAIL_ITEM
100
AcDbLine
 62
7
  6
CONTINUOUS
 10
353.6479994875
 20
278.0446473498
 11
353.990263556
 21
278.3958043063
  0
LINE
  5
4C2
100
AcDbEntity
  8
ALL_DETAIL_ITEM
100
AcDbLine
 62
7
  6
CONTINUOUS
 10
353.990263556
 20
278.3958043063
 11
354.983880921
 21
278.7443349313
  0
LINE
  5
4C3
100
AcDbEntity
  8
ALL_DETAIL_ITEM
100
AcDbLine
 62
7
  6
CONTINUOUS
 10
354.983880921
 20
278.7443349313
 11
356.5137333825
 21
279.0909745373
  0
LINE
  5
4C4
100
AcDbEntity
  8
ALL_DETAIL_ITEM
100
AcDbLine
 62
7
  6
CONTINUOUS
 10
356.5137333825
 20
279.0909745373
 11
358.457246266
 21
279.4406842888
  0
LINE
  5
4C5
100
AcDbEntity
  8
ALL_DETAIL_ITEM
100
AcDbLine
 62
7
  6
CONTINUOUS
 10
358.457246266
 20
279.4406842888
 11
362.877008695
 21
280.1562861143
  0
LINE
  5
4C6
100
AcDbEntity
  8
ALL_DETAIL_ITEM
100
AcDbLine
 62
7
  6
CONTINUOUS
 10
353.6479994875
 20
285.0449313893
 11
353.998977758
 21
285.3999660213
  0
LINE
  5
4C7
100
AcDbEntity
  8
ALL_DETAIL_ITEM
100
AcDbLine
 62
7
  6
CONTINUOUS
 10
353.998977758
 20
285.3999660213
 11
355.0513290125
 21
285.7625706213
  0
LINE
  5
4C8
100
AcDbEntity
  8
ALL_DETAIL_ITEM
100
AcDbLine
 62
7
  6
CONTINUOUS
 10
355.0513290125
 20
285.7625706213
 11
356.6478785985
 21
286.1175500828
  0
LINE
  5
4C9
100
AcDbEntity
  8
ALL_DETAIL_ITEM
100
AcDbLine
 62
7
  6
CONTINUOUS
 10
356.6478785985
 20
286.1175500828
 11
358.579088329
 21
286.4606244728
  0
LINE
  5
4CA
100
AcDbEntity
  8
ALL_DETAIL_ITEM
100
AcDbLine
 62
7
  6
CONTINUOUS
 10
358.579088329
 20
286.4606244728
 11
362.846135329
 21
287.1509749993
  0
LINE
  5
4CB
100
AcDbEntity
  8
ALL_DETAIL_ITEM
100
AcDbLine
 62
7
  6
CONTINUOUS
 10
353.6479994875
 20
264.0465847538
 11
353.997518619
 21
264.3980963968
  0
LINE
  5
4CC
100
AcDbEntity
  8
ALL_DETAIL_ITEM
100
AcDbLine
 62
7
  6
CONTINUOUS
 10
353.997518619
 20
264.3980963968
 11
355.051284429
 21
264.7624920828
  0
LINE
  5
4CD
100
AcDbEntity
  8
ALL_DETAIL_ITEM
100
AcDbLine
 62
7
  6
CONTINUOUS
 10
355.051284429
 20
264.7624920828
 11
356.6591887325
 21
265.1200189473
  0
LINE
  5
4CE
100
AcDbEntity
  8
ALL_DETAIL_ITEM
100
AcDbLine
 62
7
  6
CONTINUOUS
 10
356.6591887325
 20
265.1200189473
 11
358.58710824
 21
265.4616848298
  0
LINE
  5
4CF
100
AcDbEntity
  8
ALL_DETAIL_ITEM
100
AcDbLine
 62
7
  6
CONTINUOUS
 10
358.58710824
 20
265.4616848298
 11
362.9223744325
 21
266.1639676713
  0
LINE
  5
4D0
100
AcDbEntity
  8
ALL_DETAIL_ITEM
100
AcDbLine
 62
7
  6
CONTINUOUS
 10
351.058385649
 20
272.8416182328
 11
350.940092333
 21
272.7515373168
  0
LINE
  5
4D1
100
AcDbEntity
  8
ALL_DETAIL_ITEM
100
AcDbLine
 62
7
  6
CONTINUOUS
 10
350.940092333
 20
272.7515373168
 11
351.0661054655
 21
272.4119594418
  0
LINE
  5
4D2
100
AcDbEntity
  8
ALL_DETAIL_ITEM
100
AcDbLine
 62
7
  6
CONTINUOUS
 10
351.0540102105
 20
293.8402705538
 11
350.99817255
 21
293.8034498848
  0
LINE
  5
4D3
100
AcDbEntity
  8
ALL_DETAIL_ITEM
100
AcDbLine
 62
7
  6
CONTINUOUS
 10
350.99817255
 20
293.8034498848
 11
350.95897033
 21
293.4892422348
  0
LINE
  5
4D4
100
AcDbEntity
  8
ALL_DETAIL_ITEM
100
AcDbLine
 62
7
  6
CONTINUOUS
 10
350.95897033
 20
293.4892422348
 11
351.068439282
 21
293.4121799768
  0
LINE
  5
4D5
100
AcDbEntity
  8
ALL_DETAIL_ITEM
100
AcDbLine
 62
7
  6
CONTINUOUS
 10
354.1521215775
 20
295.7573659993
 11
353.5289790665
 21
295.3612005508
  0
LINE
  5
4D6
100
AcDbEntity
  8
ALL_DETAIL_ITEM
100
AcDbLine
 62
7
  6
CONTINUOUS
 10
353.5289790665
 20
295.3612005508
 11
352.2202716365
 21
294.5488014908
  0
LINE
  5
4D7
100
AcDbEntity
  8
ALL_DETAIL_ITEM
100
AcDbLine
 62
7
  6
CONTINUOUS
 10
352.2202716365
 20
294.5488014908
 11
351.0540102105
 21
293.8402705538
  0
LINE
  5
4D8
100
AcDbEntity
  8
ALL_DETAIL_ITEM
100
AcDbLine
 62
7
  6
CONTINUOUS
 10
353.8699325575
 20
281.5771943323
 11
353.4871610785
 21
281.3350261268
  0
LINE
  5
4D9
100
AcDbEntity
  8
ALL_DETAIL_ITEM
100
AcDbLine
 62
7
  6
CONTINUOUS
 10
353.4871610785
 20
281.3350261268
 11
352.1754056035
 21
280.5214966618
  0
LINE
  5
4DA
100
AcDbEntity
  8
ALL_DETAIL_ITEM
100
AcDbLine
 62
7
  6
CONTINUOUS
 10
352.1754056035
 20
280.5214966618
 11
351.0537599955
 21
279.8403027058
  0
LINE
  5
4DB
100
AcDbEntity
  8
ALL_DETAIL_ITEM
100
AcDbLine
 62
7
  6
CONTINUOUS
 10
353.868624299
 20
288.5767013063
 11
353.4857356565
 21
288.3345613468
  0
LINE
  5
4DC
100
AcDbEntity
  8
ALL_DETAIL_ITEM
100
AcDbLine
 62
7
  6
CONTINUOUS
 10
353.4857356565
 20
288.3345613468
 11
352.174402344
 21
287.5215319838
  0
LINE
  5
4DD
100
AcDbEntity
  8
ALL_DETAIL_ITEM
100
AcDbLine
 62
7
  6
CONTINUOUS
 10
352.174402344
 20
287.5215319838
 11
351.0530659755
 21
286.8405969883
  0
LINE
  5
4DE
100
AcDbEntity
  8
ALL_DETAIL_ITEM
100
AcDbLine
 62
7
  6
CONTINUOUS
 10
365.6855642925
 20
302.3222034408
 11
365.8562240365
 21
302.4242373053
  0
LINE
  5
4DF
100
AcDbEntity
  8
ALL_DETAIL_ITEM
100
AcDbLine
 62
7
  6
CONTINUOUS
 10
365.8562240365
 20
302.4242373053
 11
367.102573886
 21
303.1599859943
  0
LINE
  5
4E0
100
AcDbEntity
  8
ALL_DETAIL_ITEM
100
AcDbLine
 62
7
  6
CONTINUOUS
 10
367.102573886
 20
303.1599859943
 11
368.1108915955
 21
303.7464757618
  0
LINE
  5
4E1
100
AcDbEntity
  8
ALL_DETAIL_ITEM
100
AcDbLine
 62
7
  6
CONTINUOUS
 10
367.1560365425
 20
295.1440734228
 11
367.919543248
 21
295.5979447983
  0
LINE
  5
4E2
100
AcDbEntity
  8
ALL_DETAIL_ITEM
100
AcDbLine
 62
7
  6
CONTINUOUS
 10
367.919543248
 20
295.5979447983
 11
369.145391103
 21
296.3193474168
  0
LINE
  5
4E3
100
AcDbEntity
  8
ALL_DETAIL_ITEM
100
AcDbLine
 62
7
  6
CONTINUOUS
 10
369.145391103
 20
296.3193474168
 11
370.132606511
 21
296.8956934808
  0
LINE
  5
4E4
100
AcDbEntity
  8
ALL_DETAIL_ITEM
100
AcDbLine
 62
7
  6
CONTINUOUS
 10
367.3968283015
 20
288.2455385008
 11
369.273390618
 21
289.3530066758
  0
LINE
  5
4E5
100
AcDbEntity
  8
ALL_DETAIL_ITEM
100
AcDbLine
 62
7
  6
CONTINUOUS
 10
369.273390618
 20
289.3530066758
 11
370.228359224
 21
289.9107077673
  0
LINE
  5
4E6
100
AcDbEntity
  8
ALL_DETAIL_ITEM
100
AcDbLine
 62
7
  6
CONTINUOUS
 10
368.1108915955
 20
303.7464757618
 11
368.0205144255
 21
303.6984179523
  0
LINE
  5
4E7
100
AcDbEntity
  8
ALL_DETAIL_ITEM
100
AcDbLine
 62
7
  6
CONTINUOUS
 10
368.0205144255
 20
303.6984179523
 11
367.1039537265
 21
303.3931744523
  0
LINE
  5
4E8
100
AcDbEntity
  8
ALL_DETAIL_ITEM
100
AcDbLine
 62
7
  6
CONTINUOUS
 10
367.1039537265
 20
303.3931744523
 11
365.6421485845
 21
303.0873810108
  0
LINE
  5
4E9
100
AcDbEntity
  8
ALL_DETAIL_ITEM
100
AcDbLine
 62
7
  6
CONTINUOUS
 10
365.6421485845
 20
303.0873810108
 11
363.74611191
 21
302.7811121813
  0
LINE
  5
4EA
100
AcDbEntity
  8
ALL_DETAIL_ITEM
100
AcDbLine
 62
7
  6
CONTINUOUS
 10
363.74611191
 20
302.7811121813
 11
361.542337723
 21
302.4744368553
  0
LINE
  5
4EB
100
AcDbEntity
  8
ALL_DETAIL_ITEM
100
AcDbLine
 62
7
  6
CONTINUOUS
 10
361.542337723
 20
302.4744368553
 11
359.204311889
 21
302.1674066638
  0
LINE
  5
4EC
100
AcDbEntity
  8
ALL_DETAIL_ITEM
100
AcDbLine
 62
7
  6
CONTINUOUS
 10
359.204311889
 20
302.1674066638
 11
356.917411218
 21
301.8600675918
  0
LINE
  5
4ED
100
AcDbEntity
  8
ALL_DETAIL_ITEM
100
AcDbLine
 62
7
  6
CONTINUOUS
 10
356.917411218
 20
301.8600675918
 11
354.8617817615
 21
301.5524568638
  0
LINE
  5
4EE
100
AcDbEntity
  8
ALL_DETAIL_ITEM
100
AcDbLine
 62
7
  6
CONTINUOUS
 10
354.8617817615
 20
301.5524568638
 11
353.212886949
 21
301.2446070793
  0
LINE
  5
4EF
100
AcDbEntity
  8
ALL_DETAIL_ITEM
100
AcDbLine
 62
7
  6
CONTINUOUS
 10
353.212886949
 20
301.2446070793
 11
352.1072705215
 21
300.9365458403
  0
LINE
  5
4F0
100
AcDbEntity
  8
ALL_DETAIL_ITEM
100
AcDbLine
 62
7
  6
CONTINUOUS
 10
352.1072705215
 20
300.9365458403
 11
351.818232542
 21
300.8003034563
  0
LINE
  5
4F1
100
AcDbEntity
  8
ALL_DETAIL_ITEM
100
AcDbLine
 62
7
  6
CONTINUOUS
 10
366.70861251
 20
291.2116053818
 11
367.413370896
 21
291.5095760393
  0
LINE
  5
4F2
100
AcDbEntity
  8
ALL_DETAIL_ITEM
100
AcDbLine
 62
7
  6
CONTINUOUS
 10
367.413370896
 20
291.5095760393
 11
367.643388234
 21
291.7996723583
  0
LINE
  5
4F3
100
AcDbEntity
  8
ALL_DETAIL_ITEM
100
AcDbLine
 62
7
  6
CONTINUOUS
 10
367.1560257105
 20
295.1441465923
 11
366.2272971685
 21
294.7870097673
  0
LINE
  5
4F4
100
AcDbEntity
  8
ALL_DETAIL_ITEM
100
AcDbLine
 62
7
  6
CONTINUOUS
 10
366.2272971685
 20
294.7870097673
 11
364.81052029
 21
294.4559461618
  0
LINE
  5
4F5
100
AcDbEntity
  8
ALL_DETAIL_ITEM
100
AcDbLine
 62
7
  6
CONTINUOUS
 10
364.81052029
 20
294.4559461618
 11
362.990488878
 21
294.1224612373
  0
LINE
  5
4F6
100
AcDbEntity
  8
ALL_DETAIL_ITEM
100
AcDbLine
 62
7
  6
CONTINUOUS
 10
362.990488878
 20
294.1224612373
 11
360.878230074
 21
293.7831605338
  0
LINE
  5
4F7
100
AcDbEntity
  8
ALL_DETAIL_ITEM
100
AcDbLine
 62
7
  6
CONTINUOUS
 10
360.878230074
 20
293.7831605338
 11
358.759781265
 21
293.4489437998
  0
LINE
  5
4F8
100
AcDbEntity
  8
ALL_DETAIL_ITEM
100
AcDbLine
 62
7
  6
CONTINUOUS
 10
370.132606511
 20
296.8956934808
 11
369.333944127
 21
296.6096713393
  0
LINE
  5
4F9
100
AcDbEntity
  8
ALL_DETAIL_ITEM
100
AcDbLine
 62
7
  6
CONTINUOUS
 10
369.333944127
 20
296.6096713393
 11
367.820551293
 21
296.2999269718
  0
LINE
  5
4FA
100
AcDbEntity
  8
ALL_DETAIL_ITEM
100
AcDbLine
 62
7
  6
CONTINUOUS
 10
367.820551293
 20
296.2999269718
 11
365.7380224145
 21
295.9901141948
  0
LINE
  5
4FB
100
AcDbEntity
  8
ALL_DETAIL_ITEM
100
AcDbLine
 62
7
  6
CONTINUOUS
 10
365.7380224145
 20
295.9901141948
 11
363.258503246
 21
295.6802346658
  0
LINE
  5
4FC
100
AcDbEntity
  8
ALL_DETAIL_ITEM
100
AcDbLine
 62
7
  6
CONTINUOUS
 10
363.258503246
 20
295.6802346658
 11
357.8812422625
 21
295.0602804858
  0
LINE
  5
4FD
100
AcDbEntity
  8
ALL_DETAIL_ITEM
100
AcDbLine
 62
7
  6
CONTINUOUS
 10
364.7711615345
 20
298.2341606343
 11
365.652077276
 21
298.4943096633
  0
LINE
  5
4FE
100
AcDbEntity
  8
ALL_DETAIL_ITEM
100
AcDbLine
 62
7
  6
CONTINUOUS
 10
365.652077276
 20
298.4943096633
 11
366.304430406
 21
298.7549208023
  0
LINE
  5
4FF
100
AcDbEntity
  8
ALL_DETAIL_ITEM
100
AcDbLine
 62
7
  6
CONTINUOUS
 10
366.304430406
 20
298.7549208023
 11
366.690862441
 21
299.0210096673
  0
LINE
  5
500
100
AcDbEntity
  8
ALL_DETAIL_ITEM
100
AcDbLine
 62
7
  6
CONTINUOUS
 10
366.690862441
 20
299.0210096673
 11
366.7854001875
 21
299.2789555888
  0
LINE
  5
501
100
AcDbEntity
  8
ALL_DETAIL_ITEM
100
AcDbLine
 62
7
  6
CONTINUOUS
 10
373.1479994875
 20
486.2116053818
 11
348.1479994875
 21
486.2116053818
  0
LINE
  5
502
100
AcDbEntity
  8
ALL_DETAIL_ITEM
100
AcDbLine
 62
7
  6
CONTINUOUS
 10
360.6479994875
 20
493.4284837468
 11
373.1479994875
 21
486.2116053818
  0
LINE
  5
503
100
AcDbEntity
  8
ALL_DETAIL_ITEM
100
AcDbLine
 62
7
  6
CONTINUOUS
 10
353.6479994875
 20
243.0451952598
 11
353.8981973325
 21
243.3436606828
  0
LINE
  5
504
100
AcDbEntity
  8
ALL_DETAIL_ITEM
100
AcDbLine
 62
7
  6
CONTINUOUS
 10
353.8981973325
 20
243.3436606828
 11
354.8215194925
 21
243.6999338378
  0
LINE
  5
505
100
AcDbEntity
  8
ALL_DETAIL_ITEM
100
AcDbLine
 62
7
  6
CONTINUOUS
 10
354.8215194925
 20
243.6999338378
 11
356.333880511
 21
244.0554087443
  0
LINE
  5
506
100
AcDbEntity
  8
ALL_DETAIL_ITEM
100
AcDbLine
 62
7
  6
CONTINUOUS
 10
356.333880511
 20
244.0554087443
 11
358.2821212325
 21
244.4106378253
  0
LINE
  5
507
100
AcDbEntity
  8
ALL_DETAIL_ITEM
100
AcDbLine
 62
7
  6
CONTINUOUS
 10
358.2821212325
 20
244.4106378253
 11
360.469223724
 21
244.7679536443
  0
LINE
  5
508
100
AcDbEntity
  8
ALL_DETAIL_ITEM
100
AcDbLine
 62
7
  6
CONTINUOUS
 10
360.469223724
 20
244.7679536443
 11
362.674552045
 21
245.1221919138
  0
LINE
  5
509
100
AcDbEntity
  8
ALL_DETAIL_ITEM
100
AcDbLine
 62
7
  6
CONTINUOUS
 10
362.674552045
 20
245.1221919138
 11
364.6747351435
 21
245.4777103238
  0
LINE
  5
50A
100
AcDbEntity
  8
ALL_DETAIL_ITEM
100
AcDbLine
 62
7
  6
CONTINUOUS
 10
364.6747351435
 20
245.4777103238
 11
366.268761103
 21
245.8336924968
  0
LINE
  5
50B
100
AcDbEntity
  8
ALL_DETAIL_ITEM
100
AcDbLine
 62
7
  6
CONTINUOUS
 10
366.268761103
 20
245.8336924968
 11
367.294403991
 21
246.1892709413
  0
LINE
  5
50C
100
AcDbEntity
  8
ALL_DETAIL_ITEM
100
AcDbLine
 62
7
  6
CONTINUOUS
 10
367.294403991
 20
246.1892709413
 11
367.3950675975
 21
246.2445089328
  0
LINE
  5
50D
100
AcDbEntity
  8
ALL_DETAIL_ITEM
100
AcDbLine
 62
7
  6
CONTINUOUS
 10
367.6479994875
 20
256.7965979223
 11
367.3090381365
 21
256.4479744903
  0
LINE
  5
50E
100
AcDbEntity
  8
ALL_DETAIL_ITEM
100
AcDbLine
 62
7
  6
CONTINUOUS
 10
367.3090381365
 20
256.4479744903
 11
366.3289440755
 21
256.1016900533
  0
LINE
  5
50F
100
AcDbEntity
  8
ALL_DETAIL_ITEM
100
AcDbLine
 62
7
  6
CONTINUOUS
 10
366.3289440755
 20
256.1016900533
 11
364.791134106
 21
255.7527472753
  0
LINE
  5
510
100
AcDbEntity
  8
ALL_DETAIL_ITEM
100
AcDbLine
 62
7
  6
CONTINUOUS
 10
364.791134106
 20
255.7527472753
 11
362.874604983
 21
255.4063766973
  0
LINE
  5
511
100
AcDbEntity
  8
ALL_DETAIL_ITEM
100
AcDbLine
 62
7
  6
CONTINUOUS
 10
362.874604983
 20
255.4063766973
 11
358.4578975505
 21
254.6918140373
  0
LINE
  5
512
100
AcDbEntity
  8
ALL_DETAIL_ITEM
100
AcDbLine
 62
7
  6
CONTINUOUS
 10
353.6479994875
 20
250.0446399433
 11
353.9908905165
 21
250.3950052963
  0
LINE
  5
513
100
AcDbEntity
  8
ALL_DETAIL_ITEM
100
AcDbLine
 62
7
  6
CONTINUOUS
 10
353.9908905165
 20
250.3950052963
 11
354.990137738
 21
250.7470536308
  0
LINE
  5
514
100
AcDbEntity
  8
ALL_DETAIL_ITEM
100
AcDbLine
 62
7
  6
CONTINUOUS
 10
354.990137738
 20
250.7470536308
 11
356.51350128
 21
251.0908678473
  0
LINE
  5
515
100
AcDbEntity
  8
ALL_DETAIL_ITEM
100
AcDbLine
 62
7
  6
CONTINUOUS
 10
356.51350128
 20
251.0908678473
 11
358.45332957
 21
251.4402635063
  0
LINE
  5
516
100
AcDbEntity
  8
ALL_DETAIL_ITEM
100
AcDbLine
 62
7
  6
CONTINUOUS
 10
358.45332957
 20
251.4402635063
 11
362.8966924045
 21
252.1607033528
  0
LINE
  5
517
100
AcDbEntity
  8
ALL_DETAIL_ITEM
100
AcDbLine
 62
7
  6
CONTINUOUS
 10
367.6479994875
 20
270.7962085208
 11
367.3057337705
 21
270.4473525408
  0
LINE
  5
518
100
AcDbEntity
  8
ALL_DETAIL_ITEM
100
AcDbLine
 62
7
  6
CONTINUOUS
 10
367.3057337705
 20
270.4473525408
 11
366.3149147325
 21
270.0977278423
  0
LINE
  5
519
100
AcDbEntity
  8
ALL_DETAIL_ITEM
100
AcDbLine
 62
7
  6
CONTINUOUS
 10
366.3149147325
 20
270.0977278423
 11
364.780213722
 21
269.7505023293
  0
LINE
  5
51A
100
AcDbEntity
  8
ALL_DETAIL_ITEM
100
AcDbLine
 62
7
  6
CONTINUOUS
 10
364.780213722
 20
269.7505023293
 11
362.835560451
 21
269.4003928298
  0
LINE
  5
51B
100
AcDbEntity
  8
ALL_DETAIL_ITEM
100
AcDbLine
 62
7
  6
CONTINUOUS
 10
362.835560451
 20
269.4003928298
 11
358.427670007
 21
268.6876778183
  0
LINE
  5
51C
100
AcDbEntity
  8
ALL_DETAIL_ITEM
100
AcDbLine
 62
7
  6
CONTINUOUS
 10
353.6479994875
 20
257.0454722358
 11
353.9966431295
 21
257.3979248978
  0
LINE
  5
51D
100
AcDbEntity
  8
ALL_DETAIL_ITEM
100
AcDbLine
 62
7
  6
CONTINUOUS
 10
353.9966431295
 20
257.3979248978
 11
355.0340814735
 21
257.7578297068
  0
LINE
  5
51E
100
AcDbEntity
  8
ALL_DETAIL_ITEM
100
AcDbLine
 62
7
  6
CONTINUOUS
 10
355.0340814735
 20
257.7578297068
 11
356.59977703
 21
258.1084582628
  0
LINE
  5
51F
100
AcDbEntity
  8
ALL_DETAIL_ITEM
100
AcDbLine
 62
7
  6
CONTINUOUS
 10
356.59977703
 20
258.1084582628
 11
358.5225048445
 21
258.4510581988
  0
LINE
  5
520
100
AcDbEntity
  8
ALL_DETAIL_ITEM
100
AcDbLine
 62
7
  6
CONTINUOUS
 10
358.5225048445
 20
258.4510581988
 11
362.79256299
 21
259.1425821613
  0
LINE
  5
521
100
AcDbEntity
  8
ALL_DETAIL_ITEM
100
AcDbLine
 62
7
  6
CONTINUOUS
 10
353.8730388705
 20
274.5790314198
 11
353.178102293
 21
274.1407610363
  0
LINE
  5
522
100
AcDbEntity
  8
ALL_DETAIL_ITEM
100
AcDbLine
 62
7
  6
CONTINUOUS
 10
353.178102293
 20
274.1407610363
 11
352.0149652975
 21
273.4222956883
  0
LINE
  5
523
100
AcDbEntity
  8
ALL_DETAIL_ITEM
100
AcDbLine
 62
7
  6
CONTINUOUS
 10
352.0149652975
 20
273.4222956883
 11
351.058385649
 21
272.8416182328
  0
LINE
  5
524
100
AcDbEntity
  8
ALL_DETAIL_ITEM
100
AcDbLine
 62
7
  6
CONTINUOUS
 10
353.8709649995
 20
267.5793962553
 11
353.1750416045
 21
267.1408219663
  0
LINE
  5
525
100
AcDbEntity
  8
ALL_DETAIL_ITEM
100
AcDbLine
 62
7
  6
CONTINUOUS
 10
353.1750416045
 20
267.1408219663
 11
352.0145290595
 21
266.4240248428
  0
LINE
  5
526
100
AcDbEntity
  8
ALL_DETAIL_ITEM
100
AcDbLine
 62
7
  6
CONTINUOUS
 10
352.0145290595
 20
266.4240248428
 11
351.060232711
 21
265.8444638588
  0
LINE
  5
527
100
AcDbEntity
  8
ALL_DETAIL_ITEM
100
AcDbLine
 62
7
  6
CONTINUOUS
 10
353.869497972
 20
260.5781431903
 11
353.1734364425
 21
260.1396828663
  0
LINE
  5
528
100
AcDbEntity
  8
ALL_DETAIL_ITEM
100
AcDbLine
 62
7
  6
CONTINUOUS
 10
353.1734364425
 20
260.1396828663
 11
352.011489426
 21
259.4225281013
  0
LINE
  5
529
100
AcDbEntity
  8
ALL_DETAIL_ITEM
100
AcDbLine
 62
7
  6
CONTINUOUS
 10
352.011489426
 20
259.4225281013
 11
351.0557320105
 21
258.8425401988
  0
LINE
  5
52A
100
AcDbEntity
  8
ALL_DETAIL_ITEM
100
AcDbLine
 62
7
  6
CONTINUOUS
 10
367.3969242895
 20
274.2455932643
 11
368.957507315
 21
275.1678256583
  0
LINE
  5
52B
100
AcDbEntity
  8
ALL_DETAIL_ITEM
100
AcDbLine
 62
7
  6
CONTINUOUS
 10
367.392824174
 20
281.2434064938
 11
369.271198966
 21
282.3524972748
  0
LINE
  5
52C
100
AcDbEntity
  8
ALL_DETAIL_ITEM
100
AcDbLine
 62
7
  6
CONTINUOUS
 10
369.271198966
 20
282.3524972748
 11
370.2272809105
 21
282.9109485408
  0
LINE
  5
52D
100
AcDbEntity
  8
ALL_DETAIL_ITEM
100
AcDbLine
 62
7
  6
CONTINUOUS
 10
368.957507315
 20
275.1678256583
 11
370.060439844
 21
275.8129101078
  0
LINE
  5
52E
100
AcDbEntity
  8
ALL_DETAIL_ITEM
100
AcDbLine
 62
7
  6
CONTINUOUS
 10
353.8695072675
 20
260.5779093608
 11
353.993517339
 21
260.6484492098
  0
LINE
  5
52F
100
AcDbEntity
  8
ALL_DETAIL_ITEM
100
AcDbLine
 62
7
  6
CONTINUOUS
 10
353.993517339
 20
260.6484492098
 11
355.0151815965
 21
261.0054351078
  0
LINE
  5
530
100
AcDbEntity
  8
ALL_DETAIL_ITEM
100
AcDbLine
 62
7
  6
CONTINUOUS
 10
355.0151815965
 20
261.0054351078
 11
356.554607689
 21
261.3506847383
  0
LINE
  5
531
100
AcDbEntity
  8
ALL_DETAIL_ITEM
100
AcDbLine
 62
7
  6
CONTINUOUS
 10
356.554607689
 20
261.3506847383
 11
358.4695197415
 21
261.6943667038
  0
LINE
  5
532
100
AcDbEntity
  8
ALL_DETAIL_ITEM
100
AcDbLine
 62
7
  6
CONTINUOUS
 10
370.227761857
 20
275.9104205458
 11
370.1978063395
 21
275.8936138193
  0
LINE
  5
533
100
AcDbEntity
  8
ALL_DETAIL_ITEM
100
AcDbLine
 62
7
  6
CONTINUOUS
 10
370.2272809105
 20
282.9109485408
 11
370.00582407
 21
282.8061821253
  0
LINE
  5
534
100
AcDbEntity
  8
ALL_DETAIL_ITEM
100
AcDbLine
 62
7
  6
CONTINUOUS
 10
370.00582407
 20
282.8061821253
 11
368.8567902275
 21
282.4919744753
  0
LINE
  5
535
100
AcDbEntity
  8
ALL_DETAIL_ITEM
100
AcDbLine
 62
7
  6
CONTINUOUS
 10
368.8567902275
 20
282.4919744753
 11
367.057746095
 21
282.1777668248
  0
LINE
  5
536
100
AcDbEntity
  8
ALL_DETAIL_ITEM
100
AcDbLine
 62
7
  6
CONTINUOUS
 10
367.057746095
 20
282.1777668248
 11
364.755031704
 21
281.8635591743
  0
LINE
  5
537
100
AcDbEntity
  8
ALL_DETAIL_ITEM
100
AcDbLine
 62
7
  6
CONTINUOUS
 10
364.755031704
 20
281.8635591743
 11
362.125359196
 21
281.5493515243
  0
LINE
  5
538
100
AcDbEntity
  8
ALL_DETAIL_ITEM
100
AcDbLine
 62
7
  6
CONTINUOUS
 10
362.125359196
 20
281.5493515243
 11
359.380340367
 21
281.2351438738
  0
LINE
  5
539
100
AcDbEntity
  8
ALL_DETAIL_ITEM
100
AcDbLine
 62
7
  6
CONTINUOUS
 10
359.380340367
 20
281.2351438738
 11
356.7341693205
 21
280.9209362238
  0
LINE
  5
53A
100
AcDbEntity
  8
ALL_DETAIL_ITEM
100
AcDbLine
 62
7
  6
CONTINUOUS
 10
356.7341693205
 20
280.9209362238
 11
354.39804668
 21
280.6067285733
  0
LINE
  5
53B
100
AcDbEntity
  8
ALL_DETAIL_ITEM
100
AcDbLine
 62
7
  6
CONTINUOUS
 10
354.39804668
 20
280.6067285733
 11
352.5551179195
 21
280.2925209233
  0
LINE
  5
53C
100
AcDbEntity
  8
ALL_DETAIL_ITEM
100
AcDbLine
 62
7
  6
CONTINUOUS
 10
352.5551179195
 20
280.2925209233
 11
351.3549159715
 21
279.9783132728
  0
LINE
  5
53D
100
AcDbEntity
  8
ALL_DETAIL_ITEM
100
AcDbLine
 62
7
  6
CONTINUOUS
 10
351.3549159715
 20
279.9783132728
 11
351.0537599955
 21
279.8403027058
  0
LINE
  5
53E
100
AcDbEntity
  8
ALL_DETAIL_ITEM
100
AcDbLine
 62
7
  6
CONTINUOUS
 10
370.228359224
 20
289.9107077673
 11
369.756291819
 21
289.7187504313
  0
LINE
  5
53F
100
AcDbEntity
  8
ALL_DETAIL_ITEM
100
AcDbLine
 62
7
  6
CONTINUOUS
 10
369.756291819
 20
289.7187504313
 11
368.4142161705
 21
289.4045427813
  0
LINE
  5
540
100
AcDbEntity
  8
ALL_DETAIL_ITEM
100
AcDbLine
 62
7
  6
CONTINUOUS
 10
368.4142161705
 20
289.4045427813
 11
366.462130056
 21
289.0903351308
  0
LINE
  5
541
100
AcDbEntity
  8
ALL_DETAIL_ITEM
100
AcDbLine
 62
7
  6
CONTINUOUS
 10
366.462130056
 20
289.0903351308
 11
364.046551957
 21
288.7761274803
  0
LINE
  5
542
100
AcDbEntity
  8
ALL_DETAIL_ITEM
100
AcDbLine
 62
7
  6
CONTINUOUS
 10
364.046551957
 20
288.7761274803
 11
361.3644656775
 21
288.4619198303
  0
LINE
  5
543
100
AcDbEntity
  8
ALL_DETAIL_ITEM
100
AcDbLine
 62
7
  6
CONTINUOUS
 10
361.3644656775
 20
288.4619198303
 11
358.624436478
 21
288.1477121798
  0
LINE
  5
544
100
AcDbEntity
  8
ALL_DETAIL_ITEM
100
AcDbLine
 62
7
  6
CONTINUOUS
 10
358.624436478
 20
288.1477121798
 11
356.044916424
 21
287.8335045298
  0
LINE
  5
545
100
AcDbEntity
  8
ALL_DETAIL_ITEM
100
AcDbLine
 62
7
  6
CONTINUOUS
 10
356.044916424
 20
287.8335045298
 11
353.828365475
 21
287.5192968793
  0
LINE
  5
546
100
AcDbEntity
  8
ALL_DETAIL_ITEM
100
AcDbLine
 62
7
  6
CONTINUOUS
 10
353.828365475
 20
287.5192968793
 11
352.153058883
 21
287.2050892293
  0
LINE
  5
547
100
AcDbEntity
  8
ALL_DETAIL_ITEM
100
AcDbLine
 62
7
  6
CONTINUOUS
 10
352.153058883
 20
287.2050892293
 11
351.1462444285
 21
286.8908815788
  0
LINE
  5
548
100
AcDbEntity
  8
ALL_DETAIL_ITEM
100
AcDbLine
 62
7
  6
CONTINUOUS
 10
351.1462444285
 20
286.8908815788
 11
351.0530659755
 21
286.8405969883
  0
LINE
  5
549
100
AcDbEntity
  8
ALL_DETAIL_ITEM
100
AcDbLine
 62
7
  6
CONTINUOUS
 10
367.3873040075
 20
277.4923231568
 11
366.5669082745
 21
277.1677600923
  0
LINE
  5
54A
100
AcDbEntity
  8
ALL_DETAIL_ITEM
100
AcDbLine
 62
7
  6
CONTINUOUS
 10
366.5669082745
 20
277.1677600923
 11
365.237752286
 21
276.8436778918
  0
LINE
  5
54B
100
AcDbEntity
  8
ALL_DETAIL_ITEM
100
AcDbLine
 62
7
  6
CONTINUOUS
 10
365.237752286
 20
276.8436778918
 11
363.5640873915
 21
276.5246713183
  0
LINE
  5
54C
100
AcDbEntity
  8
ALL_DETAIL_ITEM
100
AcDbLine
 62
7
  6
CONTINUOUS
 10
363.5640873915
 20
276.5246713183
 11
361.6573375385
 21
276.2080864548
  0
LINE
  5
54D
100
AcDbEntity
  8
ALL_DETAIL_ITEM
100
AcDbLine
 62
7
  6
CONTINUOUS
 10
361.6573375385
 20
276.2080864548
 11
359.677359439
 21
275.8910565123
  0
LINE
  5
54E
100
AcDbEntity
  8
ALL_DETAIL_ITEM
100
AcDbLine
 62
7
  6
CONTINUOUS
 10
359.677359439
 20
275.8910565123
 11
357.754992091
 21
275.5717520523
  0
LINE
  5
54F
100
AcDbEntity
  8
ALL_DETAIL_ITEM
100
AcDbLine
 62
7
  6
CONTINUOUS
 10
357.754992091
 20
275.5717520523
 11
356.0820852825
 21
275.2551401613
  0
LINE
  5
550
100
AcDbEntity
  8
ALL_DETAIL_ITEM
100
AcDbLine
 62
7
  6
CONTINUOUS
 10
356.0820852825
 20
275.2551401613
 11
354.753636698
 21
274.9317617883
  0
LINE
  5
551
100
AcDbEntity
  8
ALL_DETAIL_ITEM
100
AcDbLine
 62
7
  6
CONTINUOUS
 10
354.753636698
 20
274.9317617883
 11
353.927189226
 21
274.6117077733
  0
LINE
  5
552
100
AcDbEntity
  8
ALL_DETAIL_ITEM
100
AcDbLine
 62
7
  6
CONTINUOUS
 10
353.927189226
 20
274.6117077733
 11
353.8730313845
 21
274.5792182693
  0
LINE
  5
553
100
AcDbEntity
  8
ALL_DETAIL_ITEM
100
AcDbLine
 62
7
  6
CONTINUOUS
 10
370.1978063395
 20
275.8936138193
 11
369.2429804275
 21
275.5794061693
  0
LINE
  5
554
100
AcDbEntity
  8
ALL_DETAIL_ITEM
100
AcDbLine
 62
7
  6
CONTINUOUS
 10
367.6479994875
 20
242.7968843153
 11
367.364805421
 21
242.4791512008
  0
LINE
  5
555
100
AcDbEntity
  8
ALL_DETAIL_ITEM
100
AcDbLine
 62
7
  6
CONTINUOUS
 10
367.364805421
 20
242.4791512008
 11
366.5323550755
 21
242.1587976783
  0
LINE
  5
556
100
AcDbEntity
  8
ALL_DETAIL_ITEM
100
AcDbLine
 62
7
  6
CONTINUOUS
 10
366.5323550755
 20
242.1587976783
 11
365.247749647
 21
241.8460206828
  0
LINE
  5
557
100
AcDbEntity
  8
ALL_DETAIL_ITEM
100
AcDbLine
 62
7
  6
CONTINUOUS
 10
365.247749647
 20
241.8460206828
 11
363.600191065
 21
241.5319178503
  0
LINE
  5
558
100
AcDbEntity
  8
ALL_DETAIL_ITEM
100
AcDbLine
 62
7
  6
CONTINUOUS
 10
363.600191065
 20
241.5319178503
 11
361.6778986925
 21
241.2116053818
  0
LINE
  5
559
100
AcDbEntity
  8
ALL_DETAIL_ITEM
100
AcDbLine
 62
7
  6
CONTINUOUS
 10
367.6479994875
 20
249.7966395013
 11
367.312765431
 21
249.4511314853
  0
LINE
  5
55A
100
AcDbEntity
  8
ALL_DETAIL_ITEM
100
AcDbLine
 62
7
  6
CONTINUOUS
 10
367.312765431
 20
249.4511314853
 11
366.317795734
 21
249.0982580118
  0
LINE
  5
55B
100
AcDbEntity
  8
ALL_DETAIL_ITEM
100
AcDbLine
 62
7
  6
CONTINUOUS
 10
366.317795734
 20
249.0982580118
 11
364.750056988
 21
248.7447361678
  0
LINE
  5
55C
100
AcDbEntity
  8
ALL_DETAIL_ITEM
100
AcDbLine
 62
7
  6
CONTINUOUS
 10
364.750056988
 20
248.7447361678
 11
362.812878661
 21
248.3977331953
  0
LINE
  5
55D
100
AcDbEntity
  8
ALL_DETAIL_ITEM
100
AcDbLine
 62
7
  6
CONTINUOUS
 10
362.812878661
 20
248.3977331953
 11
360.655482218
 21
248.0464509818
  0
LINE
  5
55E
100
AcDbEntity
  8
ALL_DETAIL_ITEM
100
AcDbLine
 62
7
  6
CONTINUOUS
 10
360.655482218
 20
248.0464509818
 11
358.506811116
 21
247.7009675298
  0
LINE
  5
55F
100
AcDbEntity
  8
ALL_DETAIL_ITEM
100
AcDbLine
 62
7
  6
CONTINUOUS
 10
358.506811116
 20
247.7009675298
 11
356.568118143
 21
247.3531110928
  0
LINE
  5
560
100
AcDbEntity
  8
ALL_DETAIL_ITEM
100
AcDbLine
 62
7
  6
CONTINUOUS
 10
356.568118143
 20
247.3531110928
 11
354.9906599445
 21
246.9986576618
  0
LINE
  5
561
100
AcDbEntity
  8
ALL_DETAIL_ITEM
100
AcDbLine
 62
7
  6
CONTINUOUS
 10
354.9906599445
 20
246.9986576618
 11
353.983942206
 21
246.6428889793
  0
LINE
  5
562
100
AcDbEntity
  8
ALL_DETAIL_ITEM
100
AcDbLine
 62
7
  6
CONTINUOUS
 10
353.983942206
 20
246.6428889793
 11
353.8680128995
 21
246.5764095343
  0
LINE
  5
563
100
AcDbEntity
  8
ALL_DETAIL_ITEM
100
AcDbLine
 62
7
  6
CONTINUOUS
 10
370.222831763
 20
254.9096556463
 11
370.407114863
 21
255.0884960763
  0
LINE
  5
564
100
AcDbEntity
  8
ALL_DETAIL_ITEM
100
AcDbLine
 62
7
  6
CONTINUOUS
 10
370.407114863
 20
255.0884960763
 11
370.241428813
 21
255.3418482298
  0
LINE
  5
565
100
AcDbEntity
  8
ALL_DETAIL_ITEM
100
AcDbLine
 62
7
  6
CONTINUOUS
 10
353.8718926675
 20
253.5796027998
 11
353.1750675065
 21
253.1403756448
  0
LINE
  5
566
100
AcDbEntity
  8
ALL_DETAIL_ITEM
100
AcDbLine
 62
7
  6
CONTINUOUS
 10
353.1750675065
 20
253.1403756448
 11
352.012252586
 21
252.4223799873
  0
LINE
  5
567
100
AcDbEntity
  8
ALL_DETAIL_ITEM
100
AcDbLine
 62
7
  6
CONTINUOUS
 10
352.012252586
 20
252.4223799873
 11
351.0560012355
 21
251.8420379988
  0
LINE
  5
568
100
AcDbEntity
  8
ALL_DETAIL_ITEM
100
AcDbLine
 62
7
  6
CONTINUOUS
 10
353.86799843
 20
246.5767752393
 11
353.211941198
 21
246.1634327743
  0
LINE
  5
569
100
AcDbEntity
  8
ALL_DETAIL_ITEM
100
AcDbLine
 62
7
  6
CONTINUOUS
 10
353.211941198
 20
246.1634327743
 11
352.0614949435
 21
245.4529640658
  0
LINE
  5
56A
100
AcDbEntity
  8
ALL_DETAIL_ITEM
100
AcDbLine
 62
7
  6
CONTINUOUS
 10
352.0614949435
 20
245.4529640658
 11
351.0546987495
 21
244.8419313658
  0
LINE
  5
56B
100
AcDbEntity
  8
ALL_DETAIL_ITEM
100
AcDbLine
 62
7
  6
CONTINUOUS
 10
367.390537301
 20
253.2425290798
 11
369.292400478
 21
254.3659532338
  0
LINE
  5
56C
100
AcDbEntity
  8
ALL_DETAIL_ITEM
100
AcDbLine
 62
7
  6
CONTINUOUS
 10
369.292400478
 20
254.3659532338
 11
370.222831763
 21
254.9096556463
  0
LINE
  5
56D
100
AcDbEntity
  8
ALL_DETAIL_ITEM
100
AcDbLine
 62
7
  6
CONTINUOUS
 10
367.392321737
 20
267.2426288123
 11
369.294482832
 21
268.3658472078
  0
LINE
  5
56E
100
AcDbEntity
  8
ALL_DETAIL_ITEM
100
AcDbLine
 62
7
  6
CONTINUOUS
 10
369.294482832
 20
268.3658472078
 11
370.224067663
 21
268.9089722683
  0
LINE
  5
56F
100
AcDbEntity
  8
ALL_DETAIL_ITEM
100
AcDbLine
 62
7
  6
CONTINUOUS
 10
367.3918112575
 20
260.2428460718
 11
369.294784868
 21
261.3665767498
  0
LINE
  5
570
100
AcDbEntity
  8
ALL_DETAIL_ITEM
100
AcDbLine
 62
7
  6
CONTINUOUS
 10
369.294784868
 20
261.3665767498
 11
370.225432685
 21
261.9102457073
  0
LINE
  5
571
100
AcDbEntity
  8
ALL_DETAIL_ITEM
100
AcDbLine
 62
7
  6
CONTINUOUS
 10
350.647999509
 20
239.8866053943
 11
352.942966824
 21
241.2116053913
  0
LINE
  5
572
100
AcDbEntity
  8
ALL_DETAIL_ITEM
100
AcDbLine
 62
7
  6
CONTINUOUS
 10
351.0546987495
 20
244.8419313658
 11
351.239593801
 21
244.9336080013
  0
LINE
  5
573
100
AcDbEntity
  8
ALL_DETAIL_ITEM
100
AcDbLine
 62
7
  6
CONTINUOUS
 10
351.239593801
 20
244.9336080013
 11
352.408607883
 21
245.2616438818
  0
LINE
  5
574
100
AcDbEntity
  8
ALL_DETAIL_ITEM
100
AcDbLine
 62
7
  6
CONTINUOUS
 10
352.408607883
 20
245.2616438818
 11
354.283362951
 21
245.5896202323
  0
LINE
  5
575
100
AcDbEntity
  8
ALL_DETAIL_ITEM
100
AcDbLine
 62
7
  6
CONTINUOUS
 10
354.283362951
 20
245.5896202323
 11
356.7045757285
 21
245.9171204298
  0
LINE
  5
576
100
AcDbEntity
  8
ALL_DETAIL_ITEM
100
AcDbLine
 62
7
  6
CONTINUOUS
 10
356.7045757285
 20
245.9171204298
 11
359.4641017315
 21
246.2448946798
  0
LINE
  5
577
100
AcDbEntity
  8
ALL_DETAIL_ITEM
100
AcDbLine
 62
7
  6
CONTINUOUS
 10
359.4641017315
 20
246.2448946798
 11
362.3327582015
 21
246.5733021598
  0
LINE
  5
578
100
AcDbEntity
  8
ALL_DETAIL_ITEM
100
AcDbLine
 62
7
  6
CONTINUOUS
 10
362.3327582015
 20
246.5733021598
 11
365.0424399525
 21
246.9000303093
  0
LINE
  5
579
100
AcDbEntity
  8
ALL_DETAIL_ITEM
100
AcDbLine
 62
7
  6
CONTINUOUS
 10
365.0424399525
 20
246.9000303093
 11
367.377228526
 21
247.2267194573
  0
LINE
  5
57A
100
AcDbEntity
  8
ALL_DETAIL_ITEM
100
AcDbLine
 62
7
  6
CONTINUOUS
 10
367.377228526
 20
247.2267194573
 11
369.143440823
 21
247.5553184128
  0
LINE
  5
57B
100
AcDbEntity
  8
ALL_DETAIL_ITEM
100
AcDbLine
 62
7
  6
CONTINUOUS
 10
369.143440823
 20
247.5553184128
 11
370.2268535205
 21
247.9099695083
  0
LINE
  5
57C
100
AcDbEntity
  8
ALL_DETAIL_ITEM
100
AcDbLine
 62
7
  6
CONTINUOUS
 10
370.225432685
 20
261.9102457073
 11
369.865701071
 21
261.7542695573
  0
LINE
  5
57D
100
AcDbEntity
  8
ALL_DETAIL_ITEM
100
AcDbLine
 62
7
  6
CONTINUOUS
 10
369.865701071
 20
261.7542695573
 11
368.6014013565
 21
261.4400619068
  0
LINE
  5
57E
100
AcDbEntity
  8
ALL_DETAIL_ITEM
100
AcDbLine
 62
7
  6
CONTINUOUS
 10
368.6014013565
 20
261.4400619068
 11
366.709281909
 21
261.1258542563
  0
LINE
  5
57F
100
AcDbEntity
  8
ALL_DETAIL_ITEM
100
AcDbLine
 62
7
  6
CONTINUOUS
 10
366.709281909
 20
261.1258542563
 11
364.3361408595
 21
260.8116466063
  0
LINE
  5
580
100
AcDbEntity
  8
ALL_DETAIL_ITEM
100
AcDbLine
 62
7
  6
CONTINUOUS
 10
364.3361408595
 20
260.8116466063
 11
361.6744492085
 21
260.4974389558
  0
LINE
  5
581
100
AcDbEntity
  8
ALL_DETAIL_ITEM
100
AcDbLine
 62
7
  6
CONTINUOUS
 10
361.6744492085
 20
260.4974389558
 11
358.930230892
 21
260.1832313058
  0
LINE
  5
582
100
AcDbEntity
  8
ALL_DETAIL_ITEM
100
AcDbLine
 62
7
  6
CONTINUOUS
 10
358.930230892
 20
260.1832313058
 11
356.321803297
 21
259.8690236553
  0
LINE
  5
583
100
AcDbEntity
  8
ALL_DETAIL_ITEM
100
AcDbLine
 62
7
  6
CONTINUOUS
 10
356.321803297
 20
259.8690236553
 11
354.0556032885
 21
259.5548160053
  0
LINE
  5
584
100
AcDbEntity
  8
ALL_DETAIL_ITEM
100
AcDbLine
 62
7
  6
CONTINUOUS
 10
354.0556032885
 20
259.5548160053
 11
352.309447713
 21
259.2406083548
  0
LINE
  5
585
100
AcDbEntity
  8
ALL_DETAIL_ITEM
100
AcDbLine
 62
7
  6
CONTINUOUS
 10
352.309447713
 20
259.2406083548
 11
351.2221811205
 21
258.9264007048
  0
LINE
  5
586
100
AcDbEntity
  8
ALL_DETAIL_ITEM
100
AcDbLine
 62
7
  6
CONTINUOUS
 10
351.2221811205
 20
258.9264007048
 11
351.0557320105
 21
258.8425401988
  0
LINE
  5
587
100
AcDbEntity
  8
ALL_DETAIL_ITEM
100
AcDbLine
 62
7
  6
CONTINUOUS
 10
370.224067663
 20
268.9089722683
 11
369.584006943
 21
268.6668378633
  0
LINE
  5
588
100
AcDbEntity
  8
ALL_DETAIL_ITEM
100
AcDbLine
 62
7
  6
CONTINUOUS
 10
369.584006943
 20
268.6668378633
 11
368.1322700745
 21
268.3526302128
  0
LINE
  5
589
100
AcDbEntity
  8
ALL_DETAIL_ITEM
100
AcDbLine
 62
7
  6
CONTINUOUS
 10
368.1322700745
 20
268.3526302128
 11
366.0890427515
 21
268.0384225623
  0
LINE
  5
58A
100
AcDbEntity
  8
ALL_DETAIL_ITEM
100
AcDbLine
 62
7
  6
CONTINUOUS
 10
366.0890427515
 20
268.0384225623
 11
363.616257298
 21
267.7242149123
  0
LINE
  5
58B
100
AcDbEntity
  8
ALL_DETAIL_ITEM
100
AcDbLine
 62
7
  6
CONTINUOUS
 10
351.0560012355
 20
251.8420379988
 11
351.8832727515
 21
252.1398057278
  0
LINE
  5
58C
100
AcDbEntity
  8
ALL_DETAIL_ITEM
100
AcDbLine
 62
7
  6
CONTINUOUS
 10
351.8832727515
 20
252.1398057278
 11
353.5117986435
 21
252.4673304938
  0
LINE
  5
58D
100
AcDbEntity
  8
ALL_DETAIL_ITEM
100
AcDbLine
 62
7
  6
CONTINUOUS
 10
353.5117986435
 20
252.4673304938
 11
355.745675391
 21
252.7945267188
  0
LINE
  5
58E
100
AcDbEntity
  8
ALL_DETAIL_ITEM
100
AcDbLine
 62
7
  6
CONTINUOUS
 10
355.745675391
 20
252.7945267188
 11
358.4002710725
 21
253.1214241698
  0
LINE
  5
58F
100
AcDbEntity
  8
ALL_DETAIL_ITEM
100
AcDbLine
 62
7
  6
CONTINUOUS
 10
358.4002710725
 20
253.1214241698
 11
361.2434485345
 21
253.4481920273
  0
LINE
  5
590
100
AcDbEntity
  8
ALL_DETAIL_ITEM
100
AcDbLine
 62
7
  6
CONTINUOUS
 10
361.2434485345
 20
253.4481920273
 11
364.045985899
 21
253.7760842588
  0
LINE
  5
591
100
AcDbEntity
  8
ALL_DETAIL_ITEM
100
AcDbLine
 62
7
  6
CONTINUOUS
 10
364.045985899
 20
253.7760842588
 11
366.5604882275
 21
254.1044330558
  0
LINE
  5
592
100
AcDbEntity
  8
ALL_DETAIL_ITEM
100
AcDbLine
 62
7
  6
CONTINUOUS
 10
366.5604882275
 20
254.1044330558
 11
368.559249052
 21
254.4319217723
  0
LINE
  5
593
100
AcDbEntity
  8
ALL_DETAIL_ITEM
100
AcDbLine
 62
7
  6
CONTINUOUS
 10
368.559249052
 20
254.4319217723
 11
369.880682331
 21
254.7597212593
  0
LINE
  5
594
100
AcDbEntity
  8
ALL_DETAIL_ITEM
100
AcDbLine
 62
7
  6
CONTINUOUS
 10
369.880682331
 20
254.7597212593
 11
370.222831763
 21
254.9096556463
  0
LINE
  5
595
100
AcDbEntity
  8
ALL_DETAIL_ITEM
100
AcDbLine
 62
7
  6
CONTINUOUS
 10
370.2256111615
 20
240.9096212228
 11
370.3538446475
 21
241.0046887993
  0
LINE
  5
596
100
AcDbEntity
  8
ALL_DETAIL_ITEM
100
AcDbLine
 62
7
  6
CONTINUOUS
 10
370.3538446475
 20
241.0046887993
 11
370.241172175
 21
241.3420139533
  0
LINE
  5
597
100
AcDbEntity
  8
ALL_DETAIL_ITEM
100
AcDbLine
 62
7
  6
CONTINUOUS
 10
367.3950769225
 20
246.2442890968
 11
369.297130224
 21
247.3669496948
  0
LINE
  5
598
100
AcDbEntity
  8
ALL_DETAIL_ITEM
100
AcDbLine
 62
7
  6
CONTINUOUS
 10
369.297130224
 20
247.3669496948
 11
370.2268535205
 21
247.9099695083
  0
LINE
  5
599
100
AcDbEntity
  8
ALL_DETAIL_ITEM
100
AcDbLine
 62
7
  6
CONTINUOUS
 10
369.4525493925
 20
240.4582353293
 11
370.2256111615
 21
240.9096212228
  0
LINE
  5
59A
100
AcDbEntity
  8
ALL_DETAIL_ITEM
100
AcDbLine
 62
7
  6
CONTINUOUS
 10
369.452715076
 20
240.4581403998
 11
369.409916086
 21
240.4371079933
  0
LINE
  5
59B
100
AcDbEntity
  8
ALL_DETAIL_ITEM
100
AcDbLine
 62
7
  6
CONTINUOUS
 10
369.409916086
 20
240.4371079933
 11
368.7830077685
 21
240.2961235243
  0
LINE
  5
59C
100
AcDbEntity
  8
ALL_DETAIL_ITEM
100
AcDbLine
 62
7
  6
CONTINUOUS
 10
368.7830077685
 20
240.2961235243
 11
367.613864442
 21
240.1574735383
  0
LINE
  5
59D
100
AcDbEntity
  8
ALL_DETAIL_ITEM
100
AcDbLine
 62
7
  6
CONTINUOUS
 10
367.613864442
 20
240.1574735383
 11
365.957202254
 21
240.0203296138
  0
LINE
  5
59E
100
AcDbEntity
  8
ALL_DETAIL_ITEM
100
AcDbLine
 62
7
  6
CONTINUOUS
 10
370.469839609
 20
217.1206962913
 11
370.8086423615
 21
217.2179481123
  0
LINE
  5
59F
100
AcDbEntity
  8
ALL_DETAIL_ITEM
100
AcDbLine
 62
7
  6
CONTINUOUS
 10
370.8086423615
 20
217.2179481123
 11
371.148814072
 21
217.3197830318
  0
LINE
  5
5A0
100
AcDbEntity
  8
ALL_DETAIL_ITEM
100
AcDbLine
 62
7
  6
CONTINUOUS
 10
371.148814072
 20
217.3197830318
 11
371.4902622795
 21
217.4262681708
  0
LINE
  5
5A1
100
AcDbEntity
  8
ALL_DETAIL_ITEM
100
AcDbLine
 62
7
  6
CONTINUOUS
 10
453.2463690945
 20
616.2116053818
 11
198.4353981995
 21
616.2116053818
  0
ARC
  5
5A2
100
AcDbEntity
  8
ALL_DETAIL_ITEM
100
AcDbCircle
 62
7
  6
CONTINUOUS
 10
391.1479994875
 20
291.2116053818
 40
37.5
100
AcDbArc
 50
169.2066012783
 51
173.2711946084
  0
ARC
  5
5A3
100
AcDbEntity
  8
ALL_DETAIL_ITEM
100
AcDbCircle
 62
7
  6
CONTINUOUS
 10
330.1479994875
 20
291.2116053818
 40
37.5
100
AcDbArc
 50
0.8985369855
 51
6.2616935353
  0
ARC
  5
5A4
100
AcDbEntity
  8
ALL_DETAIL_ITEM
100
AcDbCircle
 62
7
  6
CONTINUOUS
 10
359.1952776855
 20
246.8475533613
 40
30.931246271
100
AcDbArc
 50
235.1135572862
 51
252.0235228496
  0
ARC
  5
5A5
100
AcDbEntity
  8
ALL_DETAIL_ITEM
100
AcDbCircle
 62
7
  6
CONTINUOUS
 10
362.1007212895
 20
246.8475533613
 40
30.931246271
100
AcDbArc
 50
287.9764771504
 51
304.8864427138
  0
ARC
  5
5A6
100
AcDbEntity
  8
ALL_DETAIL_ITEM
100
AcDbCircle
 62
7
  6
CONTINUOUS
 10
378.6479994875
 20
223.1156213913
 40
2.0
100
AcDbArc
 50
304.8864426761
 51
360.0
  0
ARC
  5
5A7
100
AcDbEntity
  8
ALL_DETAIL_ITEM
100
AcDbCircle
 62
7
  6
CONTINUOUS
 10
342.6479994875
 20
223.1156213913
 40
2.0
100
AcDbArc
 50
180.0
 51
235.1135573239
  0
ARC
  5
5A8
100
AcDbEntity
  8
ALL_DETAIL_ITEM
100
AcDbCircle
 62
7
  6
CONTINUOUS
 10
349.6479994875
 20
232.2116053818
 40
1.0
100
AcDbArc
 50
270.0
 51
360.0
  0
ARC
  5
5A9
100
AcDbEntity
  8
ALL_DETAIL_ITEM
100
AcDbCircle
 62
7
  6
CONTINUOUS
 10
371.6479994875
 20
232.2116053818
 40
1.0
100
AcDbArc
 50
180.0
 51
270.0
  0
ARC
  5
5AA
100
AcDbEntity
  8
ALL_DETAIL_ITEM
100
AcDbCircle
 62
7
  6
CONTINUOUS
 10
302.8105749185
 20
411.2116053818
 40
1.0
100
AcDbArc
 50
89.9999999999
 51
176.0
  0
CIRCLE
  5
5AB
100
AcDbEntity
  8
ALL_DETAIL_ITEM
100
AcDbCircle
 62
2
  6
CONTINUOUS
 10
218.084051652
 20
671.4268891163
 40
23.2719072505
  0
LINE
  5
5AC
100
AcDbEntity
  8
ALL_DETAIL_ITEM
100
AcDbLine
 62
2
  6
CONTINUOUS
 10
299.8389119049
 20
585.2550589438
 11
233.1556234431
 21
653.6944896848
  0
CIRCLE
  5
5AD
100
AcDbEntity
  8
ALL_DETAIL_ITEM
100
AcDbCircle
 62
2
  6
CONTINUOUS
 10
299.8388217953
 20
585.2609530667
 40
1.9328519331
  0
ENDBLK
  5
5AE
100
AcDbEntity
  8
0
  6
BYBLOCK
 62
0
100
AcDbBlockEnd
  0
BLOCK
  5
5AF
100
AcDbEntity
  8
ALL_DETAIL_ITEM
100
AcDbBlockBegin
 62
2
  6
CONTINUOUS
  2
B2B_NASLOV_RISBE_BL0
 70
64
 10
712.0588661092
 20
168.8618548075
  3
B2B_NASLOV_RISBE_BL0
  1

  0
TEXT
  5
5B0
100
AcDbEntity
  8
ALL_DETAIL_ITEM
100
AcDbText
 62
7
  6
CONTINUOUS
 10
616.576922176
 20
248.5889293002
  7
STANDARD
 40
25.0
  1
Cut-out VARIANT 10
 41
0.753968254
 72
0
100
AcDbText
  0
TEXT
  5
5B1
100
AcDbEntity
  8
ALL_DETAIL_ITEM
100
AcDbText
 62
7
  6
CONTINUOUS
 10
701.943218752
 20
217.5076213536
  7
STANDARD
 40
17.5
  1
1:5
 41
0.6111111111
 72
0
100
AcDbText
  0
TEXT
  5
5B2
100
AcDbEntity
  8
ALL_DETAIL_ITEM
100
AcDbText
 62
7
  6
CONTINUOUS
 10
701.7195225386
 20
187.2423029536
  7
STANDARD
 40
17.5
  1
A4
 41
0.9166666667
 72
0
100
AcDbText
  0
TEXT
  5
5B3
100
AcDbEntity
  8
ALL_DETAIL_ITEM
100
AcDbText
 62
7
  6
CONTINUOUS
 10
616.8418846227
 20
142.5230297211
  7
STANDARD
 40
12.5
  1
1135104_01
 41
0.7047619048
 72
0
100
AcDbText
  0
TEXT
  5
5B4
100
AcDbEntity
  8
ALL_DETAIL_ITEM
100
AcDbText
 62
7
  6
CONTINUOUS
 10
616.7374781368
 20
163.5067004022
  7
STANDARD
 40
12.5
  1
21.04.2020
 41
0.7404761905
 72
0
100
AcDbText
  0
TEXT
  5
5B5
100
AcDbEntity
  8
ALL_DETAIL_ITEM
100
AcDbText
 62
5
  6
CONTINUOUS
 10
616.5359357226
 20
217.8571466869
  7
STANDARD
 40
17.5
  1
Scale:
 41
0.6507936508
 72
0
100
AcDbText
  0
TEXT
  5
5B6
100
AcDbEntity
  8
ALL_DETAIL_ITEM
100
AcDbText
 62
5
  6
CONTINUOUS
 10
616.3961255893
 20
187.5498852469
  7
STANDARD
 40
17.5
  1
Format:
 41
0.6904761905
 72
0
100
AcDbText
  0
TEXT
  5
5B7
100
AcDbEntity
  8
ALL_DETAIL_ITEM
100
AcDbText
 62
5
  6
CONTINUOUS
 10
468.2550957568
 20
64.1347803149
  7
STANDARD
 40
10.0
  1
Subject to modifications. Latest version is on the internet.
 41
0.676984127
 72
0
100
AcDbText
  0
LINE
  5
5B8
100
AcDbEntity
  8
ALL_DETAIL_ITEM
100
AcDbLine
 62
4
  6
CONTINUOUS
 10
638.3802262998
 20
123.0097658251
 11
620.30323471
 21
92.4705235036
  0
LINE
  5
5B9
100
AcDbEntity
  8
ALL_DETAIL_ITEM
100
AcDbLine
 62
4
  6
CONTINUOUS
 10
639.6710404473
 20
119.3009317471
 11
622.8848630043
 21
90.9423888998
  0
LINE
  5
5BA
100
AcDbEntity
  8
ALL_DETAIL_ITEM
100
AcDbLine
 62
4
  6
CONTINUOUS
 10
639.6710404473
 20
119.3009317471
 11
656.4572178895
 21
90.9423888998
  0
LINE
  5
5BB
100
AcDbEntity
  8
ALL_DETAIL_ITEM
100
AcDbLine
 62
4
  6
CONTINUOUS
 10
668.7233857818
 20
121.9490871263
 11
668.7233857818
 21
92.1022748176
  0
LINE
  5
5BC
100
AcDbEntity
  8
ALL_DETAIL_ITEM
100
AcDbLine
 62
4
  6
CONTINUOUS
 10
640.9618545948
 20
123.0097658251
 11
659.0388461845
 21
92.4705235036
  0
LINE
  5
5BD
100
AcDbEntity
  8
ALL_DETAIL_ITEM
100
AcDbLine
 62
4
  6
CONTINUOUS
 10
671.7233857848
 20
121.9490871263
 11
671.7233857848
 21
93.6022748198
  0
LINE
  5
5BE
100
AcDbEntity
  8
ALL_DETAIL_ITEM
100
AcDbLine
 62
4
  6
CONTINUOUS
 10
713.0272737933
 20
90.8283055148
 11
694.9011295795
 21
121.2612405788
  0
LINE
  5
5BF
100
AcDbEntity
  8
ALL_DETAIL_ITEM
100
AcDbLine
 62
4
  6
CONTINUOUS
 10
714.3160027225
 20
94.5271784671
 11
697.4785874388
 21
122.7963988786
  0
LINE
  5
5C0
100
AcDbEntity
  8
ALL_DETAIL_ITEM
100
AcDbLine
 62
4
  6
CONTINUOUS
 10
714.3160027225
 20
94.5271784671
 11
731.1534180063
 21
122.7963988786
  0
LINE
  5
5C1
100
AcDbEntity
  8
ALL_DETAIL_ITEM
100
AcDbLine
 62
4
  6
CONTINUOUS
 10
715.6047316518
 20
90.8283055148
 11
733.7308758655
 21
121.2612405788
  0
LINE
  5
5C2
100
AcDbEntity
  8
ALL_DETAIL_ITEM
100
AcDbLine
 62
4
  6
CONTINUOUS
 10
670.2233857833
 20
90.6022748161
 11
697.101386017
 21
90.6022748161
  0
LINE
  5
5C3
100
AcDbEntity
  8
ALL_DETAIL_ITEM
100
AcDbLine
 62
4
  6
CONTINUOUS
 10
861.3090282715
 20
90.6029085593
 11
833.1922289605
 21
90.6029085593
  0
LINE
  5
5C4
100
AcDbEntity
  8
ALL_DETAIL_ITEM
100
AcDbLine
 62
4
  6
CONTINUOUS
 10
743.899339321
 20
90.6058816658
 11
773.9956792353
 21
90.6086995936
  0
LINE
  5
5C5
100
AcDbEntity
  8
ALL_DETAIL_ITEM
100
AcDbLine
 62
4
  6
CONTINUOUS
 10
792.378799762
 20
90.6128927791
 11
813.7808044068
 21
90.6128927791
  0
LINE
  5
5C6
100
AcDbEntity
  8
ALL_DETAIL_ITEM
100
AcDbLine
 62
4
  6
CONTINUOUS
 10
697.101386017
 20
93.6022748198
 11
671.7233857848
 21
93.6022748198
  0
LINE
  5
5C7
100
AcDbEntity
  8
ALL_DETAIL_ITEM
100
AcDbLine
 62
4
  6
CONTINUOUS
 10
861.3090282715
 20
93.6029085631
 11
833.1922289605
 21
93.6029085631
  0
LINE
  5
5C8
100
AcDbEntity
  8
ALL_DETAIL_ITEM
100
AcDbLine
 62
4
  6
CONTINUOUS
 10
745.3991988745
 20
93.6060221146
 11
773.9953983445
 21
93.6086995838
  0
LINE
  5
5C9
100
AcDbEntity
  8
ALL_DETAIL_ITEM
100
AcDbLine
 62
4
  6
CONTINUOUS
 10
813.7808044068
 20
93.6128927828
 11
792.378799762
 21
93.6128927828
  0
LINE
  5
5CA
100
AcDbEntity
  8
ALL_DETAIL_ITEM
100
AcDbLine
 62
4
  6
CONTINUOUS
 10
742.3991988745
 20
121.5178599008
 11
742.3991988745
 21
92.1058816613
  0
LINE
  5
5CB
100
AcDbEntity
  8
ALL_DETAIL_ITEM
100
AcDbLine
 62
4
  6
CONTINUOUS
 10
745.3991988745
 20
120.0178110886
 11
745.3991988745
 21
108.3109021223
  0
LINE
  5
5CC
100
AcDbEntity
  8
ALL_DETAIL_ITEM
100
AcDbLine
 62
4
  6
CONTINUOUS
 10
745.3991988745
 20
105.3109021193
 11
745.3991988745
 21
93.6060221146
  0
LINE
  5
5CD
100
AcDbEntity
  8
ALL_DETAIL_ITEM
100
AcDbLine
 62
4
  6
CONTINUOUS
 10
839.55269638
 20
105.3098642476
 11
861.3090282715
 21
105.3109048111
  0
LINE
  5
5CE
100
AcDbEntity
  8
ALL_DETAIL_ITEM
100
AcDbLine
 62
4
  6
CONTINUOUS
 10
745.3991988745
 20
105.3109021193
 11
772.5550243368
 21
105.3109021193
  0
LINE
  5
5CF
100
AcDbEntity
  8
ALL_DETAIL_ITEM
100
AcDbLine
 62
4
  6
CONTINUOUS
 10
861.3090282715
 20
108.3109048141
 11
839.55269638
 21
108.3098642506
  0
LINE
  5
5D0
100
AcDbEntity
  8
ALL_DETAIL_ITEM
100
AcDbLine
 62
4
  6
CONTINUOUS
 10
745.3991988745
 20
108.3109021223
 11
772.5550243368
 21
108.3109021223
  0
LINE
  5
5D1
100
AcDbEntity
  8
ALL_DETAIL_ITEM
100
AcDbLine
 62
4
  6
CONTINUOUS
 10
745.3991988745
 20
120.0178110886
 11
773.9972986548
 21
120.0168805088
  0
LINE
  5
5D2
100
AcDbEntity
  8
ALL_DETAIL_ITEM
100
AcDbLine
 62
4
  6
CONTINUOUS
 10
839.55269638
 20
120.0178604918
 11
866.2299365943
 21
120.0178604918
  0
LINE
  5
5D3
100
AcDbEntity
  8
ALL_DETAIL_ITEM
100
AcDbLine
 62
4
  6
CONTINUOUS
 10
743.899247686
 20
123.0178599016
 11
773.9973962748
 21
123.0168805111
  0
LINE
  5
5D4
100
AcDbEntity
  8
ALL_DETAIL_ITEM
100
AcDbLine
 62
4
  6
CONTINUOUS
 10
839.55269638
 20
123.0178604956
 11
866.2299365943
 21
123.0178604956
  0
LINE
  5
5D5
100
AcDbEntity
  8
ALL_DETAIL_ITEM
100
AcDbLine
 62
4
  6
CONTINUOUS
 10
784.1287969143
 20
97.2163526866
 11
784.1281916343
 21
121.9755860168
  0
LINE
  5
5D6
100
AcDbEntity
  8
ALL_DETAIL_ITEM
100
AcDbLine
 62
4
  6
CONTINUOUS
 10
787.1287969165
 20
97.2164260268
 11
787.1281916373
 21
121.9755860168
  0
LINE
  5
5D7
100
AcDbEntity
  8
ALL_DETAIL_ITEM
100
AcDbLine
 62
4
  6
CONTINUOUS
 10
819.0314125353
 20
121.9755860168
 11
819.0308072523
 21
97.2164260261
  0
LINE
  5
5D8
100
AcDbEntity
  8
ALL_DETAIL_ITEM
100
AcDbLine
 62
4
  6
CONTINUOUS
 10
822.0314125383
 20
121.9755860168
 11
822.0308072545
 21
97.2163526858
  0
LINE
  5
5D9
100
AcDbEntity
  8
ALL_DETAIL_ITEM
100
AcDbLine
 62
4
  6
CONTINUOUS
 10
831.3027084333
 20
111.9127429726
 11
831.3027084333
 21
116.4149817698
  0
LINE
  5
5DA
100
AcDbEntity
  8
ALL_DETAIL_ITEM
100
AcDbLine
 62
4
  6
CONTINUOUS
 10
834.302708437
 20
111.9127429726
 11
834.302708437
 21
116.4149817698
  0
LINE
  5
5DB
100
AcDbEntity
  8
ALL_DETAIL_ITEM
100
AcDbLine
 62
4
  6
CONTINUOUS
 10
866.5590162205
 20
101.7080260853
 11
866.5590162205
 21
97.2057872881
  0
LINE
  5
5DC
100
AcDbEntity
  8
ALL_DETAIL_ITEM
100
AcDbLine
 62
4
  6
CONTINUOUS
 10
869.5590162243
 20
101.7080260853
 11
869.5590162243
 21
97.2057872881
  0
ARC
  5
5DD
100
AcDbEntity
  8
ALL_DETAIL_ITEM
100
AcDbCircle
 62
4
  6
CONTINUOUS
 10
743.899198876
 20
92.1058816613
 40
1.5000000015
100
AcDbArc
 50
180.0
 51
270.0053646182
  0
ARC
  5
5DE
100
AcDbEntity
  8
ALL_DETAIL_ITEM
100
AcDbCircle
 62
4
  6
CONTINUOUS
 10
670.2233857833
 20
92.1022748176
 40
1.5000000015
100
AcDbArc
 50
180.0
 51
270.0
  0
ARC
  5
5DF
100
AcDbEntity
  8
ALL_DETAIL_ITEM
100
AcDbCircle
 62
4
  6
CONTINUOUS
 10
697.101386017
 20
92.1022748176
 40
1.5000000015
100
AcDbArc
 50
270.0
 51
90.0
  0
ARC
  5
5E0
100
AcDbEntity
  8
ALL_DETAIL_ITEM
100
AcDbCircle
 62
4
  6
CONTINUOUS
 10
714.3160027225
 20
91.5958846643
 40
1.5000000015
100
AcDbArc
 50
210.7784283087
 51
329.2215716913
  0
ARC
  5
5E1
100
AcDbEntity
  8
ALL_DETAIL_ITEM
100
AcDbCircle
 62
4
  6
CONTINUOUS
 10
621.5940488568
 20
91.7064562013
 40
1.5000000015
100
AcDbArc
 50
149.3775791193
 51
329.3775791193
  0
ARC
  5
5E2
100
AcDbEntity
  8
ALL_DETAIL_ITEM
100
AcDbCircle
 62
4
  6
CONTINUOUS
 10
657.748032037
 20
91.7064562013
 40
1.5000000015
100
AcDbArc
 50
210.6224208807
 51
30.6224208807
  0
ARC
  5
5E3
100
AcDbEntity
  8
ALL_DETAIL_ITEM
100
AcDbCircle
 62
4
  6
CONTINUOUS
 10
743.899198876
 20
121.5178599008
 40
1.5000000015
100
AcDbArc
 50
89.9981356008
 51
180.0
  0
ARC
  5
5E4
100
AcDbEntity
  8
ALL_DETAIL_ITEM
100
AcDbCircle
 62
4
  6
CONTINUOUS
 10
670.2233857833
 20
121.9490871263
 40
1.5000000015
100
AcDbArc
 50
0.0
 51
180.0
  0
ARC
  5
5E5
100
AcDbEntity
  8
ALL_DETAIL_ITEM
100
AcDbCircle
 62
4
  6
CONTINUOUS
 10
732.4421469363
 20
122.0288197283
 40
1.5000000015
100
AcDbArc
 50
329.2215716913
 51
149.2215716913
  0
ARC
  5
5E6
100
AcDbEntity
  8
ALL_DETAIL_ITEM
100
AcDbCircle
 62
4
  6
CONTINUOUS
 10
696.1898585088
 20
122.0288197283
 40
1.5000000015
100
AcDbArc
 50
30.7784283087
 51
210.7784283087
  0
ARC
  5
5E7
100
AcDbEntity
  8
ALL_DETAIL_ITEM
100
AcDbCircle
 62
4
  6
CONTINUOUS
 10
639.6710404473
 20
122.2456985228
 40
1.5000000015
100
AcDbArc
 50
30.6224208807
 51
149.3775791193
  0
ARC
  5
5E8
100
AcDbEntity
  8
ALL_DETAIL_ITEM
100
AcDbCircle
 62
4
  6
CONTINUOUS
 10
861.3090282715
 20
101.1029085631
 40
10.5000000038
100
AcDbArc
 50
270.0
 51
299.9998228245
  0
ARC
  5
5E9
100
AcDbEntity
  8
ALL_DETAIL_ITEM
100
AcDbCircle
 62
4
  6
CONTINUOUS
 10
861.3090282715
 20
97.8109048111
 40
10.5000000038
100
AcDbArc
 50
60.0001771755
 51
90.0000000001
  0
ARC
  5
5EA
100
AcDbEntity
  8
ALL_DETAIL_ITEM
100
AcDbCircle
 62
4
  6
CONTINUOUS
 10
792.378799762
 20
101.1082494083
 40
10.4953566293
100
AcDbArc
 50
239.9657832688
 51
270.0
  0
ARC
  5
5EB
100
AcDbEntity
  8
ALL_DETAIL_ITEM
100
AcDbCircle
 62
4
  6
CONTINUOUS
 10
813.7808044068
 20
101.1082494083
 40
10.4953566293
100
AcDbArc
 50
270.0
 51
300.0342167312
  0
ARC
  5
5EC
100
AcDbEntity
  8
ALL_DETAIL_ITEM
100
AcDbCircle
 62
4
  6
CONTINUOUS
 10
861.3090282715
 20
97.8109048111
 40
7.5
100
AcDbArc
 50
60.0001771755
 51
89.9999999999
  0
ARC
  5
5ED
100
AcDbEntity
  8
ALL_DETAIL_ITEM
100
AcDbCircle
 62
4
  6
CONTINUOUS
 10
861.3090282715
 20
101.1029085631
 40
7.5
100
AcDbArc
 50
270.0
 51
299.9998228245
  0
ARC
  5
5EE
100
AcDbEntity
  8
ALL_DETAIL_ITEM
100
AcDbCircle
 62
4
  6
CONTINUOUS
 10
813.7808044068
 20
101.1082494083
 40
7.4953566255
100
AcDbArc
 50
270.0
 51
300.0342167312
  0
ARC
  5
5EF
100
AcDbEntity
  8
ALL_DETAIL_ITEM
100
AcDbCircle
 62
4
  6
CONTINUOUS
 10
792.378799762
 20
101.1082494083
 40
7.4953566255
100
AcDbArc
 50
239.9657832688
 51
270.0
  0
ARC
  5
5F0
100
AcDbEntity
  8
ALL_DETAIL_ITEM
100
AcDbCircle
 62
4
  6
CONTINUOUS
 10
790.1287969158
 20
97.2164993671
 40
6.0000000038
100
AcDbArc
 50
180.0014006897
 51
239.9657832688
  0
ARC
  5
5F1
100
AcDbEntity
  8
ALL_DETAIL_ITEM
100
AcDbCircle
 62
4
  6
CONTINUOUS
 10
816.030807253
 20
97.2164993671
 40
6.0000000038
100
AcDbArc
 50
300.0342167312
 51
359.9985993027
  0
ARC
  5
5F2
100
AcDbEntity
  8
ALL_DETAIL_ITEM
100
AcDbCircle
 62
4
  6
CONTINUOUS
 10
863.5590162205
 20
97.2057872881
 40
6.0000000038
100
AcDbArc
 50
299.9998228245
 51
360.0
  0
ARC
  5
5F3
100
AcDbEntity
  8
ALL_DETAIL_ITEM
100
AcDbCircle
 62
4
  6
CONTINUOUS
 10
863.5590162205
 20
101.7080260853
 40
6.0000000038
100
AcDbArc
 50
0.0
 51
60.0001771755
  0
ARC
  5
5F4
100
AcDbEntity
  8
ALL_DETAIL_ITEM
100
AcDbCircle
 62
4
  6
CONTINUOUS
 10
816.030807253
 20
97.2164993671
 40
3.0
100
AcDbArc
 50
300.0342167312
 51
359.9985993006
  0
ARC
  5
5F5
100
AcDbEntity
  8
ALL_DETAIL_ITEM
100
AcDbCircle
 62
4
  6
CONTINUOUS
 10
790.1287969158
 20
97.2164993671
 40
3.0
100
AcDbArc
 50
180.0014006917
 51
239.9657832688
  0
ARC
  5
5F6
100
AcDbEntity
  8
ALL_DETAIL_ITEM
100
AcDbCircle
 62
4
  6
CONTINUOUS
 10
863.5590162205
 20
101.7080260853
 40
3.0
100
AcDbArc
 50
0.0
 51
60.0001771755
  0
ARC
  5
5F7
100
AcDbEntity
  8
ALL_DETAIL_ITEM
100
AcDbCircle
 62
4
  6
CONTINUOUS
 10
863.5590162205
 20
97.2057872881
 40
3.0
100
AcDbArc
 50
299.9998228245
 51
360.0
  0
ARC
  5
5F8
100
AcDbEntity
  8
ALL_DETAIL_ITEM
100
AcDbCircle
 62
4
  6
CONTINUOUS
 10
833.1922289605
 20
92.1029085616
 40
1.5000000015
100
AcDbArc
 50
90.0
 51
270.0
  0
ARC
  5
5F9
100
AcDbEntity
  8
ALL_DETAIL_ITEM
100
AcDbCircle
 62
4
  6
CONTINUOUS
 10
773.9955387903
 20
92.1086995891
 40
1.5000000015
100
AcDbArc
 50
270.0053646182
 51
90.0053646182
  0
ARC
  5
5FA
100
AcDbEntity
  8
ALL_DETAIL_ITEM
100
AcDbCircle
 62
4
  6
CONTINUOUS
 10
772.5550243368
 20
106.8109021208
 40
1.5000000015
100
AcDbArc
 50
270.0
 51
90.0
  0
ARC
  5
5FB
100
AcDbEntity
  8
ALL_DETAIL_ITEM
100
AcDbCircle
 62
4
  6
CONTINUOUS
 10
839.55269638
 20
112.5178604918
 40
10.5000000038
100
AcDbArc
 50
90.0
 51
119.9998227404
  0
ARC
  5
5FC
100
AcDbEntity
  8
ALL_DETAIL_ITEM
100
AcDbCircle
 62
4
  6
CONTINUOUS
 10
839.55269638
 20
115.8098642506
 40
10.5000000038
100
AcDbArc
 50
240.0001772596
 51
269.9999999996
  0
ARC
  5
5FD
100
AcDbEntity
  8
ALL_DETAIL_ITEM
100
AcDbCircle
 62
4
  6
CONTINUOUS
 10
839.55269638
 20
115.8098642506
 40
7.5
100
AcDbArc
 50
240.0001772596
 51
269.9999999998
  0
ARC
  5
5FE
100
AcDbEntity
  8
ALL_DETAIL_ITEM
100
AcDbCircle
 62
4
  6
CONTINUOUS
 10
839.55269638
 20
112.5178604918
 40
7.5
100
AcDbArc
 50
90.0
 51
119.9998227404
  0
ARC
  5
5FF
100
AcDbEntity
  8
ALL_DETAIL_ITEM
100
AcDbCircle
 62
4
  6
CONTINUOUS
 10
837.302708437
 20
116.4149817698
 40
6.0000000038
100
AcDbArc
 50
119.9998227404
 51
180.0
  0
ARC
  5
600
100
AcDbEntity
  8
ALL_DETAIL_ITEM
100
AcDbCircle
 62
4
  6
CONTINUOUS
 10
837.302708437
 20
111.9127429726
 40
6.0000000038
100
AcDbArc
 50
180.0
 51
240.0001772596
  0
ARC
  5
601
100
AcDbEntity
  8
ALL_DETAIL_ITEM
100
AcDbCircle
 62
4
  6
CONTINUOUS
 10
837.302708437
 20
111.9127429726
 40
3.0
100
AcDbArc
 50
180.0
 51
240.0001772596
  0
ARC
  5
602
100
AcDbEntity
  8
ALL_DETAIL_ITEM
100
AcDbCircle
 62
4
  6
CONTINUOUS
 10
837.302708437
 20
116.4149817698
 40
3.0
100
AcDbArc
 50
119.9998227404
 51
180.0
  0
ARC
  5
603
100
AcDbEntity
  8
ALL_DETAIL_ITEM
100
AcDbCircle
 62
4
  6
CONTINUOUS
 10
820.5314125368
 20
121.9755860168
 40
1.5000000015
100
AcDbArc
 50
0.0
 51
180.0
  0
ARC
  5
604
100
AcDbEntity
  8
ALL_DETAIL_ITEM
100
AcDbCircle
 62
4
  6
CONTINUOUS
 10
785.6281916358
 20
121.9755860168
 40
1.5000000015
100
AcDbArc
 50
0.0
 51
180.0
  0
ARC
  5
605
100
AcDbEntity
  8
ALL_DETAIL_ITEM
100
AcDbCircle
 62
4
  6
CONTINUOUS
 10
866.2299365943
 20
121.5178604941
 40
1.5000000015
100
AcDbArc
 50
270.0
 51
90.0
  0
ARC
  5
606
100
AcDbEntity
  8
ALL_DETAIL_ITEM
100
AcDbCircle
 62
4
  6
CONTINUOUS
 10
773.9973474648
 20
121.5168805096
 40
1.5000000015
100
AcDbArc
 50
269.9981356008
 51
89.9981356008
  0
LWPOLYLINE
  5
607
100
AcDbEntity
  8
ALL_DETAIL_ITEM
100
AcDbPolyline
 62
4
  6
CONTINUOUS
 90
21
 70
0
 10
639.6710404473
 20
123.7456985243
 10
639.8433813856
 20
123.7357745181
 10
640.0134397585
 20
123.7060953823
 10
640.178963232
 20
123.6571012533
 10
640.3377595344
 20
123.5893978278
 10
640.4877254921
 20
123.5038936508
 10
640.6268748845
 20
123.4017328159
 10
640.7533647508
 20
123.2842276659
 10
640.8655197991
 20
123.1530270417
 10
640.9618545948
 20
123.0097461343
 10
620.30323471
 20
92.4705210661
 10
638.3802263001
 20
123.0097461343
 10
638.4765610955
 20
123.1530270417
 10
638.5887161438
 20
123.2842276659
 10
638.7152060101
 20
123.4017328159
 10
638.8543554025
 20
123.5038936508
 10
639.0043213601
 20
123.5893978278
 10
639.1631176626
 20
123.6571012533
 10
639.3286411361
 20
123.7060953823
 10
639.498699509
 20
123.7357745181
 10
639.6710404473
 20
123.7456985243
  0
HATCH
  5
608
100
AcDbEntity
  8
ALL_DETAIL_ITEM
100
AcDbHatch
 62
4
  6
CONTINUOUS
 10
0.0
 20
0.0
 30
0.0
210
0.0
220
0.0
230
1.0
  2
SOLID
 70
1
 71
1
 91
1
 92
1
 93
20
 72
1
 10
639.6710404473
 20
123.7456985243
 11
639.8433813856
 21
123.7357745181
 72
1
 10
639.8433813856
 20
123.7357745181
 11
640.0134397585
 21
123.7060953823
 72
1
 10
640.0134397585
 20
123.7060953823
 11
640.178963232
 21
123.6571012533
 72
1
 10
640.178963232
 20
123.6571012533
 11
640.3377595344
 21
123.5893978278
 72
1
 10
640.3377595344
 20
123.5893978278
 11
640.4877254921
 21
123.5038936508
 72
1
 10
640.4877254921
 20
123.5038936508
 11
640.6268748845
 21
123.4017328159
 72
1
 10
640.6268748845
 20
123.4017328159
 11
640.7533647508
 21
123.2842276659
 72
1
 10
640.7533647508
 20
123.2842276659
 11
640.8655197991
 21
123.1530270417
 72
1
 10
640.8655197991
 20
123.1530270417
 11
640.9618545948
 21
123.0097461343
 72
1
 10
640.9618545948
 20
123.0097461343
 11
620.30323471
 21
92.4705210661
 72
1
 10
620.30323471
 20
92.4705210661
 11
638.3802263001
 21
123.0097461343
 72
1
 10
638.3802263001
 20
123.0097461343
 11
638.4765610955
 21
123.1530270417
 72
1
 10
638.4765610955
 20
123.1530270417
 11
638.5887161438
 21
123.2842276659
 72
1
 10
638.5887161438
 20
123.2842276659
 11
638.7152060101
 21
123.4017328159
 72
1
 10
638.7152060101
 20
123.4017328159
 11
638.8543554025
 21
123.5038936508
 72
1
 10
638.8543554025
 20
123.5038936508
 11
639.0043213601
 21
123.5893978278
 72
1
 10
639.0043213601
 20
123.5893978278
 11
639.1631176626
 21
123.6571012533
 72
1
 10
639.1631176626
 20
123.6571012533
 11
639.3286411361
 21
123.7060953823
 72
1
 10
639.3286411361
 20
123.7060953823
 11
639.498699509
 21
123.7357745181
 72
1
 10
639.498699509
 20
123.7357745181
 11
639.6710404473
 21
123.7456985243
 97
1
330
607
 75
0
 76
1
 98
1
 10
0.0
 20
0.0
  0
LWPOLYLINE
  5
609
100
AcDbEntity
  8
ALL_DETAIL_ITEM
100
AcDbPolyline
 62
4
  6
CONTINUOUS
 90
46
 70
0
 10
695.8981677153
 20
123.5001921713
 10
696.1012354512
 20
123.5262034774
 10
696.3059540669
 20
123.5243190878
 10
696.5085100421
 20
123.4945726524
 10
696.7051301421
 20
123.4375362179
 10
696.8921517065
 20
123.3542529286
 10
697.0660908775
 20
123.2462706759
 10
697.2237074973
 20
123.1156420985
 10
697.3620654665
 20
122.9647226833
 10
697.4785874381
 20
122.7964063144
 10
714.3160027225
 20
94.5271784671
 10
733.7308758656
 20
121.2612345064
 10
715.6047316518
 20
90.8283092002
 10
715.5082826007
 20
90.6856676393
 10
715.3961252059
 20
90.5550390619
 10
715.2697371466
 20
90.4381396085
 10
715.1307835913
 20
90.3364835208
 10
714.9810952597
 20
90.2513831416
 10
714.8226443026
 20
90.184049864
 10
714.6575183188
 20
90.1352912838
 10
714.4878928509
 20
90.105780397
 10
714.3160027225
 20
90.0958846628
 10
714.1441125941
 20
90.105780397
 10
713.9744871263
 20
90.1352912838
 10
713.8093611425
 20
90.184049864
 10
713.6509101854
 20
90.2513831416
 10
713.5012218537
 20
90.3364835208
 10
713.3622682985
 20
90.4381396085
 10
713.2358802391
 20
90.5550390619
 10
713.1237228444
 20
90.6856676393
 10
713.0272737932
 20
90.8283092002
 10
694.9011295795
 20
121.2612345064
 10
694.8086141895
 20
121.443885696
 10
694.7418287678
 20
121.6374057756
 10
694.7020174004
 20
121.8382278647
 10
694.6899216977
 20
122.0425831843
 10
694.7057669799
 20
122.2467029551
 10
694.7492580792
 20
122.4467510985
 10
694.8195848388
 20
122.639026135
 10
694.9154372042
 20
122.8199275343
 10
695.0350296272
 20
122.9860903151
 10
695.1761343273
 20
123.1344186946
 10
695.3361227908
 20
123.262153388
 10
695.5120147354
 20
123.3669389084
 10
695.700533627
 20
123.4467562669
 10
695.8981677153
 20
123.5001921713
  0
HATCH
  5
60A
100
AcDbEntity
  8
ALL_DETAIL_ITEM
100
AcDbHatch
 62
4
  6
CONTINUOUS
 10
0.0
 20
0.0
 30
0.0
210
0.0
220
0.0
230
1.0
  2
SOLID
 70
1
 71
1
 91
1
 92
1
 93
45
 72
1
 10
695.8981677153
 20
123.5001921713
 11
696.1012354512
 21
123.5262034774
 72
1
 10
696.1012354512
 20
123.5262034774
 11
696.3059540669
 21
123.5243190878
 72
1
 10
696.3059540669
 20
123.5243190878
 11
696.5085100421
 21
123.4945726524
 72
1
 10
696.5085100421
 20
123.4945726524
 11
696.7051301421
 21
123.4375362179
 72
1
 10
696.7051301421
 20
123.4375362179
 11
696.8921517065
 21
123.3542529286
 72
1
 10
696.8921517065
 20
123.3542529286
 11
697.0660908775
 21
123.2462706759
 72
1
 10
697.0660908775
 20
123.2462706759
 11
697.2237074973
 21
123.1156420985
 72
1
 10
697.2237074973
 20
123.1156420985
 11
697.3620654665
 21
122.9647226833
 72
1
 10
697.3620654665
 20
122.9647226833
 11
697.4785874381
 21
122.7964063144
 72
1
 10
697.4785874381
 20
122.7964063144
 11
714.3160027225
 21
94.5271784671
 72
1
 10
714.3160027225
 20
94.5271784671
 11
733.7308758656
 21
121.2612345064
 72
1
 10
733.7308758656
 20
121.2612345064
 11
715.6047316518
 21
90.8283092002
 72
1
 10
715.6047316518
 20
90.8283092002
 11
715.5082826007
 21
90.6856676393
 72
1
 10
715.5082826007
 20
90.6856676393
 11
715.3961252059
 21
90.5550390619
 72
1
 10
715.3961252059
 20
90.5550390619
 11
715.2697371466
 21
90.4381396085
 72
1
 10
715.2697371466
 20
90.4381396085
 11
715.1307835913
 21
90.3364835208
 72
1
 10
715.1307835913
 20
90.3364835208
 11
714.9810952597
 21
90.2513831416
 72
1
 10
714.9810952597
 20
90.2513831416
 11
714.8226443026
 21
90.184049864
 72
1
 10
714.8226443026
 20
90.184049864
 11
714.6575183188
 21
90.1352912838
 72
1
 10
714.6575183188
 20
90.1352912838
 11
714.4878928509
 21
90.105780397
 72
1
 10
714.4878928509
 20
90.105780397
 11
714.3160027225
 21
90.0958846628
 72
1
 10
714.3160027225
 20
90.0958846628
 11
714.1441125941
 21
90.105780397
 72
1
 10
714.1441125941
 20
90.105780397
 11
713.9744871263
 21
90.1352912838
 72
1
 10
713.9744871263
 20
90.1352912838
 11
713.8093611425
 21
90.184049864
 72
1
 10
713.8093611425
 20
90.184049864
 11
713.6509101854
 21
90.2513831416
 72
1
 10
713.6509101854
 20
90.2513831416
 11
713.5012218537
 21
90.3364835208
 72
1
 10
713.5012218537
 20
90.3364835208
 11
713.3622682985
 21
90.4381396085
 72
1
 10
713.3622682985
 20
90.4381396085
 11
713.2358802391
 21
90.5550390619
 72
1
 10
713.2358802391
 20
90.5550390619
 11
713.1237228444
 21
90.6856676393
 72
1
 10
713.1237228444
 20
90.6856676393
 11
713.0272737932
 21
90.8283092002
 72
1
 10
713.0272737932
 20
90.8283092002
 11
694.9011295795
 21
121.2612345064
 72
1
 10
694.9011295795
 20
121.2612345064
 11
694.8086141895
 21
121.443885696
 72
1
 10
694.8086141895
 20
121.443885696
 11
694.7418287678
 21
121.6374057756
 72
1
 10
694.7418287678
 20
121.6374057756
 11
694.7020174004
 21
121.8382278647
 72
1
 10
694.7020174004
 20
121.8382278647
 11
694.6899216977
 21
122.0425831843
 72
1
 10
694.6899216977
 20
122.0425831843
 11
694.7057669799
 21
122.2467029551
 72
1
 10
694.7057669799
 20
122.2467029551
 11
694.7492580792
 21
122.4467510985
 72
1
 10
694.7492580792
 20
122.4467510985
 11
694.8195848388
 21
122.639026135
 72
1
 10
694.8195848388
 20
122.639026135
 11
694.9154372042
 21
122.8199275343
 72
1
 10
694.9154372042
 20
122.8199275343
 11
695.0350296272
 21
122.9860903151
 72
1
 10
695.0350296272
 20
122.9860903151
 11
695.1761343273
 21
123.1344186946
 72
1
 10
695.1761343273
 20
123.1344186946
 11
695.3361227908
 21
123.262153388
 72
1
 10
695.3361227908
 20
123.262153388
 11
695.5120147354
 21
123.3669389084
 72
1
 10
695.5120147354
 20
123.3669389084
 11
695.700533627
 21
123.4467562669
 72
1
 10
695.700533627
 20
123.4467562669
 11
695.8981677153
 21
123.5001921713
 97
1
330
609
 75
0
 76
1
 98
1
 10
0.0
 20
0.0
  0
LWPOLYLINE
  5
60B
100
AcDbEntity
  8
ALL_DETAIL_ITEM
100
AcDbPolyline
 62
4
  6
CONTINUOUS
 90
19
 70
0
 10
732.5307699939
 20
123.5262034774
 10
732.7338377298
 20
123.5001921713
 10
732.9314718181
 20
123.4467562669
 10
733.1199907097
 20
123.3669389084
 10
733.2958826543
 20
123.262153388
 10
733.4558711178
 20
123.1344186946
 10
733.5969758179
 20
122.9860903151
 10
733.7165682409
 20
122.8199275343
 10
733.8124206063
 20
122.639026135
 10
714.3160027225
 20
94.5271784671
 10
731.153418007
 20
122.7964063144
 10
731.2699399785
 20
122.9647226833
 10
731.4082979478
 20
123.1156420985
 10
731.5659145676
 20
123.2462706759
 10
731.7398537385
 20
123.3542529286
 10
731.926875303
 20
123.4375362179
 10
732.123495403
 20
123.4945726524
 10
732.3260513782
 20
123.5243190878
 10
732.5307699939
 20
123.5262034774
  0
HATCH
  5
60C
100
AcDbEntity
  8
ALL_DETAIL_ITEM
100
AcDbHatch
 62
4
  6
CONTINUOUS
 10
0.0
 20
0.0
 30
0.0
210
0.0
220
0.0
230
1.0
  2
SOLID
 70
1
 71
1
 91
1
 92
1
 93
18
 72
1
 10
732.5307699939
 20
123.5262034774
 11
732.7338377298
 21
123.5001921713
 72
1
 10
732.7338377298
 20
123.5001921713
 11
732.9314718181
 21
123.4467562669
 72
1
 10
732.9314718181
 20
123.4467562669
 11
733.1199907097
 21
123.3669389084
 72
1
 10
733.1199907097
 20
123.3669389084
 11
733.2958826543
 21
123.262153388
 72
1
 10
733.2958826543
 20
123.262153388
 11
733.4558711178
 21
123.1344186946
 72
1
 10
733.4558711178
 20
123.1344186946
 11
733.5969758179
 21
122.9860903151
 72
1
 10
733.5969758179
 20
122.9860903151
 11
733.7165682409
 21
122.8199275343
 72
1
 10
733.7165682409
 20
122.8199275343
 11
733.8124206063
 21
122.639026135
 72
1
 10
733.8124206063
 20
122.639026135
 11
714.3160027225
 21
94.5271784671
 72
1
 10
714.3160027225
 20
94.5271784671
 11
731.153418007
 21
122.7964063144
 72
1
 10
731.153418007
 20
122.7964063144
 11
731.2699399785
 21
122.9647226833
 72
1
 10
731.2699399785
 20
122.9647226833
 11
731.4082979478
 21
123.1156420985
 72
1
 10
731.4082979478
 20
123.1156420985
 11
731.5659145676
 21
123.2462706759
 72
1
 10
731.5659145676
 20
123.2462706759
 11
731.7398537385
 21
123.3542529286
 72
1
 10
731.7398537385
 20
123.3542529286
 11
731.926875303
 21
123.4375362179
 72
1
 10
731.926875303
 20
123.4375362179
 11
732.123495403
 21
123.4945726524
 72
1
 10
732.123495403
 20
123.4945726524
 11
732.3260513782
 21
123.5243190878
 72
1
 10
732.3260513782
 20
123.5243190878
 11
732.5307699939
 21
123.5262034774
 97
1
330
60B
 75
0
 76
1
 98
1
 10
0.0
 20
0.0
  0
LWPOLYLINE
  5
60D
100
AcDbEntity
  8
ALL_DETAIL_ITEM
100
AcDbPolyline
 62
4
  6
CONTINUOUS
 90
27
 70
0
 10
785.6281916358
 20
123.4755941574
 10
785.8239809243
 20
123.4627399285
 10
786.0164202038
 20
123.4244800901
 10
786.2022167849
 20
123.3614203389
 10
786.3781916365
 20
123.274637469
 10
786.5413337802
 20
123.1656120721
 10
786.6888518086
 20
123.0362621876
 10
786.8182216474
 20
122.8887414036
 10
786.9272297428
 20
122.7255734562
 10
787.0140109359
 20
122.5496185795
 10
787.0770803767
 20
122.3638043074
 10
787.1153589293
 20
122.1713610219
 10
787.1281916373
 20
121.9755864049
 10
784.1287969143
 20
97.2163562139
 10
784.1281916343
 20
121.9755864049
 10
784.1410243422
 20
122.1713610219
 10
784.1793028949
 20
122.3638043074
 10
784.2423723356
 20
122.5496185795
 10
784.3291535288
 20
122.7255734562
 10
784.4381616242
 20
122.8887414036
 10
784.5675314629
 20
123.0362621876
 10
784.7150494914
 20
123.1656120721
 10
784.878191635
 20
123.274637469
 10
785.0541664867
 20
123.3614203389
 10
785.2399630677
 20
123.4244800901
 10
785.4324023473
 20
123.4627399285
 10
785.6281916358
 20
123.4755941574
  0
HATCH
  5
60E
100
AcDbEntity
  8
ALL_DETAIL_ITEM
100
AcDbHatch
 62
4
  6
CONTINUOUS
 10
0.0
 20
0.0
 30
0.0
210
0.0
220
0.0
230
1.0
  2
SOLID
 70
1
 71
1
 91
1
 92
1
 93
26
 72
1
 10
785.6281916358
 20
123.4755941574
 11
785.8239809243
 21
123.4627399285
 72
1
 10
785.8239809243
 20
123.4627399285
 11
786.0164202038
 21
123.4244800901
 72
1
 10
786.0164202038
 20
123.4244800901
 11
786.2022167849
 21
123.3614203389
 72
1
 10
786.2022167849
 20
123.3614203389
 11
786.3781916365
 21
123.274637469
 72
1
 10
786.3781916365
 20
123.274637469
 11
786.5413337802
 21
123.1656120721
 72
1
 10
786.5413337802
 20
123.1656120721
 11
786.6888518086
 21
123.0362621876
 72
1
 10
786.6888518086
 20
123.0362621876
 11
786.8182216474
 21
122.8887414036
 72
1
 10
786.8182216474
 20
122.8887414036
 11
786.9272297428
 21
122.7255734562
 72
1
 10
786.9272297428
 20
122.7255734562
 11
787.0140109359
 21
122.5496185795
 72
1
 10
787.0140109359
 20
122.5496185795
 11
787.0770803767
 21
122.3638043074
 72
1
 10
787.0770803767
 20
122.3638043074
 11
787.1153589293
 21
122.1713610219
 72
1
 10
787.1153589293
 20
122.1713610219
 11
787.1281916373
 21
121.9755864049
 72
1
 10
787.1281916373
 20
121.9755864049
 11
784.1287969143
 21
97.2163562139
 72
1
 10
784.1287969143
 20
97.2163562139
 11
784.1281916343
 21
121.9755864049
 72
1
 10
784.1281916343
 20
121.9755864049
 11
784.1410243422
 21
122.1713610219
 72
1
 10
784.1410243422
 20
122.1713610219
 11
784.1793028949
 21
122.3638043074
 72
1
 10
784.1793028949
 20
122.3638043074
 11
784.2423723356
 21
122.5496185795
 72
1
 10
784.2423723356
 20
122.5496185795
 11
784.3291535288
 21
122.7255734562
 72
1
 10
784.3291535288
 20
122.7255734562
 11
784.4381616242
 21
122.8887414036
 72
1
 10
784.4381616242
 20
122.8887414036
 11
784.5675314629
 21
123.0362621876
 72
1
 10
784.5675314629
 20
123.0362621876
 11
784.7150494914
 21
123.1656120721
 72
1
 10
784.7150494914
 20
123.1656120721
 11
784.878191635
 21
123.274637469
 72
1
 10
784.878191635
 20
123.274637469
 11
785.0541664867
 21
123.3614203389
 72
1
 10
785.0541664867
 20
123.3614203389
 11
785.2399630677
 21
123.4244800901
 72
1
 10
785.2399630677
 20
123.4244800901
 11
785.4324023473
 21
123.4627399285
 72
1
 10
785.4324023473
 20
123.4627399285
 11
785.6281916358
 21
123.4755941574
 97
1
330
60D
 75
0
 76
1
 98
1
 10
0.0
 20
0.0
  0
LWPOLYLINE
  5
60F
100
AcDbEntity
  8
ALL_DETAIL_ITEM
100
AcDbPolyline
 62
4
  6
CONTINUOUS
 90
50
 70
0
 10
820.5314125368
 20
123.4755941574
 10
820.7272018253
 20
123.4627399285
 10
820.9196411048
 20
123.4244800901
 10
821.1054376859
 20
123.3614203389
 10
821.2814125375
 20
123.274637469
 10
821.4445546812
 20
123.1656120721
 10
821.5920727096
 20
123.0362621876
 10
821.7214425484
 20
122.8887414036
 10
821.8304506438
 20
122.7255734562
 10
821.9172318369
 20
122.5496185795
 10
821.9803012777
 20
122.3638043074
 10
822.0185798303
 20
122.1713610219
 10
822.0314125383
 20
121.9755864049
 10
822.030807255
 20
97.2163562139
 10
822.0079897488
 20
96.6937409548
 10
821.9397362324
 20
96.1750627239
 10
821.8265655399
 20
95.664359499
 10
821.6693379471
 20
95.165400059
 10
821.4692486316
 20
94.6820541327
 10
821.2278185877
 20
94.2179895498
 10
815.9328790989
 20
93.9285002011
 10
816.3471713106
 20
94.0659260409
 10
816.7527599347
 20
94.2272768984
 10
817.1482694562
 20
94.4119470769
 10
817.5323585426
 20
94.6193308797
 10
817.752876581
 20
94.7599871016
 10
817.9603041775
 20
94.9193189703
 10
818.1530645555
 20
95.0961150923
 10
818.3296924321
 20
95.2890294752
 10
818.4888451571
 20
95.4966151769
 10
818.6293129187
 20
95.7172570064
 10
818.7500279406
 20
95.9492724729
 10
818.8500725983
 20
96.1909454361
 10
818.9286863946
 20
96.4404251561
 10
818.9852717408
 20
96.6957935935
 10
819.0193984991
 20
96.9550990591
 10
819.0308072523
 20
97.2164235135
 10
819.0314125353
 20
121.9755864049
 10
819.0442452432
 20
122.1713610219
 10
819.0825237959
 20
122.3638043074
 10
819.1455932366
 20
122.5496185795
 10
819.2323744298
 20
122.7255734562
 10
819.3413825252
 20
122.8887414036
 10
819.4707523639
 20
123.0362621876
 10
819.6182703924
 20
123.1656120721
 10
819.781412536
 20
123.274637469
 10
819.9573873877
 20
123.3614203389
 10
820.1431839687
 20
123.4244800901
 10
820.3356232483
 20
123.4627399285
 10
820.5314125368
 20
123.4755941574
  0
HATCH
  5
610
100
AcDbEntity
  8
ALL_DETAIL_ITEM
100
AcDbHatch
 62
4
  6
CONTINUOUS
 10
0.0
 20
0.0
 30
0.0
210
0.0
220
0.0
230
1.0
  2
SOLID
 70
1
 71
1
 91
1
 92
1
 93
49
 72
1
 10
820.5314125368
 20
123.4755941574
 11
820.7272018253
 21
123.4627399285
 72
1
 10
820.7272018253
 20
123.4627399285
 11
820.9196411048
 21
123.4244800901
 72
1
 10
820.9196411048
 20
123.4244800901
 11
821.1054376859
 21
123.3614203389
 72
1
 10
821.1054376859
 20
123.3614203389
 11
821.2814125375
 21
123.274637469
 72
1
 10
821.2814125375
 20
123.274637469
 11
821.4445546812
 21
123.1656120721
 72
1
 10
821.4445546812
 20
123.1656120721
 11
821.5920727096
 21
123.0362621876
 72
1
 10
821.5920727096
 20
123.0362621876
 11
821.7214425484
 21
122.8887414036
 72
1
 10
821.7214425484
 20
122.8887414036
 11
821.8304506438
 21
122.7255734562
 72
1
 10
821.8304506438
 20
122.7255734562
 11
821.9172318369
 21
122.5496185795
 72
1
 10
821.9172318369
 20
122.5496185795
 11
821.9803012777
 21
122.3638043074
 72
1
 10
821.9803012777
 20
122.3638043074
 11
822.0185798303
 21
122.1713610219
 72
1
 10
822.0185798303
 20
122.1713610219
 11
822.0314125383
 21
121.9755864049
 72
1
 10
822.0314125383
 20
121.9755864049
 11
822.030807255
 21
97.2163562139
 72
1
 10
822.030807255
 20
97.2163562139
 11
822.0079897488
 21
96.6937409548
 72
1
 10
822.0079897488
 20
96.6937409548
 11
821.9397362324
 21
96.1750627239
 72
1
 10
821.9397362324
 20
96.1750627239
 11
821.8265655399
 21
95.664359499
 72
1
 10
821.8265655399
 20
95.664359499
 11
821.6693379471
 21
95.165400059
 72
1
 10
821.6693379471
 20
95.165400059
 11
821.4692486316
 21
94.6820541327
 72
1
 10
821.4692486316
 20
94.6820541327
 11
821.2278185877
 21
94.2179895498
 72
1
 10
821.2278185877
 20
94.2179895498
 11
815.9328790989
 21
93.9285002011
 72
1
 10
815.9328790989
 20
93.9285002011
 11
816.3471713106
 21
94.0659260409
 72
1
 10
816.3471713106
 20
94.0659260409
 11
816.7527599347
 21
94.2272768984
 72
1
 10
816.7527599347
 20
94.2272768984
 11
817.1482694562
 21
94.4119470769
 72
1
 10
817.1482694562
 20
94.4119470769
 11
817.5323585426
 21
94.6193308797
 72
1
 10
817.5323585426
 20
94.6193308797
 11
817.752876581
 21
94.7599871016
 72
1
 10
817.752876581
 20
94.7599871016
 11
817.9603041775
 21
94.9193189703
 72
1
 10
817.9603041775
 20
94.9193189703
 11
818.1530645555
 21
95.0961150923
 72
1
 10
818.1530645555
 20
95.0961150923
 11
818.3296924321
 21
95.2890294752
 72
1
 10
818.3296924321
 20
95.2890294752
 11
818.4888451571
 21
95.4966151769
 72
1
 10
818.4888451571
 20
95.4966151769
 11
818.6293129187
 21
95.7172570064
 72
1
 10
818.6293129187
 20
95.7172570064
 11
818.7500279406
 21
95.9492724729
 72
1
 10
818.7500279406
 20
95.9492724729
 11
818.8500725983
 21
96.1909454361
 72
1
 10
818.8500725983
 20
96.1909454361
 11
818.9286863946
 21
96.4404251561
 72
1
 10
818.9286863946
 20
96.4404251561
 11
818.9852717408
 21
96.6957935935
 72
1
 10
818.9852717408
 20
96.6957935935
 11
819.0193984991
 21
96.9550990591
 72
1
 10
819.0193984991
 20
96.9550990591
 11
819.0308072523
 21
97.2164235135
 72
1
 10
819.0308072523
 20
97.2164235135
 11
819.0314125353
 21
121.9755864049
 72
1
 10
819.0314125353
 20
121.9755864049
 11
819.0442452432
 21
122.1713610219
 72
1
 10
819.0442452432
 20
122.1713610219
 11
819.0825237959
 21
122.3638043074
 72
1
 10
819.0825237959
 20
122.3638043074
 11
819.1455932366
 21
122.5496185795
 72
1
 10
819.1455932366
 20
122.5496185795
 11
819.2323744298
 21
122.7255734562
 72
1
 10
819.2323744298
 20
122.7255734562
 11
819.3413825252
 21
122.8887414036
 72
1
 10
819.3413825252
 20
122.8887414036
 11
819.4707523639
 21
123.0362621876
 72
1
 10
819.4707523639
 20
123.0362621876
 11
819.6182703924
 21
123.1656120721
 72
1
 10
819.6182703924
 20
123.1656120721
 11
819.781412536
 21
123.274637469
 72
1
 10
819.781412536
 20
123.274637469
 11
819.9573873877
 21
123.3614203389
 72
1
 10
819.9573873877
 20
123.3614203389
 11
820.1431839687
 21
123.4244800901
 72
1
 10
820.1431839687
 20
123.4244800901
 11
820.3356232483
 21
123.4627399285
 72
1
 10
820.3356232483
 20
123.4627399285
 11
820.5314125368
 21
123.4755941574
 97
1
330
60F
 75
0
 76
1
 98
1
 10
0.0
 20
0.0
  0
LWPOLYLINE
  5
611
100
AcDbEntity
  8
ALL_DETAIL_ITEM
100
AcDbPolyline
 62
4
  6
CONTINUOUS
 90
27
 70
0
 10
670.2233857833
 20
123.4490871278
 10
670.4191750718
 20
123.436257525
 10
670.6116143513
 20
123.3979640368
 10
670.7974109324
 20
123.3349042856
 10
670.973385784
 20
123.2481214157
 10
671.1365279277
 20
123.1391296686
 10
671.2840459561
 20
123.0097461343
 10
671.4134157949
 20
122.8622253503
 10
671.5224238903
 20
122.6990910527
 10
671.6092050834
 20
122.5231025262
 10
671.6722745242
 20
122.3373219039
 10
671.7105530768
 20
122.1448786184
 10
671.7233857848
 20
121.9490703515
 10
668.7233857818
 20
92.102291153
 10
668.7233857818
 20
121.9490703515
 10
668.7362184897
 20
122.1448786184
 10
668.7744970424
 20
122.3373219039
 10
668.8375664831
 20
122.5231025262
 10
668.9243476763
 20
122.6990910527
 10
669.0333557717
 20
122.8622253503
 10
669.1627256104
 20
123.0097461343
 10
669.3102436389
 20
123.1391296686
 10
669.4733857825
 20
123.2481214157
 10
669.6493606342
 20
123.3349042856
 10
669.8351572152
 20
123.3979640368
 10
670.0275964948
 20
123.436257525
 10
670.2233857833
 20
123.4490871278
  0
HATCH
  5
612
100
AcDbEntity
  8
ALL_DETAIL_ITEM
100
AcDbHatch
 62
4
  6
CONTINUOUS
 10
0.0
 20
0.0
 30
0.0
210
0.0
220
0.0
230
1.0
  2
SOLID
 70
1
 71
1
 91
1
 92
1
 93
26
 72
1
 10
670.2233857833
 20
123.4490871278
 11
670.4191750718
 21
123.436257525
 72
1
 10
670.4191750718
 20
123.436257525
 11
670.6116143513
 21
123.3979640368
 72
1
 10
670.6116143513
 20
123.3979640368
 11
670.7974109324
 21
123.3349042856
 72
1
 10
670.7974109324
 20
123.3349042856
 11
670.973385784
 21
123.2481214157
 72
1
 10
670.973385784
 20
123.2481214157
 11
671.1365279277
 21
123.1391296686
 72
1
 10
671.1365279277
 20
123.1391296686
 11
671.2840459561
 21
123.0097461343
 72
1
 10
671.2840459561
 20
123.0097461343
 11
671.4134157949
 21
122.8622253503
 72
1
 10
671.4134157949
 20
122.8622253503
 11
671.5224238903
 21
122.6990910527
 72
1
 10
671.5224238903
 20
122.6990910527
 11
671.6092050834
 21
122.5231025262
 72
1
 10
671.6092050834
 20
122.5231025262
 11
671.6722745242
 21
122.3373219039
 72
1
 10
671.6722745242
 20
122.3373219039
 11
671.7105530768
 21
122.1448786184
 72
1
 10
671.7105530768
 20
122.1448786184
 11
671.7233857848
 21
121.9490703515
 72
1
 10
671.7233857848
 20
121.9490703515
 11
668.7233857818
 21
92.102291153
 72
1
 10
668.7233857818
 20
92.102291153
 11
668.7233857818
 21
121.9490703515
 72
1
 10
668.7233857818
 20
121.9490703515
 11
668.7362184897
 21
122.1448786184
 72
1
 10
668.7362184897
 20
122.1448786184
 11
668.7744970424
 21
122.3373219039
 72
1
 10
668.7744970424
 20
122.3373219039
 11
668.8375664831
 21
122.5231025262
 72
1
 10
668.8375664831
 20
122.5231025262
 11
668.9243476763
 21
122.6990910527
 72
1
 10
668.9243476763
 20
122.6990910527
 11
669.0333557717
 21
122.8622253503
 72
1
 10
669.0333557717
 20
122.8622253503
 11
669.1627256104
 21
123.0097461343
 72
1
 10
669.1627256104
 20
123.0097461343
 11
669.3102436389
 21
123.1391296686
 72
1
 10
669.3102436389
 20
123.1391296686
 11
669.4733857825
 21
123.2481214157
 72
1
 10
669.4733857825
 20
123.2481214157
 11
669.6493606342
 21
123.3349042856
 72
1
 10
669.6493606342
 20
123.3349042856
 11
669.8351572152
 21
123.3979640368
 72
1
 10
669.8351572152
 20
123.3979640368
 11
670.0275964948
 21
123.436257525
 72
1
 10
670.0275964948
 20
123.436257525
 11
670.2233857833
 21
123.4490871278
 97
1
330
611
 75
0
 76
1
 98
1
 10
0.0
 20
0.0
  0
LWPOLYLINE
  5
613
100
AcDbEntity
  8
ALL_DETAIL_ITEM
100
AcDbPolyline
 62
4
  6
CONTINUOUS
 90
32
 70
0
 10
743.7424514874
 20
123.0096475066
 10
743.899247686
 20
123.0178557394
 10
773.9973962746
 20
123.0168805103
 10
774.1931851455
 20
123.0040414314
 10
774.3856231793
 20
122.9657566168
 10
774.571417708
 20
122.9026811303
 10
774.7473897357
 20
122.8158942109
 10
774.9105283322
 20
122.706880807
 10
775.0580421508
 20
122.5775061681
 10
775.1874071893
 20
122.42998393
 10
775.296409976
 20
122.2668382393
 10
775.3831854429
 20
122.090860564
 10
775.4462488378
 20
121.9050619307
 10
775.4845211285
 20
121.7126214057
 10
775.4973474655
 20
121.5168316997
 10
745.3991988745
 20
120.0178110886
 10
742.3991988745
 20
92.1058816613
 10
742.3991988745
 20
121.5178479869
 10
742.4074163716
 20
121.674655832
 10
742.4319788266
 20
121.8297338031
 10
742.4726171168
 20
121.981394677
 10
742.5288859823
 20
122.1279767567
 10
742.6001689041
 20
122.2678686881
 10
742.6856848593
 20
122.3995535753
 10
742.7844968782
 20
122.5215727385
 10
742.8955223111
 20
122.6325945587
 10
743.0175446897
 20
122.7314026072
 10
743.1492270558
 20
122.816899051
 10
743.2891266103
 20
122.8881926469
 10
743.4357105209
 20
122.9444567427
 10
743.5873727171
 20
122.9850900979
 10
743.7424514874
 20
123.0096475066
  0
HATCH
  5
614
100
AcDbEntity
  8
ALL_DETAIL_ITEM
100
AcDbHatch
 62
4
  6
CONTINUOUS
 10
0.0
 20
0.0
 30
0.0
210
0.0
220
0.0
230
1.0
  2
SOLID
 70
1
 71
1
 91
1
 92
1
 93
31
 72
1
 10
743.7424514874
 20
123.0096475066
 11
743.899247686
 21
123.0178557394
 72
1
 10
743.899247686
 20
123.0178557394
 11
773.9973962746
 21
123.0168805103
 72
1
 10
773.9973962746
 20
123.0168805103
 11
774.1931851455
 21
123.0040414314
 72
1
 10
774.1931851455
 20
123.0040414314
 11
774.3856231793
 21
122.9657566168
 72
1
 10
774.3856231793
 20
122.9657566168
 11
774.571417708
 21
122.9026811303
 72
1
 10
774.571417708
 20
122.9026811303
 11
774.7473897357
 21
122.8158942109
 72
1
 10
774.7473897357
 20
122.8158942109
 11
774.9105283322
 21
122.706880807
 72
1
 10
774.9105283322
 20
122.706880807
 11
775.0580421508
 21
122.5775061681
 72
1
 10
775.0580421508
 20
122.5775061681
 11
775.1874071893
 21
122.42998393
 72
1
 10
775.1874071893
 20
122.42998393
 11
775.296409976
 21
122.2668382393
 72
1
 10
775.296409976
 20
122.2668382393
 11
775.3831854429
 21
122.090860564
 72
1
 10
775.3831854429
 20
122.090860564
 11
775.4462488378
 21
121.9050619307
 72
1
 10
775.4462488378
 20
121.9050619307
 11
775.4845211285
 21
121.7126214057
 72
1
 10
775.4845211285
 20
121.7126214057
 11
775.4973474655
 21
121.5168316997
 72
1
 10
775.4973474655
 20
121.5168316997
 11
745.3991988745
 21
120.0178110886
 72
1
 10
745.3991988745
 20
120.0178110886
 11
742.3991988745
 21
92.1058816613
 72
1
 10
742.3991988745
 20
92.1058816613
 11
742.3991988745
 21
121.5178479869
 72
1
 10
742.3991988745
 20
121.5178479869
 11
742.4074163716
 21
121.674655832
 72
1
 10
742.4074163716
 20
121.674655832
 11
742.4319788266
 21
121.8297338031
 72
1
 10
742.4319788266
 20
121.8297338031
 11
742.4726171168
 21
121.981394677
 72
1
 10
742.4726171168
 20
121.981394677
 11
742.5288859823
 21
122.1279767567
 72
1
 10
742.5288859823
 20
122.1279767567
 11
742.6001689041
 21
122.2678686881
 72
1
 10
742.6001689041
 20
122.2678686881
 11
742.6856848593
 21
122.3995535753
 72
1
 10
742.6856848593
 20
122.3995535753
 11
742.7844968782
 21
122.5215727385
 72
1
 10
742.7844968782
 20
122.5215727385
 11
742.8955223111
 21
122.6325945587
 72
1
 10
742.8955223111
 20
122.6325945587
 11
743.0175446897
 21
122.7314026072
 72
1
 10
743.0175446897
 20
122.7314026072
 11
743.1492270558
 21
122.816899051
 72
1
 10
743.1492270558
 20
122.816899051
 11
743.2891266103
 21
122.8881926469
 72
1
 10
743.2891266103
 20
122.8881926469
 11
743.4357105209
 21
122.9444567427
 72
1
 10
743.4357105209
 20
122.9444567427
 11
743.5873727171
 21
122.9850900979
 72
1
 10
743.5873727171
 20
122.9850900979
 11
743.7424514874
 21
123.0096475066
 97
1
330
613
 75
0
 76
1
 98
1
 10
0.0
 20
0.0
  0
LWPOLYLINE
  5
615
100
AcDbEntity
  8
ALL_DETAIL_ITEM
100
AcDbPolyline
 62
4
  6
CONTINUOUS
 90
13
 70
0
 10
866.4257258828
 20
123.0050277876
 10
866.6181651623
 20
122.9667492349
 10
866.8039617434
 20
122.9036797942
 10
866.979936595
 20
122.816899051
 10
867.1430787387
 20
122.7078905057
 10
836.5412797243
 20
122.5767555506
 10
837.1312437848
 20
122.7348349661
 10
837.7294011776
 20
122.8583437824
 10
838.3337279513
 20
122.9468640899
 10
838.9421792795
 20
123.0000963673
 10
839.55269638
 20
123.0178557394
 10
866.2299365943
 20
123.0178557394
 10
866.4257258828
 20
123.0050277876
  0
HATCH
  5
616
100
AcDbEntity
  8
ALL_DETAIL_ITEM
100
AcDbHatch
 62
4
  6
CONTINUOUS
 10
0.0
 20
0.0
 30
0.0
210
0.0
220
0.0
230
1.0
  2
SOLID
 70
1
 71
1
 91
1
 92
1
 93
12
 72
1
 10
866.4257258828
 20
123.0050277876
 11
866.6181651623
 21
122.9667492349
 72
1
 10
866.6181651623
 20
122.9667492349
 11
866.8039617434
 21
122.9036797942
 72
1
 10
866.8039617434
 20
122.9036797942
 11
866.979936595
 21
122.816899051
 72
1
 10
866.979936595
 20
122.816899051
 11
867.1430787387
 21
122.7078905057
 72
1
 10
867.1430787387
 20
122.7078905057
 11
836.5412797243
 21
122.5767555506
 72
1
 10
836.5412797243
 20
122.5767555506
 11
837.1312437848
 21
122.7348349661
 72
1
 10
837.1312437848
 20
122.7348349661
 11
837.7294011776
 21
122.8583437824
 72
1
 10
837.7294011776
 20
122.8583437824
 11
838.3337279513
 21
122.9468640899
 72
1
 10
838.3337279513
 20
122.9468640899
 11
838.9421792795
 21
123.0000963673
 72
1
 10
838.9421792795
 20
123.0000963673
 11
839.55269638
 21
123.0178557394
 72
1
 10
839.55269638
 20
123.0178557394
 11
866.2299365943
 21
123.0178557394
 72
1
 10
866.2299365943
 20
123.0178557394
 11
866.4257258828
 21
123.0050277876
 97
1
330
615
 75
0
 76
1
 98
1
 10
0.0
 20
0.0
  0
LWPOLYLINE
  5
617
100
AcDbEntity
  8
ALL_DETAIL_ITEM
100
AcDbPolyline
 62
4
  6
CONTINUOUS
 90
10
 70
0
 10
867.2905967671
 20
122.5785206669
 10
867.4199666059
 20
122.4310026385
 10
867.5289747013
 20
122.2678686881
 10
867.6157558944
 20
122.0918856432
 10
834.84033079
 20
121.9010161777
 10
835.3938820346
 20
122.1591396247
 10
835.9615052242
 20
122.3846404205
 10
836.5412797243
 20
122.5767555506
 10
867.1430787387
 20
122.7078905057
 10
867.2905967671
 20
122.5785206669
  0
HATCH
  5
618
100
AcDbEntity
  8
ALL_DETAIL_ITEM
100
AcDbHatch
 62
4
  6
CONTINUOUS
 10
0.0
 20
0.0
 30
0.0
210
0.0
220
0.0
230
1.0
  2
SOLID
 70
1
 71
1
 91
1
 92
1
 93
9
 72
1
 10
867.2905967671
 20
122.5785206669
 11
867.4199666059
 21
122.4310026385
 72
1
 10
867.4199666059
 20
122.4310026385
 11
867.5289747013
 21
122.2678686881
 72
1
 10
867.5289747013
 20
122.2678686881
 11
867.6157558944
 21
122.0918856432
 72
1
 10
867.6157558944
 20
122.0918856432
 11
834.84033079
 21
121.9010161777
 72
1
 10
834.84033079
 20
121.9010161777
 11
835.3938820346
 21
122.1591396247
 72
1
 10
835.3938820346
 20
122.1591396247
 11
835.9615052242
 21
122.3846404205
 72
1
 10
835.9615052242
 20
122.3846404205
 11
836.5412797243
 21
122.5767555506
 72
1
 10
836.5412797243
 20
122.5767555506
 11
867.1430787387
 21
122.7078905057
 72
1
 10
867.1430787387
 20
122.7078905057
 11
867.2905967671
 21
122.5785206669
 97
1
330
617
 75
0
 76
1
 98
1
 10
0.0
 20
0.0
  0
LWPOLYLINE
  5
619
100
AcDbEntity
  8
ALL_DETAIL_ITEM
100
AcDbPolyline
 62
4
  6
CONTINUOUS
 90
10
 70
0
 10
867.6788253352
 20
121.9060890621
 10
867.7171038878
 20
121.7136497826
 10
867.7299365958
 20
121.5178479869
 10
867.7171038878
 20
121.3220712055
 10
833.4459946263
 20
121.0112583745
 10
833.8612637552
 20
121.3299037984
 10
834.3027245108
 20
121.611143477
 10
834.84033079
 20
121.9010161777
 10
867.6157558944
 20
122.0918856432
 10
867.6788253352
 20
121.9060890621
  0
HATCH
  5
61A
100
AcDbEntity
  8
ALL_DETAIL_ITEM
100
AcDbHatch
 62
4
  6
CONTINUOUS
 10
0.0
 20
0.0
 30
0.0
210
0.0
220
0.0
230
1.0
  2
SOLID
 70
1
 71
1
 91
1
 92
1
 93
9
 72
1
 10
867.6788253352
 20
121.9060890621
 11
867.7171038878
 21
121.7136497826
 72
1
 10
867.7171038878
 20
121.7136497826
 11
867.7299365958
 21
121.5178479869
 72
1
 10
867.7299365958
 20
121.5178479869
 11
867.7171038878
 21
121.3220712055
 72
1
 10
867.7171038878
 20
121.3220712055
 11
833.4459946263
 21
121.0112583745
 72
1
 10
833.4459946263
 20
121.0112583745
 11
833.8612637552
 21
121.3299037984
 72
1
 10
833.8612637552
 20
121.3299037984
 11
834.3027245108
 21
121.611143477
 72
1
 10
834.3027245108
 20
121.611143477
 11
834.84033079
 21
121.9010161777
 72
1
 10
834.84033079
 20
121.9010161777
 11
867.6157558944
 21
122.0918856432
 72
1
 10
867.6157558944
 20
122.0918856432
 11
867.6788253352
 21
121.9060890621
 97
1
330
619
 75
0
 76
1
 98
1
 10
0.0
 20
0.0
  0
LWPOLYLINE
  5
61B
100
AcDbEntity
  8
ALL_DETAIL_ITEM
100
AcDbPolyline
 62
4
  6
CONTINUOUS
 90
6
 70
0
 10
867.6788253352
 20
121.129631926
 10
867.6157558944
 20
120.9438353449
 10
833.0600775916
 20
120.6576323039
 10
833.4459946263
 20
121.0112583745
 10
867.7171038878
 20
121.3220712055
 10
867.6788253352
 20
121.129631926
  0
HATCH
  5
61C
100
AcDbEntity
  8
ALL_DETAIL_ITEM
100
AcDbHatch
 62
4
  6
CONTINUOUS
 10
0.0
 20
0.0
 30
0.0
210
0.0
220
0.0
230
1.0
  2
SOLID
 70
1
 71
1
 91
1
 92
1
 93
5
 72
1
 10
867.6788253352
 20
121.129631926
 11
867.6157558944
 21
120.9438353449
 72
1
 10
867.6157558944
 20
120.9438353449
 11
833.0600775916
 21
120.6576323039
 72
1
 10
833.0600775916
 20
120.6576323039
 11
833.4459946263
 21
121.0112583745
 72
1
 10
833.4459946263
 20
121.0112583745
 11
867.7171038878
 21
121.3220712055
 72
1
 10
867.7171038878
 20
121.3220712055
 11
867.6788253352
 21
121.129631926
 97
1
330
61B
 75
0
 76
1
 98
1
 10
0.0
 20
0.0
  0
LWPOLYLINE
  5
61D
100
AcDbEntity
  8
ALL_DETAIL_ITEM
100
AcDbPolyline
 62
4
  6
CONTINUOUS
 90
6
 70
0
 10
867.5289747013
 20
120.7678604933
 10
867.4199666059
 20
120.6047183496
 10
832.70644973
 20
120.2717169102
 10
833.0600775916
 20
120.6576323039
 10
867.6157558944
 20
120.9438353449
 10
867.5289747013
 20
120.7678604933
  0
HATCH
  5
61E
100
AcDbEntity
  8
ALL_DETAIL_ITEM
100
AcDbHatch
 62
4
  6
CONTINUOUS
 10
0.0
 20
0.0
 30
0.0
210
0.0
220
0.0
230
1.0
  2
SOLID
 70
1
 71
1
 91
1
 92
1
 93
5
 72
1
 10
867.5289747013
 20
120.7678604933
 11
867.4199666059
 21
120.6047183496
 72
1
 10
867.4199666059
 20
120.6047183496
 11
832.70644973
 21
120.2717169102
 72
1
 10
832.70644973
 20
120.2717169102
 11
833.0600775916
 21
120.6576323039
 72
1
 10
833.0600775916
 20
120.6576323039
 11
867.6157558944
 21
120.9438353449
 72
1
 10
867.6157558944
 20
120.9438353449
 11
867.5289747013
 21
120.7678604933
 97
1
330
61D
 75
0
 76
1
 98
1
 10
0.0
 20
0.0
  0
LWPOLYLINE
  5
61F
100
AcDbEntity
  8
ALL_DETAIL_ITEM
100
AcDbPolyline
 62
4
  6
CONTINUOUS
 90
8
 70
0
 10
867.1430787387
 20
120.3278304824
 10
866.979936595
 20
120.2188223871
 10
839.55269638
 20
120.0178738842
 10
832.387802379
 20
119.85644926
 10
832.70644973
 20
120.2717169102
 10
867.4199666059
 20
120.6047183496
 10
867.2905967671
 20
120.4572003212
 10
867.1430787387
 20
120.3278304824
  0
HATCH
  5
620
100
AcDbEntity
  8
ALL_DETAIL_ITEM
100
AcDbHatch
 62
4
  6
CONTINUOUS
 10
0.0
 20
0.0
 30
0.0
210
0.0
220
0.0
230
1.0
  2
SOLID
 70
1
 71
1
 91
1
 92
1
 93
7
 72
1
 10
867.1430787387
 20
120.3278304824
 11
866.979936595
 21
120.2188223871
 72
1
 10
866.979936595
 20
120.2188223871
 11
839.55269638
 21
120.0178738842
 72
1
 10
839.55269638
 20
120.0178738842
 11
832.387802379
 21
119.85644926
 72
1
 10
832.387802379
 20
119.85644926
 11
832.70644973
 21
120.2717169102
 72
1
 10
832.70644973
 20
120.2717169102
 11
867.4199666059
 21
120.6047183496
 72
1
 10
867.4199666059
 20
120.6047183496
 11
867.2905967671
 21
120.4572003212
 72
1
 10
867.2905967671
 20
120.4572003212
 11
867.1430787387
 21
120.3278304824
 97
1
330
61F
 75
0
 76
1
 98
1
 10
0.0
 20
0.0
  0
LWPOLYLINE
  5
621
100
AcDbEntity
  8
ALL_DETAIL_ITEM
100
AcDbPolyline
 62
4
  6
CONTINUOUS
 90
7
 70
0
 10
866.4257258828
 20
120.0306932005
 10
866.2299365943
 20
120.0178738842
 10
839.55269638
 20
120.0178738842
 10
866.979936595
 20
120.2188223871
 10
866.8039617434
 20
120.1320411939
 10
866.6181651623
 20
120.0689717532
 10
866.4257258828
 20
120.0306932005
  0
HATCH
  5
622
100
AcDbEntity
  8
ALL_DETAIL_ITEM
100
AcDbHatch
 62
4
  6
CONTINUOUS
 10
0.0
 20
0.0
 30
0.0
210
0.0
220
0.0
230
1.0
  2
SOLID
 70
1
 71
1
 91
1
 92
1
 93
6
 72
1
 10
866.4257258828
 20
120.0306932005
 11
866.2299365943
 21
120.0178738842
 72
1
 10
866.2299365943
 20
120.0178738842
 11
839.55269638
 21
120.0178738842
 72
1
 10
839.55269638
 20
120.0178738842
 11
866.979936595
 21
120.2188223871
 72
1
 10
866.979936595
 20
120.2188223871
 11
866.8039617434
 21
120.1320411939
 72
1
 10
866.8039617434
 20
120.1320411939
 11
866.6181651623
 21
120.0689717532
 72
1
 10
866.6181651623
 20
120.0689717532
 11
866.4257258828
 21
120.0306932005
 97
1
330
621
 75
0
 76
1
 98
1
 10
0.0
 20
0.0
  0
LWPOLYLINE
  5
623
100
AcDbEntity
  8
ALL_DETAIL_ITEM
100
AcDbPolyline
 62
4
  6
CONTINUOUS
 90
15
 70
0
 10
774.1930883609
 20
120.0297068458
 10
773.9972986549
 20
120.0168805089
 10
745.3991988745
 20
120.0178110886
 10
775.4973474655
 20
121.5168316997
 10
775.4845083866
 20
121.3210428289
 10
775.446223572
 20
121.128604795
 10
775.3831480855
 20
120.9428102663
 10
775.2963611661
 20
120.7668382386
 10
775.1873477622
 20
120.6036996422
 10
775.0579731233
 20
120.4561858235
 10
774.9104508853
 20
120.326820785
 10
774.7473051946
 20
120.2178179983
 10
774.5713275192
 20
120.1310425314
 10
774.3855288859
 20
120.0679791365
 10
774.1930883609
 20
120.0297068458
  0
HATCH
  5
624
100
AcDbEntity
  8
ALL_DETAIL_ITEM
100
AcDbHatch
 62
4
  6
CONTINUOUS
 10
0.0
 20
0.0
 30
0.0
210
0.0
220
0.0
230
1.0
  2
SOLID
 70
1
 71
1
 91
1
 92
1
 93
14
 72
1
 10
774.1930883609
 20
120.0297068458
 11
773.9972986549
 21
120.0168805089
 72
1
 10
773.9972986549
 20
120.0168805089
 11
745.3991988745
 21
120.0178110886
 72
1
 10
745.3991988745
 20
120.0178110886
 11
775.4973474655
 21
121.5168316997
 72
1
 10
775.4973474655
 20
121.5168316997
 11
775.4845083866
 21
121.3210428289
 72
1
 10
775.4845083866
 20
121.3210428289
 11
775.446223572
 21
121.128604795
 72
1
 10
775.446223572
 20
121.128604795
 11
775.3831480855
 21
120.9428102663
 72
1
 10
775.3831480855
 20
120.9428102663
 11
775.2963611661
 21
120.7668382386
 72
1
 10
775.2963611661
 20
120.7668382386
 11
775.1873477622
 21
120.6036996422
 72
1
 10
775.1873477622
 20
120.6036996422
 11
775.0579731233
 21
120.4561858235
 72
1
 10
775.0579731233
 20
120.4561858235
 11
774.9104508853
 21
120.326820785
 72
1
 10
774.9104508853
 20
120.326820785
 11
774.7473051946
 21
120.2178179983
 72
1
 10
774.7473051946
 20
120.2178179983
 11
774.5713275192
 21
120.1310425314
 72
1
 10
774.5713275192
 20
120.1310425314
 11
774.3855288859
 21
120.0679791365
 72
1
 10
774.3855288859
 20
120.0679791365
 11
774.1930883609
 21
120.0297068458
 97
1
330
623
 75
0
 76
1
 98
1
 10
0.0
 20
0.0
  0
LWPOLYLINE
  5
625
100
AcDbEntity
  8
ALL_DETAIL_ITEM
100
AcDbPolyline
 62
4
  6
CONTINUOUS
 90
8
 70
0
 10
838.2503426644
 20
119.9039199825
 10
837.823087384
 20
119.8156993994
 10
832.1065606517
 20
119.4149898095
 10
832.387802379
 20
119.85644926
 10
839.55269638
 20
120.0178738842
 10
839.116612737
 20
120.0051718288
 10
838.6820046455
 20
119.9671487735
 10
838.2503426644
 20
119.9039199825
  0
HATCH
  5
626
100
AcDbEntity
  8
ALL_DETAIL_ITEM
100
AcDbHatch
 62
4
  6
CONTINUOUS
 10
0.0
 20
0.0
 30
0.0
210
0.0
220
0.0
230
1.0
  2
SOLID
 70
1
 71
1
 91
1
 92
1
 93
7
 72
1
 10
838.2503426644
 20
119.9039199825
 11
837.823087384
 21
119.8156993994
 72
1
 10
837.823087384
 20
119.8156993994
 11
832.1065606517
 21
119.4149898095
 72
1
 10
832.1065606517
 20
119.4149898095
 11
832.387802379
 21
119.85644926
 72
1
 10
832.387802379
 20
119.85644926
 11
839.55269638
 21
120.0178738842
 72
1
 10
839.55269638
 20
120.0178738842
 11
839.116612737
 21
120.0051718288
 72
1
 10
839.116612737
 20
120.0051718288
 11
838.6820046455
 21
119.9671487735
 72
1
 10
838.6820046455
 20
119.9671487735
 11
838.2503426644
 21
119.9039199825
 97
1
330
625
 75
0
 76
1
 98
1
 10
0.0
 20
0.0
  0
LWPOLYLINE
  5
627
100
AcDbEntity
  8
ALL_DETAIL_ITEM
100
AcDbPolyline
 62
4
  6
CONTINUOUS
 90
7
 70
0
 10
836.987559841
 20
119.5655604383
 10
836.5821147058
 20
119.4044884414
 10
831.8648649801
 20
118.9506983516
 10
832.1065606517
 20
119.4149898095
 10
837.823087384
 20
119.8156993994
 10
837.4016844838
 20
119.7027855313
 10
836.987559841
 20
119.5655604383
  0
HATCH
  5
628
100
AcDbEntity
  8
ALL_DETAIL_ITEM
100
AcDbHatch
 62
4
  6
CONTINUOUS
 10
0.0
 20
0.0
 30
0.0
210
0.0
220
0.0
230
1.0
  2
SOLID
 70
1
 71
1
 91
1
 92
1
 93
6
 72
1
 10
836.987559841
 20
119.5655604383
 11
836.5821147058
 21
119.4044884414
 72
1
 10
836.5821147058
 20
119.4044884414
 11
831.8648649801
 21
118.9506983516
 72
1
 10
831.8648649801
 20
118.9506983516
 11
832.1065606517
 21
119.4149898095
 72
1
 10
832.1065606517
 20
119.4149898095
 11
837.823087384
 21
119.8156993994
 72
1
 10
837.823087384
 20
119.8156993994
 11
837.4016844838
 21
119.7027855313
 72
1
 10
837.4016844838
 20
119.7027855313
 11
836.987559841
 21
119.5655604383
 97
1
330
627
 75
0
 76
1
 98
1
 10
0.0
 20
0.0
  0
LWPOLYLINE
  5
629
100
AcDbEntity
  8
ALL_DETAIL_ITEM
100
AcDbPolyline
 62
4
  6
CONTINUOUS
 90
7
 70
0
 10
835.8027164746
 20
119.0130626218
 10
835.5819860972
 20
118.8724427826
 10
831.6645548251
 20
118.4671084454
 10
831.8648649801
 20
118.9506983516
 10
836.5821147058
 20
119.4044884414
 10
836.1867209598
 20
119.2201145507
 10
835.8027164746
 20
119.0130626218
  0
HATCH
  5
62A
100
AcDbEntity
  8
ALL_DETAIL_ITEM
100
AcDbHatch
 62
4
  6
CONTINUOUS
 10
0.0
 20
0.0
 30
0.0
210
0.0
220
0.0
230
1.0
  2
SOLID
 70
1
 71
1
 91
1
 92
1
 93
6
 72
1
 10
835.8027164746
 20
119.0130626218
 11
835.5819860972
 21
118.8724427826
 72
1
 10
835.5819860972
 20
118.8724427826
 11
831.6645548251
 21
118.4671084454
 72
1
 10
831.6645548251
 20
118.4671084454
 11
831.8648649801
 21
118.9506983516
 72
1
 10
831.8648649801
 20
118.9506983516
 11
836.5821147058
 21
119.4044884414
 72
1
 10
836.5821147058
 20
119.4044884414
 11
836.1867209598
 21
119.2201145507
 72
1
 10
836.1867209598
 20
119.2201145507
 11
835.8027164746
 21
119.0130626218
 97
1
330
629
 75
0
 76
1
 98
1
 10
0.0
 20
0.0
  0
LWPOLYLINE
  5
62B
100
AcDbEntity
  8
ALL_DETAIL_ITEM
100
AcDbPolyline
 62
4
  6
CONTINUOUS
 90
7
 70
0
 10
835.1813930156
 20
118.5363070355
 10
835.004579085
 20
118.3433493388
 10
831.5071546768
 20
117.9679005239
 10
831.6645548251
 20
118.4671084454
 10
835.5819860972
 20
118.8724427826
 10
835.3743515329
 20
118.7131200707
 10
835.1813930156
 20
118.5363070355
  0
HATCH
  5
62C
100
AcDbEntity
  8
ALL_DETAIL_ITEM
100
AcDbHatch
 62
4
  6
CONTINUOUS
 10
0.0
 20
0.0
 30
0.0
210
0.0
220
0.0
230
1.0
  2
SOLID
 70
1
 71
1
 91
1
 92
1
 93
6
 72
1
 10
835.1813930156
 20
118.5363070355
 11
835.004579085
 21
118.3433493388
 72
1
 10
835.004579085
 20
118.3433493388
 11
831.5071546768
 21
117.9679005239
 72
1
 10
831.5071546768
 20
117.9679005239
 11
831.6645548251
 21
118.4671084454
 72
1
 10
831.6645548251
 20
118.4671084454
 11
835.5819860972
 21
118.8724427826
 72
1
 10
835.5819860972
 20
118.8724427826
 11
835.3743515329
 21
118.7131200707
 72
1
 10
835.3743515329
 20
118.7131200707
 11
835.1813930156
 21
118.5363070355
 97
1
330
62B
 75
0
 76
1
 98
1
 10
0.0
 20
0.0
  0
LWPOLYLINE
  5
62D
100
AcDbEntity
  8
ALL_DETAIL_ITEM
100
AcDbPolyline
 62
4
  6
CONTINUOUS
 90
6
 70
0
 10
834.8452554096
 20
118.1357155138
 10
834.704634546
 20
117.9149857887
 10
831.3938624525
 20
117.4568738832
 10
831.5071546768
 20
117.9679005239
 10
835.004579085
 20
118.3433493388
 10
834.8452554096
 20
118.1357155138
  0
HATCH
  5
62E
100
AcDbEntity
  8
ALL_DETAIL_ITEM
100
AcDbHatch
 62
4
  6
CONTINUOUS
 10
0.0
 20
0.0
 30
0.0
210
0.0
220
0.0
230
1.0
  2
SOLID
 70
1
 71
1
 91
1
 92
1
 93
5
 72
1
 10
834.8452554096
 20
118.1357155138
 11
834.704634546
 21
117.9149857887
 72
1
 10
834.704634546
 20
117.9149857887
 11
831.3938624525
 21
117.4568738832
 72
1
 10
831.3938624525
 20
117.4568738832
 11
831.5071546768
 21
117.9679005239
 72
1
 10
831.5071546768
 20
117.9679005239
 11
835.004579085
 21
118.3433493388
 72
1
 10
835.004579085
 20
118.3433493388
 11
834.8452554096
 21
118.1357155138
 97
1
330
62D
 75
0
 76
1
 98
1
 10
0.0
 20
0.0
  0
LWPOLYLINE
  5
62F
100
AcDbEntity
  8
ALL_DETAIL_ITEM
100
AcDbPolyline
 62
4
  6
CONTINUOUS
 90
6
 70
0
 10
834.5837867103
 20
117.6828400599
 10
834.4836316328
 20
117.441045107
 10
831.3255403796
 20
116.9379177676
 10
831.3938624525
 20
117.4568738832
 10
834.704634546
 20
117.9149857887
 10
834.5837867103
 20
117.6828400599
  0
HATCH
  5
630
100
AcDbEntity
  8
ALL_DETAIL_ITEM
100
AcDbHatch
 62
4
  6
CONTINUOUS
 10
0.0
 20
0.0
 30
0.0
210
0.0
220
0.0
230
1.0
  2
SOLID
 70
1
 71
1
 91
1
 92
1
 93
5
 72
1
 10
834.5837867103
 20
117.6828400599
 11
834.4836316328
 21
117.441045107
 72
1
 10
834.4836316328
 20
117.441045107
 11
831.3255403796
 21
116.9379177676
 72
1
 10
831.3255403796
 20
116.9379177676
 11
831.3938624525
 21
117.4568738832
 72
1
 10
831.3938624525
 20
117.4568738832
 11
834.704634546
 21
117.9149857887
 72
1
 10
834.704634546
 20
117.9149857887
 11
834.5837867103
 21
117.6828400599
 97
1
330
62F
 75
0
 76
1
 98
1
 10
0.0
 20
0.0
  0
LWPOLYLINE
  5
631
100
AcDbEntity
  8
ALL_DETAIL_ITEM
100
AcDbPolyline
 62
4
  6
CONTINUOUS
 90
6
 70
0
 10
834.4049315587
 20
117.1914411464
 10
834.3482854466
 20
116.9359278262
 10
831.3027084333
 20
116.4149883141
 10
831.3255403796
 20
116.9379177676
 10
834.4836316328
 20
117.441045107
 10
834.4049315587
 20
117.1914411464
  0
HATCH
  5
632
100
AcDbEntity
  8
ALL_DETAIL_ITEM
100
AcDbHatch
 62
4
  6
CONTINUOUS
 10
0.0
 20
0.0
 30
0.0
210
0.0
220
0.0
230
1.0
  2
SOLID
 70
1
 71
1
 91
1
 92
1
 93
5
 72
1
 10
834.4049315587
 20
117.1914411464
 11
834.3482854466
 21
116.9359278262
 72
1
 10
834.3482854466
 20
116.9359278262
 11
831.3027084333
 21
116.4149883141
 72
1
 10
831.3027084333
 20
116.4149883141
 11
831.3255403796
 21
116.9379177676
 72
1
 10
831.3255403796
 20
116.9379177676
 11
834.4836316328
 21
117.441045107
 72
1
 10
834.4836316328
 20
117.441045107
 11
834.4049315587
 21
117.1914411464
 97
1
330
631
 75
0
 76
1
 98
1
 10
0.0
 20
0.0
  0
LWPOLYLINE
  5
633
100
AcDbEntity
  8
ALL_DETAIL_ITEM
100
AcDbPolyline
 62
4
  6
CONTINUOUS
 90
8
 70
0
 10
834.3141244102
 20
116.6764497686
 10
834.302708437
 20
116.4149883141
 10
834.302708437
 20
111.9127441688
 10
831.3255403796
 20
111.3898069748
 10
831.3027084333
 20
111.9127441688
 10
831.3027084333
 20
116.4149883141
 10
834.3482854466
 20
116.9359278262
 10
834.3141244102
 20
116.6764497686
  0
HATCH
  5
634
100
AcDbEntity
  8
ALL_DETAIL_ITEM
100
AcDbHatch
 62
4
  6
CONTINUOUS
 10
0.0
 20
0.0
 30
0.0
210
0.0
220
0.0
230
1.0
  2
SOLID
 70
1
 71
1
 91
1
 92
1
 93
7
 72
1
 10
834.3141244102
 20
116.6764497686
 11
834.302708437
 21
116.4149883141
 72
1
 10
834.302708437
 20
116.4149883141
 11
834.302708437
 21
111.9127441688
 72
1
 10
834.302708437
 20
111.9127441688
 11
831.3255403796
 21
111.3898069748
 72
1
 10
831.3255403796
 20
111.3898069748
 11
831.3027084333
 21
111.9127441688
 72
1
 10
831.3027084333
 20
111.9127441688
 11
831.3027084333
 21
116.4149883141
 72
1
 10
831.3027084333
 20
116.4149883141
 11
834.3482854466
 21
116.9359278262
 72
1
 10
834.3482854466
 20
116.9359278262
 11
834.3141244102
 21
116.6764497686
 97
1
330
633
 75
0
 76
1
 98
1
 10
0.0
 20
0.0
  0
LWPOLYLINE
  5
635
100
AcDbEntity
  8
ALL_DETAIL_ITEM
100
AcDbPolyline
 62
4
  6
CONTINUOUS
 90
7
 70
0
 10
834.3482854466
 20
111.3917969162
 10
834.4049315587
 20
111.136283596
 10
831.3938624525
 20
110.8708508591
 10
831.3255403796
 20
111.3898069748
 10
834.302708437
 20
111.9127441688
 10
834.3141244102
 20
111.6512749738
 10
834.3482854466
 20
111.3917969162
  0
HATCH
  5
636
100
AcDbEntity
  8
ALL_DETAIL_ITEM
100
AcDbHatch
 62
4
  6
CONTINUOUS
 10
0.0
 20
0.0
 30
0.0
210
0.0
220
0.0
230
1.0
  2
SOLID
 70
1
 71
1
 91
1
 92
1
 93
6
 72
1
 10
834.3482854466
 20
111.3917969162
 11
834.4049315587
 21
111.136283596
 72
1
 10
834.4049315587
 20
111.136283596
 11
831.3938624525
 21
110.8708508591
 72
1
 10
831.3938624525
 20
110.8708508591
 11
831.3255403796
 21
111.3898069748
 72
1
 10
831.3255403796
 20
111.3898069748
 11
834.302708437
 21
111.9127441688
 72
1
 10
834.302708437
 20
111.9127441688
 11
834.3141244102
 21
111.6512749738
 72
1
 10
834.3141244102
 20
111.6512749738
 11
834.3482854466
 21
111.3917969162
 97
1
330
635
 75
0
 76
1
 98
1
 10
0.0
 20
0.0
  0
LWPOLYLINE
  5
637
100
AcDbEntity
  8
ALL_DETAIL_ITEM
100
AcDbPolyline
 62
4
  6
CONTINUOUS
 90
6
 70
0
 10
834.4836316328
 20
110.8866796354
 10
834.5837867103
 20
110.6448846825
 10
831.5071546768
 20
110.3598242185
 10
831.3938624525
 20
110.8708508591
 10
834.4049315587
 20
111.136283596
 10
834.4836316328
 20
110.8866796354
  0
HATCH
  5
638
100
AcDbEntity
  8
ALL_DETAIL_ITEM
100
AcDbHatch
 62
4
  6
CONTINUOUS
 10
0.0
 20
0.0
 30
0.0
210
0.0
220
0.0
230
1.0
  2
SOLID
 70
1
 71
1
 91
1
 92
1
 93
5
 72
1
 10
834.4836316328
 20
110.8866796354
 11
834.5837867103
 21
110.6448846825
 72
1
 10
834.5837867103
 20
110.6448846825
 11
831.5071546768
 21
110.3598242185
 72
1
 10
831.5071546768
 20
110.3598242185
 11
831.3938624525
 21
110.8708508591
 72
1
 10
831.3938624525
 20
110.8708508591
 11
834.4049315587
 21
111.136283596
 72
1
 10
834.4049315587
 20
111.136283596
 11
834.4836316328
 21
110.8866796354
 97
1
330
637
 75
0
 76
1
 98
1
 10
0.0
 20
0.0
  0
LWPOLYLINE
  5
639
100
AcDbEntity
  8
ALL_DETAIL_ITEM
100
AcDbPolyline
 62
4
  6
CONTINUOUS
 90
6
 70
0
 10
834.704634546
 20
110.4127389536
 10
834.8452554096
 20
110.1920092286
 10
831.6645548251
 20
109.860616297
 10
831.5071546768
 20
110.3598242185
 10
834.5837867103
 20
110.6448846825
 10
834.704634546
 20
110.4127389536
  0
HATCH
  5
63A
100
AcDbEntity
  8
ALL_DETAIL_ITEM
100
AcDbHatch
 62
4
  6
CONTINUOUS
 10
0.0
 20
0.0
 30
0.0
210
0.0
220
0.0
230
1.0
  2
SOLID
 70
1
 71
1
 91
1
 92
1
 93
5
 72
1
 10
834.704634546
 20
110.4127389536
 11
834.8452554096
 21
110.1920092286
 72
1
 10
834.8452554096
 20
110.1920092286
 11
831.6645548251
 21
109.860616297
 72
1
 10
831.6645548251
 20
109.860616297
 11
831.5071546768
 21
110.3598242185
 72
1
 10
831.5071546768
 20
110.3598242185
 11
834.5837867103
 21
110.6448846825
 72
1
 10
834.5837867103
 20
110.6448846825
 11
834.704634546
 21
110.4127389536
 97
1
330
639
 75
0
 76
1
 98
1
 10
0.0
 20
0.0
  0
LWPOLYLINE
  5
63B
100
AcDbEntity
  8
ALL_DETAIL_ITEM
100
AcDbPolyline
 62
4
  6
CONTINUOUS
 90
6
 70
0
 10
835.004579085
 20
109.9843754036
 10
835.1813930156
 20
109.7914177069
 10
831.8648649801
 20
109.3770263908
 10
831.6645548251
 20
109.860616297
 10
834.8452554096
 20
110.1920092286
 10
835.004579085
 20
109.9843754036
  0
HATCH
  5
63C
100
AcDbEntity
  8
ALL_DETAIL_ITEM
100
AcDbHatch
 62
4
  6
CONTINUOUS
 10
0.0
 20
0.0
 30
0.0
210
0.0
220
0.0
230
1.0
  2
SOLID
 70
1
 71
1
 91
1
 92
1
 93
5
 72
1
 10
835.004579085
 20
109.9843754036
 11
835.1813930156
 21
109.7914177069
 72
1
 10
835.1813930156
 20
109.7914177069
 11
831.8648649801
 21
109.3770263908
 72
1
 10
831.8648649801
 20
109.3770263908
 11
831.6645548251
 21
109.860616297
 72
1
 10
831.6645548251
 20
109.860616297
 11
834.8452554096
 21
110.1920092286
 72
1
 10
834.8452554096
 20
110.1920092286
 11
835.004579085
 21
109.9843754036
 97
1
330
63B
 75
0
 76
1
 98
1
 10
0.0
 20
0.0
  0
LWPOLYLINE
  5
63D
100
AcDbEntity
  8
ALL_DETAIL_ITEM
100
AcDbPolyline
 62
4
  6
CONTINUOUS
 90
7
 70
0
 10
835.5819860972
 20
109.4552819598
 10
835.8027164749
 20
109.3146621206
 10
832.1065606517
 20
108.9127349329
 10
831.8648649801
 20
109.3770263908
 10
835.1813930156
 20
109.7914177069
 10
835.3743515329
 20
109.6146046716
 10
835.5819860972
 20
109.4552819598
  0
HATCH
  5
63E
100
AcDbEntity
  8
ALL_DETAIL_ITEM
100
AcDbHatch
 62
4
  6
CONTINUOUS
 10
0.0
 20
0.0
 30
0.0
210
0.0
220
0.0
230
1.0
  2
SOLID
 70
1
 71
1
 91
1
 92
1
 93
6
 72
1
 10
835.5819860972
 20
109.4552819598
 11
835.8027164749
 21
109.3146621206
 72
1
 10
835.8027164749
 20
109.3146621206
 11
832.1065606517
 21
108.9127349329
 72
1
 10
832.1065606517
 20
108.9127349329
 11
831.8648649801
 21
109.3770263908
 72
1
 10
831.8648649801
 20
109.3770263908
 11
835.1813930156
 21
109.7914177069
 72
1
 10
835.1813930156
 20
109.7914177069
 11
835.3743515329
 21
109.6146046716
 72
1
 10
835.3743515329
 20
109.6146046716
 11
835.5819860972
 21
109.4552819598
 97
1
330
63D
 75
0
 76
1
 98
1
 10
0.0
 20
0.0
  0
LWPOLYLINE
  5
63F
100
AcDbEntity
  8
ALL_DETAIL_ITEM
100
AcDbPolyline
 62
4
  6
CONTINUOUS
 90
7
 70
0
 10
836.5821147058
 20
108.923236301
 10
836.987559841
 20
108.762164304
 10
832.387802379
 20
108.4712754824
 10
832.1065606517
 20
108.9127349329
 10
835.8027164749
 20
109.3146621206
 10
836.1867209598
 20
109.1076101916
 10
836.5821147058
 20
108.923236301
  0
HATCH
  5
640
100
AcDbEntity
  8
ALL_DETAIL_ITEM
100
AcDbHatch
 62
4
  6
CONTINUOUS
 10
0.0
 20
0.0
 30
0.0
210
0.0
220
0.0
230
1.0
  2
SOLID
 70
1
 71
1
 91
1
 92
1
 93
6
 72
1
 10
836.5821147058
 20
108.923236301
 11
836.987559841
 21
108.762164304
 72
1
 10
836.987559841
 20
108.762164304
 11
832.387802379
 21
108.4712754824
 72
1
 10
832.387802379
 20
108.4712754824
 11
832.1065606517
 21
108.9127349329
 72
1
 10
832.1065606517
 20
108.9127349329
 11
835.8027164749
 21
109.3146621206
 72
1
 10
835.8027164749
 20
109.3146621206
 11
836.1867209598
 21
109.1076101916
 72
1
 10
836.1867209598
 20
109.1076101916
 11
836.5821147058
 21
108.923236301
 97
1
330
63F
 75
0
 76
1
 98
1
 10
0.0
 20
0.0
  0
LWPOLYLINE
  5
641
100
AcDbEntity
  8
ALL_DETAIL_ITEM
100
AcDbPolyline
 62
4
  6
CONTINUOUS
 90
7
 70
0
 10
837.823087384
 20
108.512025343
 10
838.2503426644
 20
108.4238047599
 10
832.70644973
 20
108.0560078322
 10
832.387802379
 20
108.4712754824
 10
836.987559841
 20
108.762164304
 10
837.4016844838
 20
108.6249392111
 10
837.823087384
 20
108.512025343
  0
HATCH
  5
642
100
AcDbEntity
  8
ALL_DETAIL_ITEM
100
AcDbHatch
 62
4
  6
CONTINUOUS
 10
0.0
 20
0.0
 30
0.0
210
0.0
220
0.0
230
1.0
  2
SOLID
 70
1
 71
1
 91
1
 92
1
 93
6
 72
1
 10
837.823087384
 20
108.512025343
 11
838.2503426644
 21
108.4238047599
 72
1
 10
838.2503426644
 20
108.4238047599
 11
832.70644973
 21
108.0560078322
 72
1
 10
832.70644973
 20
108.0560078322
 11
832.387802379
 21
108.4712754824
 72
1
 10
832.387802379
 20
108.4712754824
 11
836.987559841
 21
108.762164304
 72
1
 10
836.987559841
 20
108.762164304
 11
837.4016844838
 21
108.6249392111
 72
1
 10
837.4016844838
 20
108.6249392111
 11
837.823087384
 21
108.512025343
 97
1
330
641
 75
0
 76
1
 98
1
 10
0.0
 20
0.0
  0
LWPOLYLINE
  5
643
100
AcDbEntity
  8
ALL_DETAIL_ITEM
100
AcDbPolyline
 62
4
  6
CONTINUOUS
 90
8
 70
0
 10
861.3090282715
 20
108.3109017429
 10
861.9195453737
 20
108.2931406864
 10
832.70644973
 20
108.0560078322
 10
838.2503426644
 20
108.4238047599
 10
838.6820046455
 20
108.3605759689
 10
839.116612737
 20
108.3225529136
 10
839.55269638
 20
108.3098642506
 10
861.3090282715
 20
108.3109017429
  0
HATCH
  5
644
100
AcDbEntity
  8
ALL_DETAIL_ITEM
100
AcDbHatch
 62
4
  6
CONTINUOUS
 10
0.0
 20
0.0
 30
0.0
210
0.0
220
0.0
230
1.0
  2
SOLID
 70
1
 71
1
 91
1
 92
1
 93
7
 72
1
 10
861.3090282715
 20
108.3109017429
 11
861.9195453737
 21
108.2931406864
 72
1
 10
861.9195453737
 20
108.2931406864
 11
832.70644973
 21
108.0560078322
 72
1
 10
832.70644973
 20
108.0560078322
 11
838.2503426644
 21
108.4238047599
 72
1
 10
838.2503426644
 20
108.4238047599
 11
838.6820046455
 21
108.3605759689
 72
1
 10
838.6820046455
 20
108.3605759689
 11
839.116612737
 21
108.3225529136
 72
1
 10
839.116612737
 20
108.3225529136
 11
839.55269638
 21
108.3098642506
 72
1
 10
839.55269638
 20
108.3098642506
 11
861.3090282715
 21
108.3109017429
 97
1
330
643
 75
0
 76
1
 98
1
 10
0.0
 20
0.0
  0
LWPOLYLINE
  5
645
100
AcDbEntity
  8
ALL_DETAIL_ITEM
100
AcDbPolyline
 62
4
  6
CONTINUOUS
 90
7
 70
0
 10
863.1323234791
 20
108.1513881008
 10
863.7304808735
 20
108.0278792837
 10
833.0600775916
 20
107.6700924385
 10
832.70644973
 20
108.0560078322
 10
861.9195453737
 20
108.2931406864
 10
862.5279967037
 20
108.2399084087
 10
863.1323234791
 20
108.1513881008
  0
HATCH
  5
646
100
AcDbEntity
  8
ALL_DETAIL_ITEM
100
AcDbHatch
 62
4
  6
CONTINUOUS
 10
0.0
 20
0.0
 30
0.0
210
0.0
220
0.0
230
1.0
  2
SOLID
 70
1
 71
1
 91
1
 92
1
 93
6
 72
1
 10
863.1323234791
 20
108.1513881008
 11
863.7304808735
 21
108.0278792837
 72
1
 10
863.7304808735
 20
108.0278792837
 11
833.0600775916
 21
107.6700924385
 72
1
 10
833.0600775916
 20
107.6700924385
 11
832.70644973
 21
108.0560078322
 72
1
 10
832.70644973
 20
108.0560078322
 11
861.9195453737
 21
108.2931406864
 72
1
 10
861.9195453737
 20
108.2931406864
 11
862.5279967037
 21
108.2399084087
 72
1
 10
862.5279967037
 20
108.2399084087
 11
863.1323234791
 21
108.1513881008
 97
1
330
645
 75
0
 76
1
 98
1
 10
0.0
 20
0.0
  0
LWPOLYLINE
  5
647
100
AcDbEntity
  8
ALL_DETAIL_ITEM
100
AcDbPolyline
 62
4
  6
CONTINUOUS
 90
50
 70
0
 10
864.9002194371
 20
107.6776847362
 10
865.467842628
 20
107.4521839392
 10
866.0213938738
 20
107.1940604908
 10
866.5590001543
 20
106.9041877886
 10
867.0004609089
 20
106.6229481093
 10
867.4157300369
 20
106.3043026853
 10
867.8016470707
 20
105.9506766147
 10
868.1552749314
 20
105.5647612212
 10
868.4739222815
 20
105.1494935713
 10
868.755164008
 20
104.7080341212
 10
868.996859679
 20
104.2437426638
 10
869.1971698335
 20
103.7601527582
 10
869.3545699814
 20
103.2609448373
 10
869.4678622053
 20
102.7499181973
 10
869.5361842781
 20
102.2309620824
 10
866.5134392111
 20
102.228972141
 10
866.4567930991
 20
102.4844854608
 10
866.3780930253
 20
102.7340894211
 10
866.2779379481
 20
102.9758843737
 10
866.1570901127
 20
103.2080301023
 10
866.0164692495
 20
103.4287598272
 10
865.8571455745
 20
103.636393652
 10
865.6803316443
 20
103.8293513487
 10
865.4873731275
 20
104.0061643839
 10
865.2797385637
 20
104.1654870958
 10
865.0590081865
 20
104.3061069351
 10
864.6750037005
 20
104.5131588656
 10
864.2796099537
 20
104.6975327573
 10
863.8741648174
 20
104.8586047551
 10
863.4600401736
 20
104.9958298488
 10
863.0386372723
 20
105.1087437175
 10
862.6113819908
 20
105.1969643011
 10
862.1797200085
 20
105.2601930924
 10
861.7451119158
 20
105.2982161479
 10
861.3090282716
 20
105.3108862379
 10
838.9421792795
 20
105.3276283751
 10
838.3337279512
 20
105.3808606525
 10
837.7294011775
 20
105.46938096
 10
837.1312437847
 20
105.5928897763
 10
836.5412797243
 20
105.7509691918
 10
835.9615052241
 20
105.9430843219
 10
835.3938820345
 20
106.1685851177
 10
834.84033079
 20
106.4267085647
 10
834.3027245106
 20
106.7165812654
 10
833.8612637552
 20
106.997820944
 10
833.4459946263
 20
107.3164663678
 10
833.0600775916
 20
107.6700924385
 10
863.7304808735
 20
108.0278792837
 10
864.3204449355
 20
107.8697998674
 10
864.9002194371
 20
107.6776847362
  0
HATCH
  5
648
100
AcDbEntity
  8
ALL_DETAIL_ITEM
100
AcDbHatch
 62
4
  6
CONTINUOUS
 10
0.0
 20
0.0
 30
0.0
210
0.0
220
0.0
230
1.0
  2
SOLID
 70
1
 71
1
 91
1
 92
1
 93
49
 72
1
 10
864.9002194371
 20
107.6776847362
 11
865.467842628
 21
107.4521839392
 72
1
 10
865.467842628
 20
107.4521839392
 11
866.0213938738
 21
107.1940604908
 72
1
 10
866.0213938738
 20
107.1940604908
 11
866.5590001543
 21
106.9041877886
 72
1
 10
866.5590001543
 20
106.9041877886
 11
867.0004609089
 21
106.6229481093
 72
1
 10
867.0004609089
 20
106.6229481093
 11
867.4157300369
 21
106.3043026853
 72
1
 10
867.4157300369
 20
106.3043026853
 11
867.8016470707
 21
105.9506766147
 72
1
 10
867.8016470707
 20
105.9506766147
 11
868.1552749314
 21
105.5647612212
 72
1
 10
868.1552749314
 20
105.5647612212
 11
868.4739222815
 21
105.1494935713
 72
1
 10
868.4739222815
 20
105.1494935713
 11
868.755164008
 21
104.7080341212
 72
1
 10
868.755164008
 20
104.7080341212
 11
868.996859679
 21
104.2437426638
 72
1
 10
868.996859679
 20
104.2437426638
 11
869.1971698335
 21
103.7601527582
 72
1
 10
869.1971698335
 20
103.7601527582
 11
869.3545699814
 21
103.2609448373
 72
1
 10
869.3545699814
 20
103.2609448373
 11
869.4678622053
 21
102.7499181973
 72
1
 10
869.4678622053
 20
102.7499181973
 11
869.5361842781
 21
102.2309620824
 72
1
 10
869.5361842781
 20
102.2309620824
 11
866.5134392111
 21
102.228972141
 72
1
 10
866.5134392111
 20
102.228972141
 11
866.4567930991
 21
102.4844854608
 72
1
 10
866.4567930991
 20
102.4844854608
 11
866.3780930253
 21
102.7340894211
 72
1
 10
866.3780930253
 20
102.7340894211
 11
866.2779379481
 21
102.9758843737
 72
1
 10
866.2779379481
 20
102.9758843737
 11
866.1570901127
 21
103.2080301023
 72
1
 10
866.1570901127
 20
103.2080301023
 11
866.0164692495
 21
103.4287598272
 72
1
 10
866.0164692495
 20
103.4287598272
 11
865.8571455745
 21
103.636393652
 72
1
 10
865.8571455745
 20
103.636393652
 11
865.6803316443
 21
103.8293513487
 72
1
 10
865.6803316443
 20
103.8293513487
 11
865.4873731275
 21
104.0061643839
 72
1
 10
865.4873731275
 20
104.0061643839
 11
865.2797385637
 21
104.1654870958
 72
1
 10
865.2797385637
 20
104.1654870958
 11
865.0590081865
 21
104.3061069351
 72
1
 10
865.0590081865
 20
104.3061069351
 11
864.6750037005
 21
104.5131588656
 72
1
 10
864.6750037005
 20
104.5131588656
 11
864.2796099537
 21
104.6975327573
 72
1
 10
864.2796099537
 20
104.6975327573
 11
863.8741648174
 21
104.8586047551
 72
1
 10
863.8741648174
 20
104.8586047551
 11
863.4600401736
 21
104.9958298488
 72
1
 10
863.4600401736
 20
104.9958298488
 11
863.0386372723
 21
105.1087437175
 72
1
 10
863.0386372723
 20
105.1087437175
 11
862.6113819908
 21
105.1969643011
 72
1
 10
862.6113819908
 20
105.1969643011
 11
862.1797200085
 21
105.2601930924
 72
1
 10
862.1797200085
 20
105.2601930924
 11
861.7451119158
 21
105.2982161479
 72
1
 10
861.7451119158
 20
105.2982161479
 11
861.3090282716
 21
105.3108862379
 72
1
 10
861.3090282716
 20
105.3108862379
 11
838.9421792795
 21
105.3276283751
 72
1
 10
838.9421792795
 20
105.3276283751
 11
838.3337279512
 21
105.3808606525
 72
1
 10
838.3337279512
 20
105.3808606525
 11
837.7294011775
 21
105.46938096
 72
1
 10
837.7294011775
 20
105.46938096
 11
837.1312437847
 21
105.5928897763
 72
1
 10
837.1312437847
 20
105.5928897763
 11
836.5412797243
 21
105.7509691918
 72
1
 10
836.5412797243
 20
105.7509691918
 11
835.9615052241
 21
105.9430843219
 72
1
 10
835.9615052241
 20
105.9430843219
 11
835.3938820345
 21
106.1685851177
 72
1
 10
835.3938820345
 20
106.1685851177
 11
834.84033079
 21
106.4267085647
 72
1
 10
834.84033079
 20
106.4267085647
 11
834.3027245106
 21
106.7165812654
 72
1
 10
834.3027245106
 20
106.7165812654
 11
833.8612637552
 21
106.997820944
 72
1
 10
833.8612637552
 20
106.997820944
 11
833.4459946263
 21
107.3164663678
 72
1
 10
833.4459946263
 20
107.3164663678
 11
833.0600775916
 21
107.6700924385
 72
1
 10
833.0600775916
 20
107.6700924385
 11
863.7304808735
 21
108.0278792837
 72
1
 10
863.7304808735
 20
108.0278792837
 11
864.3204449355
 21
107.8697998674
 72
1
 10
864.3204449355
 20
107.8697998674
 11
864.9002194371
 21
107.6776847362
 97
1
330
647
 75
0
 76
1
 98
1
 10
0.0
 20
0.0
  0
LWPOLYLINE
  5
649
100
AcDbEntity
  8
ALL_DETAIL_ITEM
100
AcDbPolyline
 62
4
  6
CONTINUOUS
 90
30
 70
0
 10
772.7508136253
 20
105.3237348273
 10
772.5550243368
 20
105.3108862379
 10
745.3991988745
 20
105.3108862379
 10
742.3991988745
 20
92.1058816613
 10
745.3991988745
 20
120.0178110886
 10
745.3991988745
 20
108.3109017429
 10
772.5550243368
 20
108.3109017429
 10
772.7508136253
 20
108.2980694144
 10
772.9432529048
 20
108.2597908617
 10
773.1290494859
 20
108.196721421
 10
773.3050243375
 20
108.1099402278
 10
773.4681664812
 20
108.0009321324
 10
773.6156845096
 20
107.8715622937
 10
773.7450543484
 20
107.7240442652
 10
773.8540624438
 20
107.5609021216
 10
773.9408436369
 20
107.3849272699
 10
774.0039130777
 20
107.1991306889
 10
774.0421916303
 20
107.0066914093
 10
774.0550243383
 20
106.8109021208
 10
774.0421916303
 20
106.6151128323
 10
774.0039130777
 20
106.4226735528
 10
773.9408436369
 20
106.2368769717
 10
773.8540624438
 20
106.0609021201
 10
773.7450543484
 20
105.8977599764
 10
773.6156845096
 20
105.750241948
 10
773.4681664812
 20
105.6208721092
 10
773.3050243375
 20
105.5118640138
 10
773.1290494859
 20
105.4250828207
 10
772.9432529048
 20
105.3620133799
 10
772.7508136253
 20
105.3237348273
  0
HATCH
  5
64A
100
AcDbEntity
  8
ALL_DETAIL_ITEM
100
AcDbHatch
 62
4
  6
CONTINUOUS
 10
0.0
 20
0.0
 30
0.0
210
0.0
220
0.0
230
1.0
  2
SOLID
 70
1
 71
1
 91
1
 92
1
 93
29
 72
1
 10
772.7508136253
 20
105.3237348273
 11
772.5550243368
 21
105.3108862379
 72
1
 10
772.5550243368
 20
105.3108862379
 11
745.3991988745
 21
105.3108862379
 72
1
 10
745.3991988745
 20
105.3108862379
 11
742.3991988745
 21
92.1058816613
 72
1
 10
742.3991988745
 20
92.1058816613
 11
745.3991988745
 21
120.0178110886
 72
1
 10
745.3991988745
 20
120.0178110886
 11
745.3991988745
 21
108.3109017429
 72
1
 10
745.3991988745
 20
108.3109017429
 11
772.5550243368
 21
108.3109017429
 72
1
 10
772.5550243368
 20
108.3109017429
 11
772.7508136253
 21
108.2980694144
 72
1
 10
772.7508136253
 20
108.2980694144
 11
772.9432529048
 21
108.2597908617
 72
1
 10
772.9432529048
 20
108.2597908617
 11
773.1290494859
 21
108.196721421
 72
1
 10
773.1290494859
 20
108.196721421
 11
773.3050243375
 21
108.1099402278
 72
1
 10
773.3050243375
 20
108.1099402278
 11
773.4681664812
 21
108.0009321324
 72
1
 10
773.4681664812
 20
108.0009321324
 11
773.6156845096
 21
107.8715622937
 72
1
 10
773.6156845096
 20
107.8715622937
 11
773.7450543484
 21
107.7240442652
 72
1
 10
773.7450543484
 20
107.7240442652
 11
773.8540624438
 21
107.5609021216
 72
1
 10
773.8540624438
 20
107.5609021216
 11
773.9408436369
 21
107.3849272699
 72
1
 10
773.9408436369
 20
107.3849272699
 11
774.0039130777
 21
107.1991306889
 72
1
 10
774.0039130777
 20
107.1991306889
 11
774.0421916303
 21
107.0066914093
 72
1
 10
774.0421916303
 20
107.0066914093
 11
774.0550243383
 21
106.8109021208
 72
1
 10
774.0550243383
 20
106.8109021208
 11
774.0421916303
 21
106.6151128323
 72
1
 10
774.0421916303
 20
106.6151128323
 11
774.0039130777
 21
106.4226735528
 72
1
 10
774.0039130777
 20
106.4226735528
 11
773.9408436369
 21
106.2368769717
 72
1
 10
773.9408436369
 20
106.2368769717
 11
773.8540624438
 21
106.0609021201
 72
1
 10
773.8540624438
 20
106.0609021201
 11
773.7450543484
 21
105.8977599764
 72
1
 10
773.7450543484
 20
105.8977599764
 11
773.6156845096
 21
105.750241948
 72
1
 10
773.6156845096
 20
105.750241948
 11
773.4681664812
 21
105.6208721092
 72
1
 10
773.4681664812
 20
105.6208721092
 11
773.3050243375
 21
105.5118640138
 72
1
 10
773.3050243375
 20
105.5118640138
 11
773.1290494859
 21
105.4250828207
 72
1
 10
773.1290494859
 20
105.4250828207
 11
772.9432529048
 21
105.3620133799
 72
1
 10
772.9432529048
 20
105.3620133799
 11
772.7508136253
 21
105.3237348273
 97
1
330
649
 75
0
 76
1
 98
1
 10
0.0
 20
0.0
  0
SOLID
  5
64B
100
AcDbEntity
  8
ALL_DETAIL_ITEM
100
AcDbTrace
 62
4
  6
CONTINUOUS
 10
839.55269638
 20
105.3098642476
 11
838.9421792795
 21
105.3276283751
 12
861.3090282716
 22
105.3108862379
 13
861.3090282716
 23
105.3108862379
  0
LWPOLYLINE
  5
64C
100
AcDbEntity
  8
ALL_DETAIL_ITEM
100
AcDbPolyline
 62
4
  6
CONTINUOUS
 90
37
 70
0
 10
866.5134392111
 20
102.228972141
 10
869.5361842781
 20
102.2309620824
 10
869.5590162243
 20
101.7080343176
 10
869.5590162243
 20
97.2057901723
 10
869.5361842781
 20
96.682851291
 10
869.4678622053
 20
96.1638951761
 10
869.3545699814
 20
95.6528685361
 10
869.1971698335
 20
95.1536606152
 10
868.996859679
 20
94.6700707096
 10
868.755164008
 20
94.2057792522
 10
868.4739222815
 20
93.7643198021
 10
868.1552749314
 20
93.3490521522
 10
861.3090282715
 20
93.6029046022
 10
861.7451119158
 20
93.6155972262
 10
862.1797200085
 20
93.6536202817
 10
862.6113819907
 20
93.716849073
 10
863.0386372723
 20
93.8050696566
 10
863.4600401736
 20
93.9179835254
 10
863.8741648174
 20
94.055208619
 10
864.2796099537
 20
94.2162806168
 10
864.6750037005
 20
94.4006545085
 10
865.0590081865
 20
94.6077064386
 10
865.2797385637
 20
94.7483262776
 10
865.4873731275
 20
94.9076489895
 10
865.6803316443
 20
95.0844620247
 10
865.8571455745
 20
95.2774197213
 10
866.0164692495
 20
95.4850535462
 10
866.1570901127
 20
95.7057832711
 10
866.2779379481
 20
95.9379289996
 10
866.3780930253
 20
96.1797239523
 10
866.4567930991
 20
96.4293279126
 10
866.5134392111
 20
96.6848412324
 10
866.5476002474
 20
96.9443192897
 10
866.5590162205
 20
97.2057901723
 10
866.5590162205
 20
101.7080343176
 10
866.5476002474
 20
101.9694940837
 10
866.5134392111
 20
102.228972141
  0
HATCH
  5
64D
100
AcDbEntity
  8
ALL_DETAIL_ITEM
100
AcDbHatch
 62
4
  6
CONTINUOUS
 10
0.0
 20
0.0
 30
0.0
210
0.0
220
0.0
230
1.0
  2
SOLID
 70
1
 71
1
 91
1
 92
1
 93
36
 72
1
 10
866.5134392111
 20
102.228972141
 11
869.5361842781
 21
102.2309620824
 72
1
 10
869.5361842781
 20
102.2309620824
 11
869.5590162243
 21
101.7080343176
 72
1
 10
869.5590162243
 20
101.7080343176
 11
869.5590162243
 21
97.2057901723
 72
1
 10
869.5590162243
 20
97.2057901723
 11
869.5361842781
 21
96.682851291
 72
1
 10
869.5361842781
 20
96.682851291
 11
869.4678622053
 21
96.1638951761
 72
1
 10
869.4678622053
 20
96.1638951761
 11
869.3545699814
 21
95.6528685361
 72
1
 10
869.3545699814
 20
95.6528685361
 11
869.1971698335
 21
95.1536606152
 72
1
 10
869.1971698335
 20
95.1536606152
 11
868.996859679
 21
94.6700707096
 72
1
 10
868.996859679
 20
94.6700707096
 11
868.755164008
 21
94.2057792522
 72
1
 10
868.755164008
 20
94.2057792522
 11
868.4739222815
 21
93.7643198021
 72
1
 10
868.4739222815
 20
93.7643198021
 11
868.1552749314
 21
93.3490521522
 72
1
 10
868.1552749314
 20
93.3490521522
 11
861.3090282715
 21
93.6029046022
 72
1
 10
861.3090282715
 20
93.6029046022
 11
861.7451119158
 21
93.6155972262
 72
1
 10
861.7451119158
 20
93.6155972262
 11
862.1797200085
 21
93.6536202817
 72
1
 10
862.1797200085
 20
93.6536202817
 11
862.6113819907
 21
93.716849073
 72
1
 10
862.6113819907
 20
93.716849073
 11
863.0386372723
 21
93.8050696566
 72
1
 10
863.0386372723
 20
93.8050696566
 11
863.4600401736
 21
93.9179835254
 72
1
 10
863.4600401736
 20
93.9179835254
 11
863.8741648174
 21
94.055208619
 72
1
 10
863.8741648174
 20
94.055208619
 11
864.2796099537
 21
94.2162806168
 72
1
 10
864.2796099537
 20
94.2162806168
 11
864.6750037005
 21
94.4006545085
 72
1
 10
864.6750037005
 20
94.4006545085
 11
865.0590081865
 21
94.6077064386
 72
1
 10
865.0590081865
 20
94.6077064386
 11
865.2797385637
 21
94.7483262776
 72
1
 10
865.2797385637
 20
94.7483262776
 11
865.4873731275
 21
94.9076489895
 72
1
 10
865.4873731275
 20
94.9076489895
 11
865.6803316443
 21
95.0844620247
 72
1
 10
865.6803316443
 20
95.0844620247
 11
865.8571455745
 21
95.2774197213
 72
1
 10
865.8571455745
 20
95.2774197213
 11
866.0164692495
 21
95.4850535462
 72
1
 10
866.0164692495
 20
95.4850535462
 11
866.1570901127
 21
95.7057832711
 72
1
 10
866.1570901127
 20
95.7057832711
 11
866.2779379481
 21
95.9379289996
 72
1
 10
866.2779379481
 20
95.9379289996
 11
866.3780930253
 21
96.1797239523
 72
1
 10
866.3780930253
 20
96.1797239523
 11
866.4567930991
 21
96.4293279126
 72
1
 10
866.4567930991
 20
96.4293279126
 11
866.5134392111
 21
96.6848412324
 72
1
 10
866.5134392111
 20
96.6848412324
 11
866.5476002474
 21
96.9443192897
 72
1
 10
866.5476002474
 20
96.9443192897
 11
866.5590162205
 21
97.2057901723
 72
1
 10
866.5590162205
 20
97.2057901723
 11
866.5590162205
 21
101.7080343176
 72
1
 10
866.5590162205
 20
101.7080343176
 11
866.5476002474
 21
101.9694940837
 72
1
 10
866.5476002474
 20
101.9694940837
 11
866.5134392111
 21
102.228972141
 97
1
330
64C
 75
0
 76
1
 98
1
 10
0.0
 20
0.0
  0
LWPOLYLINE
  5
64E
100
AcDbEntity
  8
ALL_DETAIL_ITEM
100
AcDbPolyline
 62
4
  6
CONTINUOUS
 90
6
 70
0
 10
787.1287969167
 20
97.2164235135
 10
787.1402056697
 20
96.9550990591
 10
784.1516144199
 20
96.6937409548
 10
784.1287969143
 20
97.2163562139
 10
787.1281916373
 20
121.9755864049
 10
787.1287969167
 20
97.2164235135
  0
HATCH
  5
64F
100
AcDbEntity
  8
ALL_DETAIL_ITEM
100
AcDbHatch
 62
4
  6
CONTINUOUS
 10
0.0
 20
0.0
 30
0.0
210
0.0
220
0.0
230
1.0
  2
SOLID
 70
1
 71
1
 91
1
 92
1
 93
5
 72
1
 10
787.1287969167
 20
97.2164235135
 11
787.1402056697
 21
96.9550990591
 72
1
 10
787.1402056697
 20
96.9550990591
 11
784.1516144199
 21
96.6937409548
 72
1
 10
784.1516144199
 20
96.6937409548
 11
784.1287969143
 21
97.2163562139
 72
1
 10
784.1287969143
 20
97.2163562139
 11
787.1281916373
 21
121.9755864049
 72
1
 10
787.1281916373
 20
121.9755864049
 11
787.1287969167
 21
97.2164235135
 97
1
330
64E
 75
0
 76
1
 98
1
 10
0.0
 20
0.0
  0
LWPOLYLINE
  5
650
100
AcDbEntity
  8
ALL_DETAIL_ITEM
100
AcDbPolyline
 62
4
  6
CONTINUOUS
 90
6
 70
0
 10
787.1743324279
 20
96.6957935935
 10
787.2309177741
 20
96.4404251561
 10
784.2198679364
 20
96.1750627239
 10
784.1516144199
 20
96.6937409548
 10
787.1402056697
 20
96.9550990591
 10
787.1743324279
 20
96.6957935935
  0
HATCH
  5
651
100
AcDbEntity
  8
ALL_DETAIL_ITEM
100
AcDbHatch
 62
4
  6
CONTINUOUS
 10
0.0
 20
0.0
 30
0.0
210
0.0
220
0.0
230
1.0
  2
SOLID
 70
1
 71
1
 91
1
 92
1
 93
5
 72
1
 10
787.1743324279
 20
96.6957935935
 11
787.2309177741
 21
96.4404251561
 72
1
 10
787.2309177741
 20
96.4404251561
 11
784.2198679364
 21
96.1750627239
 72
1
 10
784.2198679364
 20
96.1750627239
 11
784.1516144199
 21
96.6937409548
 72
1
 10
784.1516144199
 20
96.6937409548
 11
787.1402056697
 21
96.9550990591
 72
1
 10
787.1402056697
 20
96.9550990591
 11
787.1743324279
 21
96.6957935935
 97
1
330
650
 75
0
 76
1
 98
1
 10
0.0
 20
0.0
  0
LWPOLYLINE
  5
652
100
AcDbEntity
  8
ALL_DETAIL_ITEM
100
AcDbPolyline
 62
4
  6
CONTINUOUS
 90
6
 70
0
 10
787.3095315704
 20
96.1909454361
 10
787.4095762281
 20
95.9492724729
 10
784.3330386288
 20
95.664359499
 10
784.2198679364
 20
96.1750627239
 10
787.2309177741
 20
96.4404251561
 10
787.3095315704
 20
96.1909454361
  0
HATCH
  5
653
100
AcDbEntity
  8
ALL_DETAIL_ITEM
100
AcDbHatch
 62
4
  6
CONTINUOUS
 10
0.0
 20
0.0
 30
0.0
210
0.0
220
0.0
230
1.0
  2
SOLID
 70
1
 71
1
 91
1
 92
1
 93
5
 72
1
 10
787.3095315704
 20
96.1909454361
 11
787.4095762281
 21
95.9492724729
 72
1
 10
787.4095762281
 20
95.9492724729
 11
784.3330386288
 21
95.664359499
 72
1
 10
784.3330386288
 20
95.664359499
 11
784.2198679364
 21
96.1750627239
 72
1
 10
784.2198679364
 20
96.1750627239
 11
787.2309177741
 21
96.4404251561
 72
1
 10
787.2309177741
 20
96.4404251561
 11
787.3095315704
 21
96.1909454361
 97
1
330
652
 75
0
 76
1
 98
1
 10
0.0
 20
0.0
  0
LWPOLYLINE
  5
654
100
AcDbEntity
  8
ALL_DETAIL_ITEM
100
AcDbPolyline
 62
4
  6
CONTINUOUS
 90
6
 70
0
 10
787.53029125
 20
95.7172570064
 10
787.6707590117
 20
95.4966151769
 10
784.4902662215
 20
95.165400059
 10
784.3330386288
 20
95.664359499
 10
787.4095762281
 20
95.9492724729
 10
787.53029125
 20
95.7172570064
  0
HATCH
  5
655
100
AcDbEntity
  8
ALL_DETAIL_ITEM
100
AcDbHatch
 62
4
  6
CONTINUOUS
 10
0.0
 20
0.0
 30
0.0
210
0.0
220
0.0
230
1.0
  2
SOLID
 70
1
 71
1
 91
1
 92
1
 93
5
 72
1
 10
787.53029125
 20
95.7172570064
 11
787.6707590117
 21
95.4966151769
 72
1
 10
787.6707590117
 20
95.4966151769
 11
784.4902662215
 21
95.165400059
 72
1
 10
784.4902662215
 20
95.165400059
 11
784.3330386288
 21
95.664359499
 72
1
 10
784.3330386288
 20
95.664359499
 11
787.4095762281
 21
95.9492724729
 72
1
 10
787.4095762281
 20
95.9492724729
 11
787.53029125
 21
95.7172570064
 97
1
330
654
 75
0
 76
1
 98
1
 10
0.0
 20
0.0
  0
LWPOLYLINE
  5
656
100
AcDbEntity
  8
ALL_DETAIL_ITEM
100
AcDbPolyline
 62
4
  6
CONTINUOUS
 90
6
 70
0
 10
787.8299117366
 20
95.2890294752
 10
788.0065396133
 20
95.0961150923
 10
784.690355537
 20
94.6820541327
 10
784.4902662215
 20
95.165400059
 10
787.6707590117
 20
95.4966151769
 10
787.8299117366
 20
95.2890294752
  0
HATCH
  5
657
100
AcDbEntity
  8
ALL_DETAIL_ITEM
100
AcDbHatch
 62
4
  6
CONTINUOUS
 10
0.0
 20
0.0
 30
0.0
210
0.0
220
0.0
230
1.0
  2
SOLID
 70
1
 71
1
 91
1
 92
1
 93
5
 72
1
 10
787.8299117366
 20
95.2890294752
 11
788.0065396133
 21
95.0961150923
 72
1
 10
788.0065396133
 20
95.0961150923
 11
784.690355537
 21
94.6820541327
 72
1
 10
784.690355537
 20
94.6820541327
 11
784.4902662215
 21
95.165400059
 72
1
 10
784.4902662215
 20
95.165400059
 11
787.6707590117
 21
95.4966151769
 72
1
 10
787.6707590117
 20
95.4966151769
 11
787.8299117366
 21
95.2890294752
 97
1
330
656
 75
0
 76
1
 98
1
 10
0.0
 20
0.0
  0
LWPOLYLINE
  5
658
100
AcDbEntity
  8
ALL_DETAIL_ITEM
100
AcDbPolyline
 62
4
  6
CONTINUOUS
 90
7
 70
0
 10
788.4067275878
 20
94.7599871016
 10
788.6272456265
 20
94.6193308797
 10
784.931785581
 20
94.2179895498
 10
784.690355537
 20
94.6820541327
 10
788.0065396133
 20
95.0961150923
 10
788.1992999913
 20
94.9193189703
 10
788.4067275878
 20
94.7599871016
  0
HATCH
  5
659
100
AcDbEntity
  8
ALL_DETAIL_ITEM
100
AcDbHatch
 62
4
  6
CONTINUOUS
 10
0.0
 20
0.0
 30
0.0
210
0.0
220
0.0
230
1.0
  2
SOLID
 70
1
 71
1
 91
1
 92
1
 93
6
 72
1
 10
788.4067275878
 20
94.7599871016
 11
788.6272456265
 21
94.6193308797
 72
1
 10
788.6272456265
 20
94.6193308797
 11
784.931785581
 21
94.2179895498
 72
1
 10
784.931785581
 20
94.2179895498
 11
784.690355537
 21
94.6820541327
 72
1
 10
784.690355537
 20
94.6820541327
 11
788.0065396133
 21
95.0961150923
 72
1
 10
788.0065396133
 20
95.0961150923
 11
788.1992999913
 21
94.9193189703
 72
1
 10
788.1992999913
 20
94.9193189703
 11
788.4067275878
 21
94.7599871016
 97
1
330
658
 75
0
 76
1
 98
1
 10
0.0
 20
0.0
  0
LWPOLYLINE
  5
65A
100
AcDbEntity
  8
ALL_DETAIL_ITEM
100
AcDbPolyline
 62
4
  6
CONTINUOUS
 90
10
 70
0
 10
733.7308758656
 20
121.2612345064
 10
714.3160027225
 20
94.5271784671
 10
733.8124206063
 20
122.639026135
 10
733.8827473659
 20
122.4467510985
 10
733.9262384652
 20
122.2467029551
 10
733.9420837473
 20
122.0425831843
 10
733.9299880447
 20
121.8382278647
 10
733.8901766772
 20
121.6374057756
 10
733.8233912555
 20
121.443885696
 10
733.7308758656
 20
121.2612345064
  0
HATCH
  5
65B
100
AcDbEntity
  8
ALL_DETAIL_ITEM
100
AcDbHatch
 62
4
  6
CONTINUOUS
 10
0.0
 20
0.0
 30
0.0
210
0.0
220
0.0
230
1.0
  2
SOLID
 70
1
 71
1
 91
1
 92
1
 93
9
 72
1
 10
733.7308758656
 20
121.2612345064
 11
714.3160027225
 21
94.5271784671
 72
1
 10
714.3160027225
 20
94.5271784671
 11
733.8124206063
 21
122.639026135
 72
1
 10
733.8124206063
 20
122.639026135
 11
733.8827473659
 21
122.4467510985
 72
1
 10
733.8827473659
 20
122.4467510985
 11
733.9262384652
 21
122.2467029551
 72
1
 10
733.9262384652
 20
122.2467029551
 11
733.9420837473
 21
122.0425831843
 72
1
 10
733.9420837473
 20
122.0425831843
 11
733.9299880447
 21
121.8382278647
 72
1
 10
733.9299880447
 20
121.8382278647
 11
733.8901766772
 21
121.6374057756
 72
1
 10
733.8901766772
 20
121.6374057756
 11
733.8233912555
 21
121.443885696
 72
1
 10
733.8233912555
 20
121.443885696
 11
733.7308758656
 21
121.2612345064
 97
1
330
65A
 75
0
 76
1
 98
1
 10
0.0
 20
0.0
  0
LWPOLYLINE
  5
65C
100
AcDbEntity
  8
ALL_DETAIL_ITEM
100
AcDbPolyline
 62
4
  6
CONTINUOUS
 90
7
 70
0
 10
789.4068442342
 20
94.2272768984
 10
789.8124328582
 20
94.0659260409
 10
785.2127211044
 20
93.7767058908
 10
784.931785581
 20
94.2179895498
 10
788.6272456265
 20
94.6193308797
 10
789.0113347127
 20
94.4119470769
 10
789.4068442342
 20
94.2272768984
  0
HATCH
  5
65D
100
AcDbEntity
  8
ALL_DETAIL_ITEM
100
AcDbHatch
 62
4
  6
CONTINUOUS
 10
0.0
 20
0.0
 30
0.0
210
0.0
220
0.0
230
1.0
  2
SOLID
 70
1
 71
1
 91
1
 92
1
 93
6
 72
1
 10
789.4068442342
 20
94.2272768984
 11
789.8124328582
 21
94.0659260409
 72
1
 10
789.8124328582
 20
94.0659260409
 11
785.2127211044
 21
93.7767058908
 72
1
 10
785.2127211044
 20
93.7767058908
 11
784.931785581
 21
94.2179895498
 72
1
 10
784.931785581
 20
94.2179895498
 11
788.6272456265
 21
94.6193308797
 72
1
 10
788.6272456265
 20
94.6193308797
 11
789.0113347127
 21
94.4119470769
 72
1
 10
789.0113347127
 20
94.4119470769
 11
789.4068442342
 21
94.2272768984
 97
1
330
65C
 75
0
 76
1
 98
1
 10
0.0
 20
0.0
  0
LWPOLYLINE
  5
65E
100
AcDbEntity
  8
ALL_DETAIL_ITEM
100
AcDbPolyline
 62
4
  6
CONTINUOUS
 90
7
 70
0
 10
790.6483158369
 20
93.8154031767
 10
791.0757753744
 20
93.7270387655
 10
785.5310265545
 20
93.3615681372
 10
785.2127211044
 20
93.7767058908
 10
789.8124328582
 20
94.0659260409
 10
790.22672507
 20
93.9285002011
 10
790.6483158369
 20
93.8154031767
  0
HATCH
  5
65F
100
AcDbEntity
  8
ALL_DETAIL_ITEM
100
AcDbHatch
 62
4
  6
CONTINUOUS
 10
0.0
 20
0.0
 30
0.0
210
0.0
220
0.0
230
1.0
  2
SOLID
 70
1
 71
1
 91
1
 92
1
 93
6
 72
1
 10
790.6483158369
 20
93.8154031767
 11
791.0757753744
 21
93.7270387655
 72
1
 10
791.0757753744
 20
93.7270387655
 11
785.5310265545
 21
93.3615681372
 72
1
 10
785.5310265545
 20
93.3615681372
 11
785.2127211044
 21
93.7767058908
 72
1
 10
785.2127211044
 20
93.7767058908
 11
789.8124328582
 21
94.0659260409
 72
1
 10
789.8124328582
 20
94.0659260409
 11
790.22672507
 21
93.9285002011
 72
1
 10
790.22672507
 20
93.9285002011
 11
790.6483158369
 21
93.8154031767
 97
1
330
65E
 75
0
 76
1
 98
1
 10
0.0
 20
0.0
  0
LWPOLYLINE
  5
660
100
AcDbEntity
  8
ALL_DETAIL_ITEM
100
AcDbPolyline
 62
4
  6
CONTINUOUS
 90
10
 70
0
 10
815.9328790989
 20
93.9285002011
 10
821.2278185877
 20
94.2179895498
 10
820.9468830642
 20
93.7767058908
 10
820.6285776141
 20
93.3615681372
 10
813.7808044068
 20
93.6128985969
 10
814.2171171471
 20
93.6256182265
 10
814.6519501745
 20
93.663676166
 10
815.0838287944
 20
93.7270387655
 10
815.5112883319
 20
93.8154031767
 10
815.9328790989
 20
93.9285002011
  0
HATCH
  5
661
100
AcDbEntity
  8
ALL_DETAIL_ITEM
100
AcDbHatch
 62
4
  6
CONTINUOUS
 10
0.0
 20
0.0
 30
0.0
210
0.0
220
0.0
230
1.0
  2
SOLID
 70
1
 71
1
 91
1
 92
1
 93
9
 72
1
 10
815.9328790989
 20
93.9285002011
 11
821.2278185877
 21
94.2179895498
 72
1
 10
821.2278185877
 20
94.2179895498
 11
820.9468830642
 21
93.7767058908
 72
1
 10
820.9468830642
 20
93.7767058908
 11
820.6285776141
 21
93.3615681372
 72
1
 10
820.6285776141
 20
93.3615681372
 11
813.7808044068
 21
93.6128985969
 72
1
 10
813.7808044068
 20
93.6128985969
 11
814.2171171471
 21
93.6256182265
 72
1
 10
814.2171171471
 20
93.6256182265
 11
814.6519501745
 21
93.663676166
 72
1
 10
814.6519501745
 20
93.663676166
 11
815.0838287944
 21
93.7270387655
 72
1
 10
815.0838287944
 20
93.7270387655
 11
815.5112883319
 21
93.8154031767
 72
1
 10
815.5112883319
 20
93.8154031767
 11
815.9328790989
 21
93.9285002011
 97
1
330
660
 75
0
 76
1
 98
1
 10
0.0
 20
0.0
  0
LWPOLYLINE
  5
662
100
AcDbEntity
  8
ALL_DETAIL_ITEM
100
AcDbPolyline
 62
4
  6
CONTINUOUS
 90
6
 70
0
 10
773.9953983449
 20
93.608699584
 10
774.1911888341
 20
93.5958852079
 10
742.3991988745
 20
92.1058816613
 10
745.3991988745
 20
105.3108862379
 10
745.3991988745
 20
93.6060221146
 10
773.9953983449
 20
93.608699584
  0
HATCH
  5
663
100
AcDbEntity
  8
ALL_DETAIL_ITEM
100
AcDbHatch
 62
4
  6
CONTINUOUS
 10
0.0
 20
0.0
 30
0.0
210
0.0
220
0.0
230
1.0
  2
SOLID
 70
1
 71
1
 91
1
 92
1
 93
5
 72
1
 10
773.9953983449
 20
93.608699584
 11
774.1911888341
 21
93.5958852079
 72
1
 10
774.1911888341
 20
93.5958852079
 11
742.3991988745
 21
92.1058816613
 72
1
 10
742.3991988745
 20
92.1058816613
 11
745.3991988745
 21
105.3108862379
 72
1
 10
745.3991988745
 20
105.3108862379
 11
745.3991988745
 21
93.6060221146
 72
1
 10
745.3991988745
 20
93.6060221146
 11
773.9953983449
 21
93.608699584
 97
1
330
662
 75
0
 76
1
 98
1
 10
0.0
 20
0.0
  0
LWPOLYLINE
  5
664
100
AcDbEntity
  8
ALL_DETAIL_ITEM
100
AcDbPolyline
 62
4
  6
CONTINUOUS
 90
41
 70
0
 10
832.996439672
 20
93.5900758551
 10
833.1922289605
 20
93.6029046022
 10
861.3090282715
 20
93.6029046022
 10
868.1552749314
 20
93.3490521522
 10
867.8016470707
 20
92.9631367587
 10
867.4157300369
 20
92.609510688
 10
867.0004609089
 20
92.2908652641
 10
866.5590001544
 20
92.0096255852
 10
866.0213938738
 20
91.7197528834
 10
865.467842628
 20
91.4616294349
 10
864.9002194371
 20
91.2361286379
 10
864.3204449355
 20
91.0440135067
 10
863.7304808735
 20
90.8859340904
 10
863.1323234791
 20
90.7624252733
 10
862.5279967037
 20
90.6739049654
 10
861.9195453737
 20
90.6206726877
 10
861.3090282715
 20
90.602922747
 10
833.1922289605
 20
90.602922747
 10
832.996439672
 20
90.615741268
 10
832.8040003925
 20
90.6540198207
 10
832.6182038114
 20
90.7170892614
 10
832.4422289598
 20
90.8038704546
 10
832.2790868161
 20
90.9128785499
 10
832.1315687877
 20
91.0422483887
 10
832.0021989489
 20
91.1897664171
 10
831.8931908536
 20
91.3529085608
 10
831.8064096604
 20
91.5288834124
 10
831.7433402197
 20
91.7146799935
 10
831.705061667
 20
91.907119273
 10
831.692228959
 20
92.1029085616
 10
831.705061667
 20
92.2986978501
 10
831.7433402197
 20
92.4911371296
 10
831.8064096604
 20
92.6769337107
 10
831.8931908536
 20
92.8529085623
 10
832.0021989489
 20
93.016050706
 10
832.1315687877
 20
93.1635687344
 10
832.2790868161
 20
93.2929385732
 10
832.4422289598
 20
93.4019466685
 10
832.6182038114
 20
93.4887278617
 10
832.8040003925
 20
93.5517973024
 10
832.996439672
 20
93.5900758551
  0
HATCH
  5
665
100
AcDbEntity
  8
ALL_DETAIL_ITEM
100
AcDbHatch
 62
4
  6
CONTINUOUS
 10
0.0
 20
0.0
 30
0.0
210
0.0
220
0.0
230
1.0
  2
SOLID
 70
1
 71
1
 91
1
 92
1
 93
40
 72
1
 10
832.996439672
 20
93.5900758551
 11
833.1922289605
 21
93.6029046022
 72
1
 10
833.1922289605
 20
93.6029046022
 11
861.3090282715
 21
93.6029046022
 72
1
 10
861.3090282715
 20
93.6029046022
 11
868.1552749314
 21
93.3490521522
 72
1
 10
868.1552749314
 20
93.3490521522
 11
867.8016470707
 21
92.9631367587
 72
1
 10
867.8016470707
 20
92.9631367587
 11
867.4157300369
 21
92.609510688
 72
1
 10
867.4157300369
 20
92.609510688
 11
867.0004609089
 21
92.2908652641
 72
1
 10
867.0004609089
 20
92.2908652641
 11
866.5590001544
 21
92.0096255852
 72
1
 10
866.5590001544
 20
92.0096255852
 11
866.0213938738
 21
91.7197528834
 72
1
 10
866.0213938738
 20
91.7197528834
 11
865.467842628
 21
91.4616294349
 72
1
 10
865.467842628
 20
91.4616294349
 11
864.9002194371
 21
91.2361286379
 72
1
 10
864.9002194371
 20
91.2361286379
 11
864.3204449355
 21
91.0440135067
 72
1
 10
864.3204449355
 20
91.0440135067
 11
863.7304808735
 21
90.8859340904
 72
1
 10
863.7304808735
 20
90.8859340904
 11
863.1323234791
 21
90.7624252733
 72
1
 10
863.1323234791
 20
90.7624252733
 11
862.5279967037
 21
90.6739049654
 72
1
 10
862.5279967037
 20
90.6739049654
 11
861.9195453737
 21
90.6206726877
 72
1
 10
861.9195453737
 20
90.6206726877
 11
861.3090282715
 21
90.602922747
 72
1
 10
861.3090282715
 20
90.602922747
 11
833.1922289605
 21
90.602922747
 72
1
 10
833.1922289605
 20
90.602922747
 11
832.996439672
 21
90.615741268
 72
1
 10
832.996439672
 20
90.615741268
 11
832.8040003925
 21
90.6540198207
 72
1
 10
832.8040003925
 20
90.6540198207
 11
832.6182038114
 21
90.7170892614
 72
1
 10
832.6182038114
 20
90.7170892614
 11
832.4422289598
 21
90.8038704546
 72
1
 10
832.4422289598
 20
90.8038704546
 11
832.2790868161
 21
90.9128785499
 72
1
 10
832.2790868161
 20
90.9128785499
 11
832.1315687877
 21
91.0422483887
 72
1
 10
832.1315687877
 20
91.0422483887
 11
832.0021989489
 21
91.1897664171
 72
1
 10
832.0021989489
 20
91.1897664171
 11
831.8931908536
 21
91.3529085608
 72
1
 10
831.8931908536
 20
91.3529085608
 11
831.8064096604
 21
91.5288834124
 72
1
 10
831.8064096604
 20
91.5288834124
 11
831.7433402197
 21
91.7146799935
 72
1
 10
831.7433402197
 20
91.7146799935
 11
831.705061667
 21
91.907119273
 72
1
 10
831.705061667
 20
91.907119273
 11
831.692228959
 21
92.1029085616
 72
1
 10
831.692228959
 20
92.1029085616
 11
831.705061667
 21
92.2986978501
 72
1
 10
831.705061667
 20
92.2986978501
 11
831.7433402197
 21
92.4911371296
 72
1
 10
831.7433402197
 20
92.4911371296
 11
831.8064096604
 21
92.6769337107
 72
1
 10
831.8064096604
 20
92.6769337107
 11
831.8931908536
 21
92.8529085623
 72
1
 10
831.8931908536
 20
92.8529085623
 11
832.0021989489
 21
93.016050706
 72
1
 10
832.0021989489
 20
93.016050706
 11
832.1315687877
 21
93.1635687344
 72
1
 10
832.1315687877
 20
93.1635687344
 11
832.2790868161
 21
93.2929385732
 72
1
 10
832.2790868161
 20
93.2929385732
 11
832.4422289598
 21
93.4019466685
 72
1
 10
832.4422289598
 20
93.4019466685
 11
832.6182038114
 21
93.4887278617
 72
1
 10
832.6182038114
 20
93.4887278617
 11
832.8040003925
 21
93.5517973024
 72
1
 10
832.8040003925
 20
93.5517973024
 11
832.996439672
 21
93.5900758551
 97
1
330
664
 75
0
 76
1
 98
1
 10
0.0
 20
0.0
  0
LWPOLYLINE
  5
666
100
AcDbEntity
  8
ALL_DETAIL_ITEM
100
AcDbPolyline
 62
4
  6
CONTINUOUS
 90
34
 70
0
 10
813.7808044068
 20
93.6128985969
 10
820.6285776141
 20
93.3615681372
 10
820.2753218606
 20
92.9757393714
 10
819.8898011044
 20
92.6221471274
 10
819.4749459111
 20
92.3034497403
 10
819.0339098338
 20
92.0221372964
 10
818.4960899356
 20
91.7317730526
 10
817.9422785981
 20
91.4731742331
 10
817.3743540192
 20
91.2472830326
 10
816.794242261
 20
91.0548060973
 10
816.2039107168
 20
90.8964500733
 10
815.6053614396
 20
90.7727197077
 10
815.0006243519
 20
90.6840187984
 10
814.3917503617
 20
90.6306838434
 10
813.7808044068
 20
90.6128830919
 10
792.378799762
 20
90.6128830919
 10
791.7678538071
 20
90.6306838434
 10
791.1589798169
 20
90.6840187984
 10
790.5542427292
 20
90.7727197077
 10
789.955693452
 20
90.8964500733
 10
789.3653619078
 20
91.0548060973
 10
788.7852501496
 20
91.2472830326
 10
788.2173255708
 20
91.4731742331
 10
787.6635142332
 20
91.7317730526
 10
787.1256943348
 20
92.0221372964
 10
786.6846582577
 20
92.3034497403
 10
786.2698030643
 20
92.6221471274
 10
785.884282308
 20
92.9757393714
 10
785.5310265545
 20
93.3615681372
 10
791.0757753744
 20
93.7270387655
 10
791.5076539944
 20
93.663676166
 10
791.9424870218
 20
93.6256182265
 10
792.378799762
 20
93.6128985969
 10
813.7808044068
 20
93.6128985969
  0
HATCH
  5
667
100
AcDbEntity
  8
ALL_DETAIL_ITEM
100
AcDbHatch
 62
4
  6
CONTINUOUS
 10
0.0
 20
0.0
 30
0.0
210
0.0
220
0.0
230
1.0
  2
SOLID
 70
1
 71
1
 91
1
 92
1
 93
33
 72
1
 10
813.7808044068
 20
93.6128985969
 11
820.6285776141
 21
93.3615681372
 72
1
 10
820.6285776141
 20
93.3615681372
 11
820.2753218606
 21
92.9757393714
 72
1
 10
820.2753218606
 20
92.9757393714
 11
819.8898011044
 21
92.6221471274
 72
1
 10
819.8898011044
 20
92.6221471274
 11
819.4749459111
 21
92.3034497403
 72
1
 10
819.4749459111
 20
92.3034497403
 11
819.0339098338
 21
92.0221372964
 72
1
 10
819.0339098338
 20
92.0221372964
 11
818.4960899356
 21
91.7317730526
 72
1
 10
818.4960899356
 20
91.7317730526
 11
817.9422785981
 21
91.4731742331
 72
1
 10
817.9422785981
 20
91.4731742331
 11
817.3743540192
 21
91.2472830326
 72
1
 10
817.3743540192
 20
91.2472830326
 11
816.794242261
 21
91.0548060973
 72
1
 10
816.794242261
 20
91.0548060973
 11
816.2039107168
 21
90.8964500733
 72
1
 10
816.2039107168
 20
90.8964500733
 11
815.6053614396
 21
90.7727197077
 72
1
 10
815.6053614396
 20
90.7727197077
 11
815.0006243519
 21
90.6840187984
 72
1
 10
815.0006243519
 20
90.6840187984
 11
814.3917503617
 21
90.6306838434
 72
1
 10
814.3917503617
 20
90.6306838434
 11
813.7808044068
 21
90.6128830919
 72
1
 10
813.7808044068
 20
90.6128830919
 11
792.378799762
 21
90.6128830919
 72
1
 10
792.378799762
 20
90.6128830919
 11
791.7678538071
 21
90.6306838434
 72
1
 10
791.7678538071
 20
90.6306838434
 11
791.1589798169
 21
90.6840187984
 72
1
 10
791.1589798169
 20
90.6840187984
 11
790.5542427292
 21
90.7727197077
 72
1
 10
790.5542427292
 20
90.7727197077
 11
789.955693452
 21
90.8964500733
 72
1
 10
789.955693452
 20
90.8964500733
 11
789.3653619078
 21
91.0548060973
 72
1
 10
789.3653619078
 20
91.0548060973
 11
788.7852501496
 21
91.2472830326
 72
1
 10
788.7852501496
 20
91.2472830326
 11
788.2173255708
 21
91.4731742331
 72
1
 10
788.2173255708
 20
91.4731742331
 11
787.6635142332
 21
91.7317730526
 72
1
 10
787.6635142332
 20
91.7317730526
 11
787.1256943348
 21
92.0221372964
 72
1
 10
787.1256943348
 20
92.0221372964
 11
786.6846582577
 21
92.3034497403
 72
1
 10
786.6846582577
 20
92.3034497403
 11
786.2698030643
 21
92.6221471274
 72
1
 10
786.2698030643
 20
92.6221471274
 11
785.884282308
 21
92.9757393714
 72
1
 10
785.884282308
 20
92.9757393714
 11
785.5310265545
 21
93.3615681372
 72
1
 10
785.5310265545
 20
93.3615681372
 11
791.0757753744
 21
93.7270387655
 72
1
 10
791.0757753744
 20
93.7270387655
 11
791.5076539944
 21
93.663676166
 72
1
 10
791.5076539944
 20
93.663676166
 11
791.9424870218
 21
93.6256182265
 72
1
 10
791.9424870218
 20
93.6256182265
 11
792.378799762
 21
93.6128985969
 72
1
 10
792.378799762
 20
93.6128985969
 11
813.7808044068
 21
93.6128985969
 97
1
330
666
 75
0
 76
1
 98
1
 10
0.0
 20
0.0
  0
LWPOLYLINE
  5
668
100
AcDbEntity
  8
ALL_DETAIL_ITEM
100
AcDbPolyline
 62
4
  6
CONTINUOUS
 90
29
 70
0
 10
639.6710404473
 20
119.3009317471
 10
622.884863004
 20
90.9423820692
 10
622.7687998072
 20
90.7737292022
 10
622.6308532229
 20
90.6224732888
 10
622.4735929349
 20
90.491373614
 10
622.299948405
 20
90.382920264
 10
622.1131543021
 20
90.2991322275
 10
621.9166902469
 20
90.2415573959
 10
621.7142159931
 20
90.2112725635
 10
621.5095032529
 20
90.2088497769
 10
621.3063654373
 20
90.2342890361
 10
621.1085866195
 20
90.2871865435
 10
620.9198510447
 20
90.3664991548
 10
620.7436744995
 20
90.470779928
 10
620.5833388196
 20
90.5981108236
 10
620.4418307553
 20
90.7460354053
 10
620.3217863342
 20
90.9118953379
 10
620.2254417567
 20
91.0925275387
 10
620.1545917399
 20
91.2846006762
 10
620.1105560857
 20
91.4845478702
 10
620.0941550949
 20
91.6886003414
 10
620.105694287
 20
91.8929893108
 10
620.1449587087
 20
92.0939459992
 10
620.211216938
 20
92.2876343278
 10
620.30323471
 20
92.4705210661
 10
640.9618545948
 20
123.0097461343
 10
659.0388461842
 20
92.4705210661
 10
656.4572178895
 20
90.9423820692
 10
639.6710404473
 20
119.3009317471
  0
HATCH
  5
669
100
AcDbEntity
  8
ALL_DETAIL_ITEM
100
AcDbHatch
 62
4
  6
CONTINUOUS
 10
0.0
 20
0.0
 30
0.0
210
0.0
220
0.0
230
1.0
  2
SOLID
 70
1
 71
1
 91
1
 92
1
 93
28
 72
1
 10
639.6710404473
 20
119.3009317471
 11
622.884863004
 21
90.9423820692
 72
1
 10
622.884863004
 20
90.9423820692
 11
622.7687998072
 21
90.7737292022
 72
1
 10
622.7687998072
 20
90.7737292022
 11
622.6308532229
 21
90.6224732888
 72
1
 10
622.6308532229
 20
90.6224732888
 11
622.4735929349
 21
90.491373614
 72
1
 10
622.4735929349
 20
90.491373614
 11
622.299948405
 21
90.382920264
 72
1
 10
622.299948405
 20
90.382920264
 11
622.1131543021
 21
90.2991322275
 72
1
 10
622.1131543021
 20
90.2991322275
 11
621.9166902469
 21
90.2415573959
 72
1
 10
621.9166902469
 20
90.2415573959
 11
621.7142159931
 21
90.2112725635
 72
1
 10
621.7142159931
 20
90.2112725635
 11
621.5095032529
 21
90.2088497769
 72
1
 10
621.5095032529
 20
90.2088497769
 11
621.3063654373
 21
90.2342890361
 72
1
 10
621.3063654373
 20
90.2342890361
 11
621.1085866195
 21
90.2871865435
 72
1
 10
621.1085866195
 20
90.2871865435
 11
620.9198510447
 21
90.3664991548
 72
1
 10
620.9198510447
 20
90.3664991548
 11
620.7436744995
 21
90.470779928
 72
1
 10
620.7436744995
 20
90.470779928
 11
620.5833388196
 21
90.5981108236
 72
1
 10
620.5833388196
 20
90.5981108236
 11
620.4418307553
 21
90.7460354053
 72
1
 10
620.4418307553
 20
90.7460354053
 11
620.3217863342
 21
90.9118953379
 72
1
 10
620.3217863342
 20
90.9118953379
 11
620.2254417567
 21
91.0925275387
 72
1
 10
620.2254417567
 20
91.0925275387
 11
620.1545917399
 21
91.2846006762
 72
1
 10
620.1545917399
 20
91.2846006762
 11
620.1105560857
 21
91.4845478702
 72
1
 10
620.1105560857
 20
91.4845478702
 11
620.0941550949
 21
91.6886003414
 72
1
 10
620.0941550949
 20
91.6886003414
 11
620.105694287
 21
91.8929893108
 72
1
 10
620.105694287
 20
91.8929893108
 11
620.1449587087
 21
92.0939459992
 72
1
 10
620.1449587087
 20
92.0939459992
 11
620.211216938
 21
92.2876343278
 72
1
 10
620.211216938
 20
92.2876343278
 11
620.30323471
 21
92.4705210661
 72
1
 10
620.30323471
 20
92.4705210661
 11
640.9618545948
 21
123.0097461343
 72
1
 10
640.9618545948
 20
123.0097461343
 11
659.0388461842
 21
92.4705210661
 72
1
 10
659.0388461842
 20
92.4705210661
 11
656.4572178895
 21
90.9423820692
 72
1
 10
656.4572178895
 20
90.9423820692
 11
639.6710404473
 21
119.3009317471
 97
1
330
668
 75
0
 76
1
 98
1
 10
0.0
 20
0.0
  0
LWPOLYLINE
  5
66A
100
AcDbEntity
  8
ALL_DETAIL_ITEM
100
AcDbPolyline
 62
4
  6
CONTINUOUS
 90
41
 70
0
 10
775.4955387852
 20
92.1088400344
 10
775.4827244091
 20
91.9130495452
 10
775.4444638748
 20
91.7206066825
 10
775.3814118305
 20
91.5348041971
 10
775.2946471143
 20
91.3588212209
 10
775.1856542944
 20
91.1956688714
 10
775.0562982684
 20
91.0481387308
 10
774.9087923535
 20
90.9187550804
 10
774.745660417
 20
90.8097317105
 10
774.5696936915
 20
90.7229340411
 10
774.3839030164
 20
90.6598472045
 10
774.1914673218
 20
90.6215506338
 10
773.9956792353
 20
90.6086995936
 10
743.8993393214
 20
90.6058816664
 10
743.7425365458
 20
90.6140851206
 10
743.5874504
 20
90.6386349567
 10
743.4357802425
 20
90.6792621694
 10
743.2891880013
 20
90.7355215856
 10
743.1492799629
 20
90.8067967417
 10
743.0175891717
 20
90.8923066394
 10
742.8955586314
 20
90.9911143027
 10
742.7845254934
 20
91.1021370451
 10
742.6857064048
 20
91.2241583335
 10
742.6001841773
 20
91.3558411178
 10
742.5288959218
 20
91.4957424821
 10
742.4726227804
 20
91.6423294551
 10
742.4319813669
 20
91.793995808
 10
742.4074170102
 20
91.9490796545
 10
742.3991988745
 20
92.1058816613
 10
774.1911888341
 20
93.5958852079
 10
774.3836316968
 20
93.5576246735
 10
774.5694341823
 20
93.4945726293
 10
774.7454171585
 20
93.407807913
 10
774.9085695079
 20
93.2988150932
 10
775.0560996486
 20
93.1694590671
 10
775.185483299
 20
93.0219531523
 10
775.2945066689
 20
92.8588212158
 10
775.3813043382
 20
92.6828544903
 10
775.4443911749
 20
92.4970638152
 10
775.4826877455
 20
92.3046281206
 10
775.4955387852
 20
92.1088400344
  0
HATCH
  5
66B
100
AcDbEntity
  8
ALL_DETAIL_ITEM
100
AcDbHatch
 62
4
  6
CONTINUOUS
 10
0.0
 20
0.0
 30
0.0
210
0.0
220
0.0
230
1.0
  2
SOLID
 70
1
 71
1
 91
1
 92
1
 93
40
 72
1
 10
775.4955387852
 20
92.1088400344
 11
775.4827244091
 21
91.9130495452
 72
1
 10
775.4827244091
 20
91.9130495452
 11
775.4444638748
 21
91.7206066825
 72
1
 10
775.4444638748
 20
91.7206066825
 11
775.3814118305
 21
91.5348041971
 72
1
 10
775.3814118305
 20
91.5348041971
 11
775.2946471143
 21
91.3588212209
 72
1
 10
775.2946471143
 20
91.3588212209
 11
775.1856542944
 21
91.1956688714
 72
1
 10
775.1856542944
 20
91.1956688714
 11
775.0562982684
 21
91.0481387308
 72
1
 10
775.0562982684
 20
91.0481387308
 11
774.9087923535
 21
90.9187550804
 72
1
 10
774.9087923535
 20
90.9187550804
 11
774.745660417
 21
90.8097317105
 72
1
 10
774.745660417
 20
90.8097317105
 11
774.5696936915
 21
90.7229340411
 72
1
 10
774.5696936915
 20
90.7229340411
 11
774.3839030164
 21
90.6598472045
 72
1
 10
774.3839030164
 20
90.6598472045
 11
774.1914673218
 21
90.6215506338
 72
1
 10
774.1914673218
 20
90.6215506338
 11
773.9956792353
 21
90.6086995936
 72
1
 10
773.9956792353
 20
90.6086995936
 11
743.8993393214
 21
90.6058816664
 72
1
 10
743.8993393214
 20
90.6058816664
 11
743.7425365458
 21
90.6140851206
 72
1
 10
743.7425365458
 20
90.6140851206
 11
743.5874504
 21
90.6386349567
 72
1
 10
743.5874504
 20
90.6386349567
 11
743.4357802425
 21
90.6792621694
 72
1
 10
743.4357802425
 20
90.6792621694
 11
743.2891880013
 21
90.7355215856
 72
1
 10
743.2891880013
 20
90.7355215856
 11
743.1492799629
 21
90.8067967417
 72
1
 10
743.1492799629
 20
90.8067967417
 11
743.0175891717
 21
90.8923066394
 72
1
 10
743.0175891717
 20
90.8923066394
 11
742.8955586314
 21
90.9911143027
 72
1
 10
742.8955586314
 20
90.9911143027
 11
742.7845254934
 21
91.1021370451
 72
1
 10
742.7845254934
 20
91.1021370451
 11
742.6857064048
 21
91.2241583335
 72
1
 10
742.6857064048
 20
91.2241583335
 11
742.6001841773
 21
91.3558411178
 72
1
 10
742.6001841773
 20
91.3558411178
 11
742.5288959218
 21
91.4957424821
 72
1
 10
742.5288959218
 20
91.4957424821
 11
742.4726227804
 21
91.6423294551
 72
1
 10
742.4726227804
 20
91.6423294551
 11
742.4319813669
 21
91.793995808
 72
1
 10
742.4319813669
 20
91.793995808
 11
742.4074170102
 21
91.9490796545
 72
1
 10
742.4074170102
 20
91.9490796545
 11
742.3991988745
 21
92.1058816613
 72
1
 10
742.3991988745
 20
92.1058816613
 11
774.1911888341
 21
93.5958852079
 72
1
 10
774.1911888341
 20
93.5958852079
 11
774.3836316968
 21
93.5576246735
 72
1
 10
774.3836316968
 20
93.5576246735
 11
774.5694341823
 21
93.4945726293
 72
1
 10
774.5694341823
 20
93.4945726293
 11
774.7454171585
 21
93.407807913
 72
1
 10
774.7454171585
 20
93.407807913
 11
774.9085695079
 21
93.2988150932
 72
1
 10
774.9085695079
 20
93.2988150932
 11
775.0560996486
 21
93.1694590671
 72
1
 10
775.0560996486
 20
93.1694590671
 11
775.185483299
 21
93.0219531523
 72
1
 10
775.185483299
 20
93.0219531523
 11
775.2945066689
 21
92.8588212158
 72
1
 10
775.2945066689
 20
92.8588212158
 11
775.3813043382
 21
92.6828544903
 72
1
 10
775.3813043382
 20
92.6828544903
 11
775.4443911749
 21
92.4970638152
 72
1
 10
775.4443911749
 20
92.4970638152
 11
775.4826877455
 21
92.3046281206
 72
1
 10
775.4826877455
 20
92.3046281206
 11
775.4955387852
 21
92.1088400344
 97
1
330
66A
 75
0
 76
1
 98
1
 10
0.0
 20
0.0
  0
LWPOLYLINE
  5
66C
100
AcDbEntity
  8
ALL_DETAIL_ITEM
100
AcDbPolyline
 62
4
  6
CONTINUOUS
 90
44
 70
0
 10
698.5885533106
 20
92.2980641061
 10
698.6013860185
 20
92.102291153
 10
698.5885533106
 20
91.906485529
 10
698.5502747579
 20
91.7140462495
 10
698.4872053172
 20
91.5282496684
 10
698.400424124
 20
91.3522704519
 10
698.2914160287
 20
91.1891326731
 10
698.1620461899
 20
91.0416146447
 10
698.0145281615
 20
90.9122448059
 10
697.8513860178
 20
90.8032400889
 10
697.6754111662
 20
90.7164555174
 10
697.4896145851
 20
90.6533860767
 10
697.2971753056
 20
90.615107524
 10
697.101386017
 20
90.6022834005
 10
670.2233857833
 20
90.6022834005
 10
670.0665930882
 20
90.610491973
 10
669.9115182467
 20
90.635053415
 10
669.7598602913
 20
90.6756900417
 10
669.6132808181
 20
90.7319566297
 10
669.4733857825
 20
90.8032400889
 10
669.341707904
 20
90.8887493248
 10
669.2196898727
 20
90.9875575782
 10
669.108668544
 20
91.098578907
 10
669.0098602905
 20
91.2205969382
 10
668.9243476763
 20
91.3522704519
 10
668.8530675955
 20
91.4921698523
 10
668.7968010074
 20
91.6387493255
 10
668.7561643807
 20
91.790407281
 10
668.7316029387
 20
91.9454821225
 10
668.7233857818
 20
92.102291153
 10
671.7233857848
 20
121.9490703515
 10
671.7233857848
 20
93.6022652557
 10
697.101386017
 20
93.6022652557
 10
697.2971753056
 20
93.5894421111
 10
697.4896145851
 20
93.5511635584
 10
697.6754111662
 20
93.4880941177
 10
697.8513860178
 20
93.4013129245
 10
698.0145281615
 20
93.2923048292
 10
698.1620461899
 20
93.1629349904
 10
698.2914160287
 20
93.015416962
 10
698.400424124
 20
92.8522748183
 10
698.4872053172
 20
92.6762999667
 10
698.5502747579
 20
92.4905033856
 10
698.5885533106
 20
92.2980641061
  0
HATCH
  5
66D
100
AcDbEntity
  8
ALL_DETAIL_ITEM
100
AcDbHatch
 62
4
  6
CONTINUOUS
 10
0.0
 20
0.0
 30
0.0
210
0.0
220
0.0
230
1.0
  2
SOLID
 70
1
 71
1
 91
1
 92
1
 93
43
 72
1
 10
698.5885533106
 20
92.2980641061
 11
698.6013860185
 21
92.102291153
 72
1
 10
698.6013860185
 20
92.102291153
 11
698.5885533106
 21
91.906485529
 72
1
 10
698.5885533106
 20
91.906485529
 11
698.5502747579
 21
91.7140462495
 72
1
 10
698.5502747579
 20
91.7140462495
 11
698.4872053172
 21
91.5282496684
 72
1
 10
698.4872053172
 20
91.5282496684
 11
698.400424124
 21
91.3522704519
 72
1
 10
698.400424124
 20
91.3522704519
 11
698.2914160287
 21
91.1891326731
 72
1
 10
698.2914160287
 20
91.1891326731
 11
698.1620461899
 21
91.0416146447
 72
1
 10
698.1620461899
 20
91.0416146447
 11
698.0145281615
 21
90.9122448059
 72
1
 10
698.0145281615
 20
90.9122448059
 11
697.8513860178
 21
90.8032400889
 72
1
 10
697.8513860178
 20
90.8032400889
 11
697.6754111662
 21
90.7164555174
 72
1
 10
697.6754111662
 20
90.7164555174
 11
697.4896145851
 21
90.6533860767
 72
1
 10
697.4896145851
 20
90.6533860767
 11
697.2971753056
 21
90.615107524
 72
1
 10
697.2971753056
 20
90.615107524
 11
697.101386017
 21
90.6022834005
 72
1
 10
697.101386017
 20
90.6022834005
 11
670.2233857833
 21
90.6022834005
 72
1
 10
670.2233857833
 20
90.6022834005
 11
670.0665930882
 21
90.610491973
 72
1
 10
670.0665930882
 20
90.610491973
 11
669.9115182467
 21
90.635053415
 72
1
 10
669.9115182467
 20
90.635053415
 11
669.7598602913
 21
90.6756900417
 72
1
 10
669.7598602913
 20
90.6756900417
 11
669.6132808181
 21
90.7319566297
 72
1
 10
669.6132808181
 20
90.7319566297
 11
669.4733857825
 21
90.8032400889
 72
1
 10
669.4733857825
 20
90.8032400889
 11
669.341707904
 21
90.8887493248
 72
1
 10
669.341707904
 20
90.8887493248
 11
669.2196898727
 21
90.9875575782
 72
1
 10
669.2196898727
 20
90.9875575782
 11
669.108668544
 21
91.098578907
 72
1
 10
669.108668544
 20
91.098578907
 11
669.0098602905
 21
91.2205969382
 72
1
 10
669.0098602905
 20
91.2205969382
 11
668.9243476763
 21
91.3522704519
 72
1
 10
668.9243476763
 20
91.3522704519
 11
668.8530675955
 21
91.4921698523
 72
1
 10
668.8530675955
 20
91.4921698523
 11
668.7968010074
 21
91.6387493255
 72
1
 10
668.7968010074
 20
91.6387493255
 11
668.7561643807
 21
91.790407281
 72
1
 10
668.7561643807
 20
91.790407281
 11
668.7316029387
 21
91.9454821225
 72
1
 10
668.7316029387
 20
91.9454821225
 11
668.7233857818
 21
92.102291153
 72
1
 10
668.7233857818
 20
92.102291153
 11
671.7233857848
 21
121.9490703515
 72
1
 10
671.7233857848
 20
121.9490703515
 11
671.7233857848
 21
93.6022652557
 72
1
 10
671.7233857848
 20
93.6022652557
 11
697.101386017
 21
93.6022652557
 72
1
 10
697.101386017
 20
93.6022652557
 11
697.2971753056
 21
93.5894421111
 72
1
 10
697.2971753056
 20
93.5894421111
 11
697.4896145851
 21
93.5511635584
 72
1
 10
697.4896145851
 20
93.5511635584
 11
697.6754111662
 21
93.4880941177
 72
1
 10
697.6754111662
 20
93.4880941177
 11
697.8513860178
 21
93.4013129245
 72
1
 10
697.8513860178
 20
93.4013129245
 11
698.0145281615
 21
93.2923048292
 72
1
 10
698.0145281615
 20
93.2923048292
 11
698.1620461899
 21
93.1629349904
 72
1
 10
698.1620461899
 20
93.1629349904
 11
698.2914160287
 21
93.015416962
 72
1
 10
698.2914160287
 20
93.015416962
 11
698.400424124
 21
92.8522748183
 72
1
 10
698.400424124
 20
92.8522748183
 11
698.4872053172
 21
92.6762999667
 72
1
 10
698.4872053172
 20
92.6762999667
 11
698.5502747579
 21
92.4905033856
 72
1
 10
698.5502747579
 20
92.4905033856
 11
698.5885533106
 21
92.2980641061
 97
1
330
66C
 75
0
 76
1
 98
1
 10
0.0
 20
0.0
  0
LWPOLYLINE
  5
66E
100
AcDbEntity
  8
ALL_DETAIL_ITEM
100
AcDbPolyline
 62
4
  6
CONTINUOUS
 90
25
 70
0
 10
659.1166391371
 20
91.0925275387
 10
659.0202945596
 20
90.9118953379
 10
658.9002501385
 20
90.7460354053
 10
658.7587420743
 20
90.5981108236
 10
658.5984063943
 20
90.470779928
 10
658.4222298491
 20
90.3664991548
 10
658.2334942743
 20
90.2871865435
 10
658.0357154565
 20
90.2342890361
 10
657.832577641
 20
90.2088497769
 10
657.6278649008
 20
90.2112725635
 10
657.4253906469
 20
90.2415573959
 10
657.2289265918
 20
90.2991322275
 10
657.0421324888
 20
90.382920264
 10
656.8684879589
 20
90.491373614
 10
656.711227671
 20
90.6224732888
 10
656.5732810866
 20
90.7737292022
 10
656.4572178895
 20
90.9423820692
 10
659.0388461842
 20
92.4705210661
 10
659.1308639558
 20
92.2876343278
 10
659.1971221851
 20
92.0939459992
 10
659.2363866068
 20
91.8929893108
 10
659.2479257989
 20
91.6886003414
 10
659.2315248081
 20
91.4845478702
 10
659.1874891539
 20
91.2846006762
 10
659.1166391371
 20
91.0925275387
  0
HATCH
  5
66F
100
AcDbEntity
  8
ALL_DETAIL_ITEM
100
AcDbHatch
 62
4
  6
CONTINUOUS
 10
0.0
 20
0.0
 30
0.0
210
0.0
220
0.0
230
1.0
  2
SOLID
 70
1
 71
1
 91
1
 92
1
 93
24
 72
1
 10
659.1166391371
 20
91.0925275387
 11
659.0202945596
 21
90.9118953379
 72
1
 10
659.0202945596
 20
90.9118953379
 11
658.9002501385
 21
90.7460354053
 72
1
 10
658.9002501385
 20
90.7460354053
 11
658.7587420743
 21
90.5981108236
 72
1
 10
658.7587420743
 20
90.5981108236
 11
658.5984063943
 21
90.470779928
 72
1
 10
658.5984063943
 20
90.470779928
 11
658.4222298491
 21
90.3664991548
 72
1
 10
658.4222298491
 20
90.3664991548
 11
658.2334942743
 21
90.2871865435
 72
1
 10
658.2334942743
 20
90.2871865435
 11
658.0357154565
 21
90.2342890361
 72
1
 10
658.0357154565
 20
90.2342890361
 11
657.832577641
 21
90.2088497769
 72
1
 10
657.832577641
 20
90.2088497769
 11
657.6278649008
 21
90.2112725635
 72
1
 10
657.6278649008
 20
90.2112725635
 11
657.4253906469
 21
90.2415573959
 72
1
 10
657.4253906469
 20
90.2415573959
 11
657.2289265918
 21
90.2991322275
 72
1
 10
657.2289265918
 20
90.2991322275
 11
657.0421324888
 21
90.382920264
 72
1
 10
657.0421324888
 20
90.382920264
 11
656.8684879589
 21
90.491373614
 72
1
 10
656.8684879589
 20
90.491373614
 11
656.711227671
 21
90.6224732888
 72
1
 10
656.711227671
 20
90.6224732888
 11
656.5732810866
 21
90.7737292022
 72
1
 10
656.5732810866
 20
90.7737292022
 11
656.4572178895
 21
90.9423820692
 72
1
 10
656.4572178895
 20
90.9423820692
 11
659.0388461842
 21
92.4705210661
 72
1
 10
659.0388461842
 20
92.4705210661
 11
659.1308639558
 21
92.2876343278
 72
1
 10
659.1308639558
 20
92.2876343278
 11
659.1971221851
 21
92.0939459992
 72
1
 10
659.1971221851
 20
92.0939459992
 11
659.2363866068
 21
91.8929893108
 72
1
 10
659.2363866068
 20
91.8929893108
 11
659.2479257989
 21
91.6886003414
 72
1
 10
659.2479257989
 20
91.6886003414
 11
659.2315248081
 21
91.4845478702
 72
1
 10
659.2315248081
 20
91.4845478702
 11
659.1874891539
 21
91.2846006762
 72
1
 10
659.1874891539
 20
91.2846006762
 11
659.1166391371
 21
91.0925275387
 97
1
330
66E
 75
0
 76
1
 98
1
 10
0.0
 20
0.0
  0
LINE
  5
670
100
AcDbEntity
  8
ALL_DETAIL_ITEM
100
AcDbLine
 62
4
  6
CONTINUOUS
 10
866.4353834347
 20
91.9429725088
 11
868.817026491
 21
94.3246155651
  0
LINE
  5
671
100
AcDbEntity
  8
ALL_DETAIL_ITEM
100
AcDbLine
 62
4
  6
CONTINUOUS
 10
858.0242516734
 20
90.6029085593
 11
861.0242516771
 21
93.6029085631
  0
LINE
  5
672
100
AcDbEntity
  8
ALL_DETAIL_ITEM
100
AcDbLine
 62
4
  6
CONTINUOUS
 10
866.5590162205
 20
99.1376731065
 11
869.5410421423
 21
102.1196990282
  0
LINE
  5
673
100
AcDbEntity
  8
ALL_DETAIL_ITEM
100
AcDbLine
 62
4
  6
CONTINUOUS
 10
850.9531838615
 20
90.6029085593
 11
853.9531838653
 21
93.6029085631
  0
LINE
  5
674
100
AcDbEntity
  8
ALL_DETAIL_ITEM
100
AcDbLine
 62
4
  6
CONTINUOUS
 10
864.7974254232
 20
104.447150121
 11
866.983822914
 21
106.6335476118
  0
LINE
  5
675
100
AcDbEntity
  8
ALL_DETAIL_ITEM
100
AcDbLine
 62
4
  6
CONTINUOUS
 10
843.8821160496
 20
90.6029085593
 11
846.8821160534
 21
93.6029085631
  0
LINE
  5
676
100
AcDbEntity
  8
ALL_DETAIL_ITEM
100
AcDbLine
 62
4
  6
CONTINUOUS
 10
858.5899822546
 20
105.3107747643
 11
861.5821648878
 21
108.3029573975
  0
LINE
  5
677
100
AcDbEntity
  8
ALL_DETAIL_ITEM
100
AcDbLine
 62
4
  6
CONTINUOUS
 10
836.8110482378
 20
90.6029085593
 11
839.8110482415
 21
93.6029085631
  0
LINE
  5
678
100
AcDbEntity
  8
ALL_DETAIL_ITEM
100
AcDbLine
 62
4
  6
CONTINUOUS
 10
851.518576231
 20
105.3104365526
 11
854.5187197251
 21
108.3105800467
  0
LINE
  5
679
100
AcDbEntity
  8
ALL_DETAIL_ITEM
100
AcDbLine
 62
4
  6
CONTINUOUS
 10
866.226000171
 20
120.0178604926
 11
867.7264397496
 21
121.5183000711
  0
LINE
  5
67A
100
AcDbEntity
  8
ALL_DETAIL_ITEM
100
AcDbLine
 62
4
  6
CONTINUOUS
 10
831.8068953719
 20
92.6698235053
 11
832.62746949
 21
93.4903976234
  0
LINE
  5
67B
100
AcDbEntity
  8
ALL_DETAIL_ITEM
100
AcDbLine
 62
4
  6
CONTINUOUS
 10
844.4471702074
 20
105.3100983408
 11
847.4473137015
 21
108.3102418349
  0
LINE
  5
67C
100
AcDbEntity
  8
ALL_DETAIL_ITEM
100
AcDbLine
 62
4
  6
CONTINUOUS
 10
859.154932359
 20
120.0178604924
 11
862.1549323622
 21
123.0178604956
  0
LINE
  5
67D
100
AcDbEntity
  8
ALL_DETAIL_ITEM
100
AcDbLine
 62
4
  6
CONTINUOUS
 10
837.56858971
 20
105.5025856553
 11
840.3759076779
 21
108.3099036232
  0
LINE
  5
67E
100
AcDbEntity
  8
ALL_DETAIL_ITEM
100
AcDbLine
 62
4
  6
CONTINUOUS
 10
852.0838645469
 20
120.0178604922
 11
855.0838645503
 21
123.0178604956
  0
LINE
  5
67F
100
AcDbEntity
  8
ALL_DETAIL_ITEM
100
AcDbLine
 62
4
  6
CONTINUOUS
 10
815.8099295209
 20
90.814993278
 11
822.0225677871
 21
97.0276315442
  0
LINE
  5
680
100
AcDbEntity
  8
ALL_DETAIL_ITEM
100
AcDbLine
 62
4
  6
CONTINUOUS
 10
832.8711768067
 20
107.8762405639
 11
834.9936086015
 21
109.9986723587
  0
LINE
  5
681
100
AcDbEntity
  8
ALL_DETAIL_ITEM
100
AcDbLine
 62
4
  6
CONTINUOUS
 10
845.0127967348
 20
120.017860492
 11
848.0127967384
 21
123.0178604956
  0
LINE
  5
682
100
AcDbEntity
  8
ALL_DETAIL_ITEM
100
AcDbLine
 62
4
  6
CONTINUOUS
 10
808.5367612101
 20
90.6128927791
 11
811.5367612138
 21
93.6128927828
  0
LINE
  5
683
100
AcDbEntity
  8
ALL_DETAIL_ITEM
100
AcDbLine
 62
4
  6
CONTINUOUS
 10
819.0309023653
 20
101.1070339343
 11
822.0309757117
 21
104.1071072807
  0
LINE
  5
684
100
AcDbEntity
  8
ALL_DETAIL_ITEM
100
AcDbLine
 62
4
  6
CONTINUOUS
 10
831.3027084333
 20
113.3788400023
 11
834.302708437
 21
116.378840006
  0
LINE
  5
685
100
AcDbEntity
  8
ALL_DETAIL_ITEM
100
AcDbLine
 62
4
  6
CONTINUOUS
 10
837.7089978104
 20
119.7851293794
 11
840.9417289266
 21
123.0178604956
  0
LINE
  5
686
100
AcDbEntity
  8
ALL_DETAIL_ITEM
100
AcDbLine
 62
4
  6
CONTINUOUS
 10
801.4656933982
 20
90.6128927791
 11
804.4656934019
 21
93.6128927828
  0
LINE
  5
687
100
AcDbEntity
  8
ALL_DETAIL_ITEM
100
AcDbLine
 62
4
  6
CONTINUOUS
 10
819.0310752347
 20
108.1782746156
 11
822.0311485807
 21
111.1783479616
  0
LINE
  5
688
100
AcDbEntity
  8
ALL_DETAIL_ITEM
100
AcDbLine
 62
4
  6
CONTINUOUS
 10
794.3946255863
 20
90.6128927791
 11
797.3946255901
 21
93.6128927828
  0
LINE
  5
689
100
AcDbEntity
  8
ALL_DETAIL_ITEM
100
AcDbLine
 62
4
  6
CONTINUOUS
 10
819.0312481042
 20
115.2495152969
 11
822.0313214497
 21
118.2495886424
  0
LINE
  5
68A
100
AcDbEntity
  8
ALL_DETAIL_ITEM
100
AcDbLine
 62
4
  6
CONTINUOUS
 10
788.1944988902
 20
91.4838338948
 11
790.5519161942
 21
93.8412511988
  0
LINE
  5
68B
100
AcDbEntity
  8
ALL_DETAIL_ITEM
100
AcDbLine
 62
4
  6
CONTINUOUS
 10
819.0860110812
 20
122.3753460858
 11
820.1271036639
 21
123.4164386685
  0
LINE
  5
68C
100
AcDbEntity
  8
ALL_DETAIL_ITEM
100
AcDbLine
 62
4
  6
CONTINUOUS
 10
784.5824129492
 20
94.9428157657
 11
787.1287902484
 21
97.4891930649
  0
LINE
  5
68D
100
AcDbEntity
  8
ALL_DETAIL_ITEM
100
AcDbLine
 62
4
  6
CONTINUOUS
 10
773.1771523264
 20
90.6086229547
 11
775.3394623806
 21
92.770933009
  0
LINE
  5
68E
100
AcDbEntity
  8
ALL_DETAIL_ITEM
100
AcDbLine
 62
4
  6
CONTINUOUS
 10
784.1286907228
 20
101.5601613511
 11
787.1286173885
 21
104.5600880168
  0
LINE
  5
68F
100
AcDbEntity
  8
ALL_DETAIL_ITEM
100
AcDbLine
 62
4
  6
CONTINUOUS
 10
766.1054223868
 20
90.607960827
 11
769.1057033204
 21
93.6082417606
  0
LINE
  5
690
100
AcDbEntity
  8
ALL_DETAIL_ITEM
100
AcDbLine
 62
4
  6
CONTINUOUS
 10
784.1285178632
 20
108.6310563034
 11
787.1284445285
 21
111.6309829687
  0
LINE
  5
691
100
AcDbEntity
  8
ALL_DETAIL_ITEM
100
AcDbLine
 62
4
  6
CONTINUOUS
 10
759.0336924473
 20
90.6072986993
 11
762.0339733807
 21
93.6075796327
  0
LINE
  5
692
100
AcDbEntity
  8
ALL_DETAIL_ITEM
100
AcDbLine
 62
4
  6
CONTINUOUS
 10
784.1283450036
 20
115.7019512556
 11
787.1282716686
 21
118.7018779207
  0
LINE
  5
693
100
AcDbEntity
  8
ALL_DETAIL_ITEM
100
AcDbLine
 62
4
  6
CONTINUOUS
 10
751.9619625077
 20
90.6066365716
 11
754.9622434409
 21
93.6069175049
  0
LINE
  5
694
100
AcDbEntity
  8
ALL_DETAIL_ITEM
100
AcDbLine
 62
4
  6
CONTINUOUS
 10
766.6662280554
 20
105.3109021193
 11
769.6662280584
 21
108.3109021223
  0
LINE
  5
695
100
AcDbEntity
  8
ALL_DETAIL_ITEM
100
AcDbLine
 62
4
  6
CONTINUOUS
 10
744.8902325682
 20
90.6059744439
 11
747.8905135012
 21
93.606255377
  0
LINE
  5
696
100
AcDbEntity
  8
ALL_DETAIL_ITEM
100
AcDbLine
 62
4
  6
CONTINUOUS
 10
759.5951602435
 20
105.3109021193
 11
762.5951602465
 21
108.3109021223
  0
LINE
  5
697
100
AcDbEntity
  8
ALL_DETAIL_ITEM
100
AcDbLine
 62
4
  6
CONTINUOUS
 10
774.34488342
 20
120.0606252958
 11
775.4543062804
 21
121.1700481562
  0
LINE
  5
698
100
AcDbEntity
  8
ALL_DETAIL_ITEM
100
AcDbLine
 62
4
  6
CONTINUOUS
 10
742.3991988745
 20
95.1860085622
 11
745.3991988745
 21
98.1860085622
  0
LINE
  5
699
100
AcDbEntity
  8
ALL_DETAIL_ITEM
100
AcDbLine
 62
4
  6
CONTINUOUS
 10
752.5240924317
 20
105.3109021193
 11
755.5240924347
 21
108.3109021223
  0
LINE
  5
69A
100
AcDbEntity
  8
ALL_DETAIL_ITEM
100
AcDbLine
 62
4
  6
CONTINUOUS
 10
767.230291019
 20
120.0171007067
 11
770.2301934071
 21
123.0170030947
  0
LINE
  5
69B
100
AcDbEntity
  8
ALL_DETAIL_ITEM
100
AcDbLine
 62
4
  6
CONTINUOUS
 10
742.3991988745
 20
102.2570763741
 11
745.3991988745
 21
105.2570763741
  0
LINE
  5
69C
100
AcDbEntity
  8
ALL_DETAIL_ITEM
100
AcDbLine
 62
4
  6
CONTINUOUS
 10
745.4530246198
 20
105.3109021193
 11
748.4530246228
 21
108.3109021223
  0
LINE
  5
69D
100
AcDbEntity
  8
ALL_DETAIL_ITEM
100
AcDbLine
 62
4
  6
CONTINUOUS
 10
760.1594532916
 20
120.0173307912
 11
763.1593556797
 21
123.0172331792
  0
LINE
  5
69E
100
AcDbEntity
  8
ALL_DETAIL_ITEM
100
AcDbLine
 62
4
  6
CONTINUOUS
 10
742.3991988745
 20
109.3281441859
 11
745.3991988745
 21
112.3281441859
  0
LINE
  5
69F
100
AcDbEntity
  8
ALL_DETAIL_ITEM
100
AcDbLine
 62
4
  6
CONTINUOUS
 10
753.0886155642
 20
120.0175608756
 11
756.0885179523
 21
123.0174632637
  0
LINE
  5
6A0
100
AcDbEntity
  8
ALL_DETAIL_ITEM
100
AcDbLine
 62
4
  6
CONTINUOUS
 10
742.3991988745
 20
116.3992119978
 11
745.3991988745
 21
119.3992119978
  0
LINE
  5
6A1
100
AcDbEntity
  8
ALL_DETAIL_ITEM
100
AcDbLine
 62
4
  6
CONTINUOUS
 10
746.0177778368
 20
120.0177909601
 11
749.0176802249
 21
123.0176933482
  0
LINE
  5
6A2
100
AcDbEntity
  8
ALL_DETAIL_ITEM
100
AcDbLine
 62
4
  6
CONTINUOUS
 10
711.8066290751
 20
92.8777100103
 11
713.9950171164
 21
95.0660980515
  0
LINE
  5
6A3
100
AcDbEntity
  8
ALL_DETAIL_ITEM
100
AcDbLine
 62
4
  6
CONTINUOUS
 10
715.5825201832
 20
96.6536011183
 11
724.2172739281
 21
105.2883548632
  0
LINE
  5
6A4
100
AcDbEntity
  8
ALL_DETAIL_ITEM
100
AcDbLine
 62
4
  6
CONTINUOUS
 10
709.1671392658
 20
97.3092880128
 11
711.355527307
 21
99.497676054
  0
LINE
  5
6A5
100
AcDbEntity
  8
ALL_DETAIL_ITEM
100
AcDbLine
 62
4
  6
CONTINUOUS
 10
725.997192576
 20
114.139341323
 11
733.9382720217
 21
122.0804207687
  0
LINE
  5
6A6
100
AcDbEntity
  8
ALL_DETAIL_ITEM
100
AcDbLine
 62
4
  6
CONTINUOUS
 10
695.3890582572
 20
90.6022748161
 11
698.0504002596
 21
93.2636168184
  0
LINE
  5
6A7
100
AcDbEntity
  8
ALL_DETAIL_ITEM
100
AcDbLine
 62
4
  6
CONTINUOUS
 10
706.5276494566
 20
101.7408660154
 11
708.7160374977
 21
103.9292540565
  0
LINE
  5
6A8
100
AcDbEntity
  8
ALL_DETAIL_ITEM
100
AcDbLine
 62
4
  6
CONTINUOUS
 10
688.3179904453
 20
90.6022748161
 11
691.3179904485
 21
93.6022748192
  0
LINE
  5
6A9
100
AcDbEntity
  8
ALL_DETAIL_ITEM
100
AcDbLine
 62
4
  6
CONTINUOUS
 10
703.8881596473
 20
106.172444018
 11
706.0765476883
 21
108.360832059
  0
LINE
  5
6AA
100
AcDbEntity
  8
ALL_DETAIL_ITEM
100
AcDbLine
 62
4
  6
CONTINUOUS
 10
681.2469226335
 20
90.6022748161
 11
684.2469226369
 21
93.6022748194
  0
LINE
  5
6AB
100
AcDbEntity
  8
ALL_DETAIL_ITEM
100
AcDbLine
 62
4
  6
CONTINUOUS
 10
701.248669838
 20
110.6040220206
 11
703.437057879
 21
112.7924100616
  0
LINE
  5
6AC
100
AcDbEntity
  8
ALL_DETAIL_ITEM
100
AcDbLine
 62
4
  6
CONTINUOUS
 10
674.1758548216
 20
90.6022748161
 11
677.1758548252
 21
93.6022748197
  0
LINE
  5
6AD
100
AcDbEntity
  8
ALL_DETAIL_ITEM
100
AcDbLine
 62
4
  6
CONTINUOUS
 10
698.6091800287
 20
115.0356000231
 11
700.7975680696
 21
117.2239880641
  0
LINE
  5
6AE
100
AcDbEntity
  8
ALL_DETAIL_ITEM
100
AcDbLine
 62
4
  6
CONTINUOUS
 10
668.7233857818
 20
92.2208735881
 11
671.7233857848
 21
95.2208735911
  0
LINE
  5
6AF
100
AcDbEntity
  8
ALL_DETAIL_ITEM
100
AcDbLine
 62
4
  6
CONTINUOUS
 10
695.9696902194
 20
119.4671780257
 11
698.1580782603
 21
121.6555660666
  0
LINE
  5
6B0
100
AcDbEntity
  8
ALL_DETAIL_ITEM
100
AcDbLine
 62
4
  6
CONTINUOUS
 10
668.7233857818
 20
99.2919414
 11
671.7233857848
 21
102.291941403
  0
LINE
  5
6B1
100
AcDbEntity
  8
ALL_DETAIL_ITEM
100
AcDbLine
 62
4
  6
CONTINUOUS
 10
655.2842967216
 20
92.9239201516
 11
657.4742040814
 21
95.1138275115
  0
LINE
  5
6B2
100
AcDbEntity
  8
ALL_DETAIL_ITEM
100
AcDbLine
 62
4
  6
CONTINUOUS
 10
668.7233857818
 20
106.3630092118
 11
671.7233857848
 21
109.3630092148
  0
LINE
  5
6B3
100
AcDbEntity
  8
ALL_DETAIL_ITEM
100
AcDbLine
 62
4
  6
CONTINUOUS
 10
652.6550590558
 20
97.3657502977
 11
654.8449664157
 21
99.5556576576
  0
LINE
  5
6B4
100
AcDbEntity
  8
ALL_DETAIL_ITEM
100
AcDbLine
 62
4
  6
CONTINUOUS
 10
668.7233857818
 20
113.4340770237
 11
671.7233857848
 21
116.4340770267
  0
LINE
  5
6B5
100
AcDbEntity
  8
ALL_DETAIL_ITEM
100
AcDbLine
 62
4
  6
CONTINUOUS
 10
650.02582139
 20
101.8075804438
 11
652.21572875
 21
103.9974878038
  0
LINE
  5
6B6
100
AcDbEntity
  8
ALL_DETAIL_ITEM
100
AcDbLine
 62
4
  6
CONTINUOUS
 10
668.7233857818
 20
120.5051448356
 11
671.255119211
 21
123.0368782648
  0
LINE
  5
6B7
100
AcDbEntity
  8
ALL_DETAIL_ITEM
100
AcDbLine
 62
4
  6
CONTINUOUS
 10
647.3965837242
 20
106.2494105898
 11
649.5864910843
 21
108.43931795
  0
LINE
  5
6B8
100
AcDbEntity
  8
ALL_DETAIL_ITEM
100
AcDbLine
 62
4
  6
CONTINUOUS
 10
644.7673460584
 20
110.6912407359
 11
646.9572534187
 21
112.8811480962
  0
LINE
  5
6B9
100
AcDbEntity
  8
ALL_DETAIL_ITEM
100
AcDbLine
 62
4
  6
CONTINUOUS
 10
621.5038084075
 20
94.4987708969
 11
630.0468116537
 21
103.041774143
  0
LINE
  5
6BA
100
AcDbEntity
  8
ALL_DETAIL_ITEM
100
AcDbLine
 62
4
  6
CONTINUOUS
 10
642.1381083926
 20
115.133070882
 11
644.328015753
 21
117.3229782423
  0
LINE
  5
6BB
100
AcDbEntity
  8
ALL_DETAIL_ITEM
100
AcDbLine
 62
4
  6
CONTINUOUS
 10
631.7606742117
 20
111.826704513
 11
641.6987780873
 21
121.7648083885
  0
ENDBLK
  5
6BC
100
AcDbEntity
  8
0
  6
BYBLOCK
 62
0
100
AcDbBlockEnd
  0
BLOCK
  5
6BD
100
AcDbEntity
  8
0
100
AcDbBlockBegin
  2
_FILLED
 70
64
 10
0.0
 20
0.0
  3
_FILLED
  1

  0
SOLID
  5
6BE
100
AcDbEntity
  8
0
  6
BYBLOCK
 62
0
100
AcDbTrace
 10
0.0
 20
0.0
 11
-1.0
 21
0.2142857143
 12
-1.0
 22
-0.2142857143
 13
-1.0
 23
-0.2142857143
  0
ENDBLK
  5
6BF
100
AcDbEntity
  8
0
  6
BYBLOCK
 62
0
100
AcDbBlockEnd
  0
BLOCK
  5
6C0
100
AcDbEntity
  8
0
100
AcDbBlockBegin
  2
_DOTBLANK
 70
64
 10
0.0
 20
0.0
  3
_DOTBLANK
  1

  0
CIRCLE
  5
6C1
100
AcDbEntity
  8
0
  6
BYBLOCK
 62
0
100
AcDbCircle
 10
0.0
 20
0.0
 40
0.2142857143
  0
LINE
  5
6C2
100
AcDbEntity
  8
0
  6
BYBLOCK
 62
0
100
AcDbLine
 10
-1.0
 20
0.0
 11
0.0
 21
0.0
  0
ENDBLK
  5
6C3
100
AcDbEntity
  8
0
  6
BYBLOCK
 62
0
100
AcDbBlockEnd
  0
BLOCK
  5
6C4
100
AcDbEntity
  8
ALL_DIM
100
AcDbBlockBegin
 62
2
  6
CONTINUOUS
  2
*D0
 70
65
 10
0.0
 20
0.0
  3
*D0
  1

  0
MTEXT
  5
6C5
100
AcDbEntity
  8
ALL_DIM
100
AcDbMText
 62
5
  6
CONTINUOUS
  7
STANDARD
 71
2
 72
1
 10
216.3572871767
 20
1072.5800107759
 30
0.0
 11
0.0
 21
1.0
 31
0.0
 44
0.9
  1
402
 40
17.5
 41
61.875
  0
LINE
  5
6C6
100
AcDbEntity
  8
ALL_DIM
100
AcDbLine
 62
2
  6
CONTINUOUS
 10
529.2322871767
 20
1273.5800107759
 11
233.2322871767
 21
1273.5800107759
  0
LINE
  5
6C7
100
AcDbEntity
  8
ALL_DIM
100
AcDbLine
 62
2
  6
CONTINUOUS
 10
529.2322871767
 20
871.5800107759
 11
233.2322871767
 21
871.5800107759
  0
LINE
  5
6C8
100
AcDbEntity
  8
ALL_DIM
100
AcDbLine
 62
2
  6
CONTINUOUS
 10
238.2322871767
 20
1273.5800107759
 11
238.2322871767
 21
1072.5800107759
  0
LINE
  5
6C9
100
AcDbEntity
  8
ALL_DIM
100
AcDbLine
 62
2
  6
CONTINUOUS
 10
238.2322871767
 20
871.5800107759
 11
238.2322871767
 21
1072.5800107759
  0
INSERT
  5
6CA
100
AcDbEntity
  8
ALL_DIM
100
AcDbBlockReference
 62
2
  6
CONTINUOUS
  2
_FILLED
 10
238.2322871767
 20
1273.5800107759
 41
17.5
 42
17.5
 43
17.5
 50
90.0
  0
INSERT
  5
6CB
100
AcDbEntity
  8
ALL_DIM
100
AcDbBlockReference
 62
2
  6
CONTINUOUS
  2
_FILLED
 10
238.2322871767
 20
871.5800107759
 41
17.5
 42
17.5
 43
17.5
 50
270.0
  0
ENDBLK
  5
6CC
100
AcDbEntity
  8
0
  6
BYBLOCK
 62
0
100
AcDbBlockEnd
  0
BLOCK
  5
6CD
100
AcDbEntity
  8
ALL_DIM
100
AcDbBlockBegin
 62
2
  6
CONTINUOUS
  2
*D1
 70
65
 10
0.0
 20
0.0
  3
*D1
  1

  0
MTEXT
  5
6CE
100
AcDbEntity
  8
ALL_DIM
100
AcDbMText
 62
5
  6
CONTINUOUS
  7
STANDARD
 71
2
 72
1
 10
529.2322871767
 20
843.4550107759
 30
0.0
 11
1.0
 21
0.0
 31
0.0
 44
0.9
  1
482
 40
17.5
 41
61.875
  0
LINE
  5
6CF
100
AcDbEntity
  8
ALL_DIM
100
AcDbLine
 62
2
  6
CONTINUOUS
 10
770.2322871767
 20
1072.5800107758
 11
770.2322871767
 21
816.5800107759
  0
LINE
  5
6D0
100
AcDbEntity
  8
ALL_DIM
100
AcDbLine
 62
2
  6
CONTINUOUS
 10
288.2322871767
 20
1072.5800107759
 11
288.2322871767
 21
816.5800107759
  0
LINE
  5
6D1
100
AcDbEntity
  8
ALL_DIM
100
AcDbLine
 62
2
  6
CONTINUOUS
 10
770.2322871767
 20
821.5800107759
 11
529.2322871767
 21
821.5800107759
  0
LINE
  5
6D2
100
AcDbEntity
  8
ALL_DIM
100
AcDbLine
 62
2
  6
CONTINUOUS
 10
288.2322871767
 20
821.5800107759
 11
529.2322871767
 21
821.5800107759
  0
INSERT
  5
6D3
100
AcDbEntity
  8
ALL_DIM
100
AcDbBlockReference
 62
2
  6
CONTINUOUS
  2
_FILLED
 10
770.2322871767
 20
821.5800107759
 41
17.5
 42
17.5
 43
17.5
  0
INSERT
  5
6D4
100
AcDbEntity
  8
ALL_DIM
100
AcDbBlockReference
 62
2
  6
CONTINUOUS
  2
_FILLED
 10
288.2322871767
 20
821.5800107759
 41
17.5
 42
17.5
 43
17.5
 50
180.0
  0
ENDBLK
  5
6D5
100
AcDbEntity
  8
0
  6
BYBLOCK
 62
0
100
AcDbBlockEnd
  0
BLOCK
  5
6D6
100
AcDbEntity
  8
ALL_DIM
100
AcDbBlockBegin
 62
2
  6
CONTINUOUS
  2
*D2
 70
65
 10
0.0
 20
0.0
  3
*D2
  1

  0
MTEXT
  5
6D7
100
AcDbEntity
  8
ALL_DIM
100
AcDbMText
 62
5
  6
CONTINUOUS
  7
STANDARD
 71
2
 72
1
 10
366.1575674626
 20
1104.9549610033
 30
0.0
 11
0.9999977247
 21
-0.0021332217
 31
0.0
 44
0.9
  1
R5000
 40
17.5
 41
101.25
  0
LINE
  5
6D8
100
AcDbEntity
  8
ALL_DIM
100
AcDbLine
 62
2
  6
CONTINUOUS
 10
288.2436637766
 20
1083.2461192382
 11
399.8608264461
 21
1083.0080145438
  0
INSERT
  5
6D9
100
AcDbEntity
  8
ALL_DIM
100
AcDbBlockReference
 62
2
  6
CONTINUOUS
  2
_FILLED
 10
288.2436637766
 20
1083.2461192382
 41
17.5
 42
17.5
 43
17.5
 50
179.8777753076
  0
ENDBLK
  5
6DA
100
AcDbEntity
  8
0
  6
BYBLOCK
 62
0
100
AcDbBlockEnd
  0
BLOCK
  5
6DB
100
AcDbEntity
  8
ALL_DIM
100
AcDbBlockBegin
 62
2
  6
CONTINUOUS
  2
*D3
 70
65
 10
0.0
 20
0.0
  3
*D3
  1

  0
MTEXT
  5
6DC
100
AcDbEntity
  8
ALL_DIM
100
AcDbMText
 62
5
  6
CONTINUOUS
  7
STANDARD
 71
2
 72
1
 10
522.3573889342
 20
1191.3868287404
 30
0.0
 11
0.0030501673
 21
0.9999953482
 31
0.0
 44
0.9
  1
R5000
 40
17.5
 41
101.25
  0
LINE
  5
6DD
100
AcDbEntity
  8
ALL_DIM
100
AcDbLine
 62
2
  6
CONTINUOUS
 10
544.483123874
 20
1273.5567519198
 11
544.129344029
 21
1157.5702633271
  0
INSERT
  5
6DE
100
AcDbEntity
  8
ALL_DIM
100
AcDbBlockReference
 62
2
  6
CONTINUOUS
  2
_FILLED
 10
544.483123874
 20
1273.5567519198
 41
17.5
 42
17.5
 43
17.5
 50
89.8252380137
  0
ENDBLK
  5
6DF
100
AcDbEntity
  8
0
  6
BYBLOCK
 62
0
100
AcDbBlockEnd
  0
BLOCK
  5
6E0
100
AcDbEntity
  8
ALL_DIM
100
AcDbBlockBegin
 62
2
  6
CONTINUOUS
  2
*D4
 70
65
 10
0.0
 20
0.0
  3
*D4
  1

  0
MTEXT
  5
6E1
100
AcDbEntity
  8
ALL_DIM
100
AcDbMText
 62
5
  6
CONTINUOUS
  7
STANDARD
 71
1
 72
1
 10
748.9315463431
 20
1307.0980122665
 30
0.0
 11
0.603132711
 21
0.7976408546
 31
0.0
 44
0.9
  1
R81
 40
17.5
 41
56.25
  0
LINE
  5
6E2
100
AcDbEntity
  8
ALL_DIM
100
AcDbLine
 62
2
  6
CONTINUOUS
 10
736.6838485239
 20
1254.6315093227
 11
788.9974166993
 21
1323.8160162622
  0
INSERT
  5
6E3
100
AcDbEntity
  8
ALL_DIM
100
AcDbBlockReference
 62
2
  6
CONTINUOUS
  2
_FILLED
 10
736.6838485239
 20
1254.6315093227
 41
17.5
 42
17.5
 43
17.5
 50
232.9054074404
  0
ENDBLK
  5
6E4
100
AcDbEntity
  8
0
  6
BYBLOCK
 62
0
100
AcDbBlockEnd
  0
ENDSEC
  0
SECTION
  2
ENTITIES
  0
DIMENSION
  5
6E5
100
AcDbEntity
  8
ALL_DIM
100
AcDbDimension
 62
2
  6
CONTINUOUS
  2
*D0
 10
238.2322871767
 20
871.5800107759
 11
238.2322871767
 21
1070.080006314
 70
160
 71
2
 42
402.0
  3
DIMSTYLE_1
100
AcDbAlignedDimension
 13
529.2322871767
 23
1273.5800107759
 14
529.2322871767
 24
871.5800107759
 50
270.0
100
AcDbRotatedDimension
  0
DIMENSION
  5
6E6
100
AcDbEntity
  8
ALL_DIM
100
AcDbDimension
 62
2
  6
CONTINUOUS
  2
*D1
 10
288.2322871767
 20
821.5800107759
 11
526.7322851563
 21
821.5800107759
 70
160
 71
2
 42
482.0
  3
DIMSTYLE_1
100
AcDbAlignedDimension
 13
770.2322871767
 23
1072.5800107758
 14
288.2322871767
 24
1072.5800107759
 50
180.0
100
AcDbRotatedDimension
  0
DIMENSION
  5
6E7
100
AcDbEntity
  8
ALL_DIM
100
AcDbDimension
 62
2
  6
CONTINUOUS
  2
*D2
 10
5288.2322871767
 20
1072.5800107759
 11
366.1389017728
 21
1096.2049809123
 70
164
 71
2
 42
5000.0
  1
R<>
  3
DIMSTYLE_2
100
AcDbRadialDimension
 15
288.2436637766
 25
1083.2461192382
  0
DIMENSION
  5
6E8
100
AcDbEntity
  8
ALL_DIM
100
AcDbDimension
 62
2
  6
CONTINUOUS
  2
*D3
 10
529.2322871767
 20
-3726.4199892241
 11
531.1073482312
 21
1191.3601397762
 70
164
 71
2
 42
5000.0
  1
R<>
  3
DIMSTYLE_2
100
AcDbRadialDimension
 15
544.483123874
 25
1273.5567519198
  0
DIMENSION
  5
6E9
100
AcDbEntity
  8
ALL_DIM
100
AcDbDimension
 62
2
  6
CONTINUOUS
  2
*D4
 10
687.8300989353
 20
1190.0226000985
 11
767.2196421517
 21
1316.7763670696
 70
164
 71
1
 42
81.0
  1
R<>
  3
DIMSTYLE_3
100
AcDbRadialDimension
 15
736.6838485239
 25
1254.6315093227
  0
INSERT
  5
6EA
100
AcDbEntity
  8
ALL_DETAIL_ITEM
100
AcDbBlockReference
 62
2
  6
CONTINUOUS
  2
B2B_NASLOV_RISBE_BL0
 10
712.0588661092
 20
168.8618548075
  0
INSERT
  5
6EB
100
AcDbEntity
  8
ALL_DETAIL_ITEM
100
AcDbBlockReference
 62
2
  6
CONTINUOUS
  2
U_LUNO_B2B_BL1
 10
344.897070022
 20
436.6609156503
  0
LEADER
  5
6EC
100
AcDbEntity
  8
ALL_DETAIL_ITEM
100
AcDbLeader
 62
2
  6
CONTINUOUS
  3
STANDARD
 71
1
 72
0
 73
2
 75
0
 76
2
 10
769.2669952648
 20
1118.871081779
 30
0.0
 10
805.4444310519
 20
1167.9604103677
 30
0.0
340
6ED
212
-13.8064439481
222
-18.7340271323
232
0.0
1001
ACAD
1000
DSTYLE
1002
{
1070
77
1070
0
1070
341
1005
219
1002
}
  0
INSERT
  5
6ED
102
{ACAD_REACTORS
330
6EC
102
}
100
AcDbEntity
  8
ALL_DETAIL_ITEM
100
AcDbBlockReference
 62
2
  6
CONTINUOUS
  2
POZ_FS_B2B_BL2
 10
819.250875
 20
1186.6944375
  0
LINE
  5
6EE
100
AcDbEntity
  8
0
100
AcDbLine
 62
7
  6
CONTINUOUS
 10
0.0
 20
0.0
 11
1050.0
 21
0.0
  0
LINE
  5
6EF
100
AcDbEntity
  8
0
100
AcDbLine
 62
7
  6
CONTINUOUS
 10
0.0
 20
0.0
 11
0.0
 21
1485.0
  0
LINE
  5
6F0
100
AcDbEntity
  8
0
100
AcDbLine
 62
7
  6
CONTINUOUS
 10
1050.0
 20
0.0
 11
1050.0
 21
1485.0
  0
LINE
  5
6F1
100
AcDbEntity
  8
0
100
AcDbLine
 62
7
  6
CONTINUOUS
 10
0.0
 20
1485.0
 11
1050.0
 21
1485.0
  0
ARC
  5
6F2
100
AcDbEntity
  8
03___PRT_ALL_CURVES
100
AcDbCircle
 62
7
  6
CONTINUOUS
 10
5288.2322871767
 20
1072.5800107759
 40
5000.0
100
AcDbArc
 50
178.6319162122
 51
181.3680837878
  0
ARC
  5
6F3
100
AcDbEntity
  8
03___PRT_ALL_CURVES
100
AcDbCircle
 62
7
  6
CONTINUOUS
 10
529.2322871767
 20
5871.5800107759
 40
5000.0
100
AcDbArc
 50
268.1523560948
 51
271.8476439052
  0
ARC
  5
6F4
100
AcDbEntity
  8
03___PRT_ALL_CURVES
100
AcDbCircle
 62
7
  6
CONTINUOUS
 10
529.2322871767
 20
-3726.4199892241
 40
5000.0
100
AcDbArc
 50
88.1523560948
 51
91.8476439052
  0
ARC
  5
6F5
100
AcDbEntity
  8
03___PRT_ALL_CURVES
100
AcDbCircle
 62
7
  6
CONTINUOUS
 10
-4229.7677128233
 20
1072.5800107758
 40
5000.0
100
AcDbArc
 50
358.6319162122
 51
1.3680837878
  0
ARC
  5
6F6
100
AcDbEntity
  8
03___PRT_ALL_CURVES
100
AcDbCircle
 62
7
  6
CONTINUOUS
 10
370.6344754181
 20
1190.0226000985
 40
81.0
100
AcDbArc
 50
91.8476439052
 51
178.6319162122
  0
ARC
  5
6F7
100
AcDbEntity
  8
03___PRT_ALL_CURVES
100
AcDbCircle
 62
7
  6
CONTINUOUS
 10
370.6344754181
 20
955.1374214532
 40
81.0
100
AcDbArc
 50
181.3680837878
 51
268.1523560948
  0
ARC
  5
6F8
100
AcDbEntity
  8
03___PRT_ALL_CURVES
100
AcDbCircle
 62
7
  6
CONTINUOUS
 10
687.8300989353
 20
955.1374214532
 40
81.0
100
AcDbArc
 50
271.8476439052
 51
358.6319162122
  0
ARC
  5
6F9
100
AcDbEntity
  8
03___PRT_ALL_CURVES
100
AcDbCircle
 62
7
  6
CONTINUOUS
 10
687.8300989353
 20
1190.0226000985
 40
81.0
100
AcDbArc
 50
1.3680837878
 51
88.1523560948
  0
ENDSEC
  0
SECTION
  2
OBJECTS
  0
DICTIONARY
  5
C
100
AcDbDictionary
280
0
281
1
  3
ACAD_GROUP
350
D
  3
ACAD_MLINESTYLE
350
17
  3
ACAD_LAYOUT
350
1A
  3
ACAD_PLOTSETTINGS
350
19
  3
ACAD_PLOTSTYLENAME
350
E
  0
DICTIONARY
  5
D
102
{ACAD_REACTORS
330
C
102
}
100
AcDbDictionary
280
0
281
1
  0
ACDBDICTIONARYWDFLT
  5
E
102
{ACAD_REACTORS
330
C
102
}
100
AcDbDictionary
281
1
  3
Normal
350
F
100
AcDbDictionaryWithDefault
340
F
  0
DICTIONARY
  5
17
102
{ACAD_REACTORS
330
C
102
}
100
AcDbDictionary
280
0
281
1
  3
Standard
350
18
  0
DICTIONARY
  5
19
102
{ACAD_REACTORS
330
C
102
}
100
AcDbDictionary
281
1
  0
DICTIONARY
  5
1A
102
{ACAD_REACTORS
330
C
102
}
100
AcDbDictionary
281
1
  3
Model
350
6FA
  3
Layout1
350
6FB
  0
ACDBPLACEHOLDER
  5
F
102
{ACAD_REACTORS
330
E
102
}
  0
MLINESTYLE
  5
18
102
{ACAD_REACTORS
330
17
102
}
100
AcDbMlineStyle
  2
STANDARD
 70
0
  3

 62
256
 51
90.0
 52
90.0
 71
2
 49
0.5
 62
256
  6
BYLAYER
 49
-0.5
 62
256
  6
BYLAYER
  0
LAYOUT
  5
6FA
102
{ACAD_REACTORS
330
1A
102
}
100
AcDbPlotSettings
  1

  2
none_device
  4

  6

 40
0.0
 41
0.0
 42
0.0
 43
0.0
 44
210.0
 45
297.0
 46
0.0
 47
0.0
 48
0.0
 49
0.0
140
0.0
141
0.0
142
1.0
143
1.0
 70
1024
 72
1
 73
0
 74
0
  7

 75
0
147
1.0
148
0.0
149
0.0
100
AcDbLayout
  1
Model
 70
0
 71
0
 10
0.0
 20
0.0
 11
210.0
 21
297.0
 12
0.0
 22
0.0
 32
0.0
 14
0.0
 24
0.0
 34
0.0
 15
0.0
 25
0.0
 35
0.0
146
0.0
 13
0.0
 23
0.0
 33
0.0
 16
1.0
 26
0.0
 36
0.0
 17
0.0
 27
1.0
 37
0.0
 76
0
330
216
345
0
346
0
  0
LAYOUT
  5
6FB
102
{ACAD_REACTORS
330
1A
102
}
100
AcDbPlotSettings
  1

  2
none_device
  4

  6

 40
0.0
 41
0.0
 42
0.0
 43
0.0
 44
210.0
 45
297.0
 46
0.0
 47
0.0
 48
0.0
 49
0.0
140
0.0
141
0.0
142
1.0
143
1.0
 70
0
 72
1
 73
0
 74
0
  7

 75
0
147
1.0
148
0.0
149
0.0
100
AcDbLayout
  1
Layout1
 70
0
 71
1
 10
0.0
 20
0.0
 11
210.0
 21
297.0
 12
0.0
 22
0.0
 32
0.0
 14
0.0
 24
0.0
 34
0.0
 15
0.0
 25
0.0
 35
0.0
146
0.0
 13
0.0
 23
0.0
 33
0.0
 16
1.0
 26
0.0
 36
0.0
 17
0.0
 27
1.0
 37
0.0
 76
0
330
217
345
0
346
0
  0
ENDSEC
  0
EOF
