999
DXF file: 1135108-izrez-variant-40-u.dxf
999
Pro/ENGINEER 2017170 by Parametric Technology Corporation
  0
SECTION
  2
HEADER
  9
$ACADVER
  1
AC1018
  9
$DWGCODEPAGE
  3
ANSI_1250
  9
$EXTMAX
 10
1050.0
 20
1485.0
 30
0.0
  9
$EXTMIN
 10
0.0
 20
0.0
 30
0.0
  9
$LIMMIN
 10
0.0
 20
0.0
  9
$LIMMAX
 10
1050.0
 20
1485.0
  9
$VIEWCTR
 10
525.0
 20
742.5
  9
$VIEWSIZE
 40
1485.0
  9
$CLAYER
  8
0
  9
$LTSCALE
 40
96.8
  9
$CELTYPE
  6
BYLAYER
  9
$DIMSCALE
 40
1.0
  9
$DIMASZ
 40
17.5
  9
$DIMEXO
 40
0.0
  9
$DIMDLI
 40
66.88
  9
$DIMEXE
 40
1.0
  9
$DIMCEN
 40
15.84
  9
$DIMLFAC
 40
1.0
  9
$DIMBLK
  1
_FILLED
  9
$DIMALT
 70
0
  9
$DIMALTF
 40
25.4
  9
$DIMTXT
 40
17.5
  9
$DIMTOL
 70
1
  9
$DIMLIM
 70
0
  9
$DIMTFAC
 40
1.0
  9
$DIMTP
 40
0.005
  9
$DIMTM
 40
0.005
  9
$DIMGAP
 40
0.625
  9
$DIMDSEP
 70
46
  9
$AUNITS
 70
0
  9
$PDMODE
 70
3
  9
$PDSIZE
 40
1.0
  9
$HANDSEED
  5
6EE
  9
$TILEMODE
 70
1
  9
$MEASUREMENT
 70
1
  9
$INSUNITS
 70
4
  0
ENDSEC
  0
SECTION
  2
CLASSES
  0
CLASS
  1
ACDBDICTIONARYWDFLT
  2
AcDbDictionaryWithDefault
  3
AutoCAD 2000
 90
0
 91
1
280
0
281
0
  0
CLASS
  1
ACDBPLACEHOLDER
  2
AcDbPlaceHolder
  3
AutoCAD 2000
 90
0
 91
1
280
0
281
0
  0
CLASS
  1
LAYOUT
  2
AcDbLayout
  3
AutoCAD 2000
 90
0
 91
0
280
0
281
0
  0
ENDSEC
  0
SECTION
  2
TABLES
  0
TABLE
  2
VPORT
  5
8
100
AcDbSymbolTable
 70
2
  0
VPORT
  5
1F4
100
AcDbSymbolTableRecord
100
AcDbViewportTableRecord
  2
*ACTIVE
 70
0
 10
0.0
 20
0.0
 11
1.0
 21
1.0
 12
525.0
 22
742.5
 13
0.0
 23
0.0
 14
1.0
 24
1.0
 15
0.0
 25
0.0
 16
0.0
 26
0.0
 36
1.0
 17
0.0
 27
0.0
 37
0.0
 40
1485.0
 41
0.7070707071
 42
50.0
 43
0.0
 44
0.0
 50
0.0
 51
0.0
 71
0
 72
100
 73
1
 74
1
 75
0
 76
0
 77
0
 78
0
  0
ENDTAB
  0
TABLE
  2
LTYPE
  5
5
100
AcDbSymbolTable
 70
6
  0
LTYPE
  5
14
100
AcDbSymbolTableRecord
100
AcDbLinetypeTableRecord
  2
BYBLOCK
 70
0
  3

 72
65
 73
0
 40
0.0
  0
LTYPE
  5
15
100
AcDbSymbolTableRecord
100
AcDbLinetypeTableRecord
  2
BYLAYER
 70
0
  3

 72
65
 73
0
 40
0.0
  0
LTYPE
  5
16
100
AcDbSymbolTableRecord
100
AcDbLinetypeTableRecord
  2
CONTINUOUS
 70
64
  3
Solid line
 72
65
 73
0
 40
0.0
  0
LTYPE
  5
1F5
100
AcDbSymbolTableRecord
100
AcDbLinetypeTableRecord
  2
CENTER
 70
64
  3
____ _ ____ _ ____ _ ____ _ ____ _ ____ _ ____
 72
65
 73
4
 40
0.6
 49
0.375
 74
0
 49
-0.075
 74
0
 49
0.075
 74
0
 49
-0.075
 74
0
  0
LTYPE
  5
1F6
100
AcDbSymbolTableRecord
100
AcDbLinetypeTableRecord
  2
HIDDEN
 70
64
  3
- - - - - - - - - - - - - - - - - - - -
 72
65
 73
2
 40
0.2
 49
0.1
 74
0
 49
-0.1
 74
0
  0
LTYPE
  5
1F7
100
AcDbSymbolTableRecord
100
AcDbLinetypeTableRecord
  2
PHANTOM
 70
64
  3
_____ _ _ _____ _ _ _____ _ _ _____
 72
65
 73
6
 40
0.8
 49
0.45
 74
0
 49
-0.05
 74
0
 49
0.1
 74
0
 49
-0.05
 74
0
 49
0.1
 74
0
 49
-0.05
 74
0
  0
LTYPE
  5
1F8
100
AcDbSymbolTableRecord
100
AcDbLinetypeTableRecord
  2
DOT
 70
64
  3
. . . . . . . . . . . . . . . . . . . .
 72
65
 73
2
 40
0.2
 49
0.1
 74
0
 49
-0.1
 74
0
  0
LTYPE
  5
1F9
100
AcDbSymbolTableRecord
100
AcDbLinetypeTableRecord
  2
DASHED
 70
64
  3
- - - - - - - - - - - - - - - - - - - -
 72
65
 73
2
 40
0.2
 49
0.1
 74
0
 49
-0.1
 74
0
  0
ENDTAB
  0
TABLE
  2
LAYER
  5
2
100
AcDbSymbolTable
 70
36
  0
LAYER
  5
10
100
AcDbSymbolTableRecord
100
AcDbLayerTableRecord
  2
0
 70
0
 62
7
  6
CONTINUOUS
370
-3
390
F
  0
LAYER
  5
1FA
100
AcDbSymbolTableRecord
100
AcDbLayerTableRecord
  2
DEFAULT_1
 70
0
 62
7
  6
CENTER
370
-3
390
F
  0
LAYER
  5
1FB
100
AcDbSymbolTableRecord
100
AcDbLayerTableRecord
  2
DEFAULT_2
 70
0
 62
8
  6
HIDDEN
370
-3
390
F
  0
LAYER
  5
1FC
100
AcDbSymbolTableRecord
100
AcDbLayerTableRecord
  2
DEFAULT_3
 70
0
 62
7
  6
PHANTOM
370
-3
390
F
  0
LAYER
  5
1FD
100
AcDbSymbolTableRecord
100
AcDbLayerTableRecord
  2
01___PRT_ALL_DTM_PLN
 70
0
 62
7
  6
CONTINUOUS
370
-3
390
F
  0
LAYER
  5
1FE
100
AcDbSymbolTableRecord
100
AcDbLayerTableRecord
  2
01___PRT_DEF_DTM_PLN
 70
0
 62
7
  6
CONTINUOUS
370
-3
390
F
  0
LAYER
  5
1FF
100
AcDbSymbolTableRecord
100
AcDbLayerTableRecord
  2
02___PRT_ALL_AXES
 70
0
 62
7
  6
CONTINUOUS
370
-3
390
F
  0
LAYER
  5
200
100
AcDbSymbolTableRecord
100
AcDbLayerTableRecord
  2
03___PRT_ALL_CURVES
 70
0
 62
7
  6
CONTINUOUS
370
-3
390
F
  0
LAYER
  5
201
100
AcDbSymbolTableRecord
100
AcDbLayerTableRecord
  2
04___PRT_ALL_DTM_PNT
 70
0
 62
7
  6
CONTINUOUS
370
-3
390
F
  0
LAYER
  5
202
100
AcDbSymbolTableRecord
100
AcDbLayerTableRecord
  2
05___PRT_ALL_DTM_CSYS
 70
0
 62
7
  6
CONTINUOUS
370
-3
390
F
  0
LAYER
  5
203
100
AcDbSymbolTableRecord
100
AcDbLayerTableRecord
  2
05___PRT_DEF_DTM_CSYS
 70
0
 62
7
  6
CONTINUOUS
370
-3
390
F
  0
LAYER
  5
204
100
AcDbSymbolTableRecord
100
AcDbLayerTableRecord
  2
06___PRT_ALL_SURFS
 70
0
 62
7
  6
CONTINUOUS
370
-3
390
F
  0
LAYER
  5
205
100
AcDbSymbolTableRecord
100
AcDbLayerTableRecord
  2
ALL_AXIS
 70
0
 62
7
  6
CONTINUOUS
370
-3
390
F
  0
LAYER
  5
206
100
AcDbSymbolTableRecord
100
AcDbLayerTableRecord
  2
ALL_CURVE
 70
0
 62
7
  6
CONTINUOUS
370
-3
390
F
  0
LAYER
  5
207
100
AcDbSymbolTableRecord
100
AcDbLayerTableRecord
  2
ALL_CURVE_ENT
 70
0
 62
7
  6
CONTINUOUS
370
-3
390
F
  0
LAYER
  5
208
100
AcDbSymbolTableRecord
100
AcDbLayerTableRecord
  2
ALL_DETAIL_ITEM
 70
0
 62
7
  6
CONTINUOUS
370
-3
390
F
  0
LAYER
  5
209
100
AcDbSymbolTableRecord
100
AcDbLayerTableRecord
  2
ALL_DIM
 70
0
 62
7
  6
CONTINUOUS
370
-3
390
F
  0
LAYER
  5
20A
100
AcDbSymbolTableRecord
100
AcDbLayerTableRecord
  2
ALL_FEATURE
 70
0
 62
7
  6
CONTINUOUS
370
-3
390
F
  0
LAYER
  5
20B
100
AcDbSymbolTableRecord
100
AcDbLayerTableRecord
  2
ALL_GEOM_FEAT
 70
0
 62
7
  6
CONTINUOUS
370
-3
390
F
  0
LAYER
  5
20C
100
AcDbSymbolTableRecord
100
AcDbLayerTableRecord
  2
ALL_NOGEOM_FEAT
 70
0
 62
7
  6
CONTINUOUS
370
-3
390
F
  0
LAYER
  5
20D
100
AcDbSymbolTableRecord
100
AcDbLayerTableRecord
  2
ALL_NOTE
 70
0
 62
7
  6
CONTINUOUS
370
-3
390
F
  0
LAYER
  5
20E
100
AcDbSymbolTableRecord
100
AcDbLayerTableRecord
  2
ALL_PARAMETER_DIM
 70
0
 62
7
  6
CONTINUOUS
370
-3
390
F
  0
LAYER
  5
20F
100
AcDbSymbolTableRecord
100
AcDbLayerTableRecord
  2
ALL_PROTRUSION_FEAT
 70
0
 62
7
  6
CONTINUOUS
370
-3
390
F
  0
LAYER
  5
210
100
AcDbSymbolTableRecord
100
AcDbLayerTableRecord
  2
ALL_SNAP_LINE
 70
0
 62
7
  6
CONTINUOUS
370
-3
390
F
  0
LAYER
  5
211
100
AcDbSymbolTableRecord
100
AcDbLayerTableRecord
  2
ALL_SYMBOL
 70
0
 62
7
  6
CONTINUOUS
370
-3
390
F
  0
ENDTAB
  0
TABLE
  2
STYLE
  5
3
100
AcDbSymbolTable
 70
1
  0
STYLE
  5
11
100
AcDbSymbolTableRecord
100
AcDbTextStyleTableRecord
  2
STANDARD
 70
0
 40
0.0
 41
0.6
 50
0.0
 71
0
 42
0.2
  3
txt
  4

  0
STYLE
  5
212
100
AcDbSymbolTableRecord
100
AcDbTextStyleTableRecord
  2
TEXTSTYLE_1
 70
0
 40
0.0
 41
0.8
 50
0.0
 71
0
 42
0.2
  3
gdt
  4

  0
STYLE
  5
213
100
AcDbSymbolTableRecord
100
AcDbTextStyleTableRecord
  2
TEXTSTYLE_2
 70
0
 40
0.0
 41
0.6
 50
0.0
 71
0
 42
0.2
  3
gdt
  4

  0
STYLE
  5
214
100
AcDbSymbolTableRecord
100
AcDbTextStyleTableRecord
  2
TEXTSTYLE_3
 70
0
 40
0.0
 41
0.7619047619
 50
0.0
 71
0
 42
0.2
  3
txt
  4

  0
ENDTAB
  0
TABLE
  2
VIEW
  5
6
100
AcDbSymbolTable
 70
0
  0
ENDTAB
  0
TABLE
  2
UCS
  5
7
100
AcDbSymbolTable
 70
0
  0
ENDTAB
  0
TABLE
  2
APPID
  5
9
100
AcDbSymbolTable
 70
1
  0
APPID
  5
215
100
AcDbSymbolTableRecord
100
AcDbRegAppTableRecord
  2
ACAD
 70
0
  0
ENDTAB
  0
TABLE
  2
BLOCK_RECORD
  5
1
100
AcDbSymbolTable
 70
0
  0
BLOCK_RECORD
  5
216
100
AcDbSymbolTableRecord
100
AcDbBlockTableRecord
  2
*Model_Space
  0
BLOCK_RECORD
  5
217
100
AcDbSymbolTableRecord
100
AcDbBlockTableRecord
  2
*Paper_Space
  0
BLOCK_RECORD
  5
218
100
AcDbSymbolTableRecord
100
AcDbBlockTableRecord
  2
_FILLED
  0
BLOCK_RECORD
  5
219
100
AcDbSymbolTableRecord
100
AcDbBlockTableRecord
  2
_DOTBLANK
  0
BLOCK_RECORD
  5
21A
100
AcDbSymbolTableRecord
100
AcDbBlockTableRecord
  2
*D0
  0
BLOCK_RECORD
  5
21B
100
AcDbSymbolTableRecord
100
AcDbBlockTableRecord
  2
*D1
  0
BLOCK_RECORD
  5
21C
100
AcDbSymbolTableRecord
100
AcDbBlockTableRecord
  2
*D2
  0
BLOCK_RECORD
  5
21D
100
AcDbSymbolTableRecord
100
AcDbBlockTableRecord
  2
POZ_FS_B2B_BL2
  0
BLOCK_RECORD
  5
21E
100
AcDbSymbolTableRecord
100
AcDbBlockTableRecord
  2
U_LUNO_B2B_BL1
  0
BLOCK_RECORD
  5
21F
100
AcDbSymbolTableRecord
100
AcDbBlockTableRecord
  2
B2B_NASLOV_RISBE_BL0
  0
ENDTAB
  0
TABLE
  2
DIMSTYLE
  5
A
100
AcDbSymbolTable
 70
1
100
AcDbDimStyleTable
 71
0
  0
DIMSTYLE
105
220
100
AcDbSymbolTableRecord
100
AcDbDimStyleTableRecord
  2
STANDARD
 70
0
  3

  4

 40
1.0
 41
17.5
 42
0.0
 43
0.38
 44
1.0
 45
0.0
 46
0.0
 47
0.005
 48
0.005
140
17.5
141
0.09
142
0.0
143
25.4
144
1.0
145
0.0
146
1.0
147
0.625
 71
1.0
 72
0.0
 73
0
 74
0
 75
0
 76
0
 77
1
 78
8
 79
2
170
0
171
2
172
0
173
0
174
0
175
0
176
0
177
0
178
5
270
2
179
3
271
3
272
3
273
2
274
2
275
0
280
0
281
0
282
0
283
1
284
8
285
0
286
0
287
3
288
0
340
11
278
46
341
218
342
218
343
218
344
218
  0
DIMSTYLE
105
221
100
AcDbSymbolTableRecord
100
AcDbDimStyleTableRecord
  2
DIMSTYLE_1
 70
0
  3
<>
  4

 40
1.0
 41
17.5
 42
0.0
 43
0.38
 44
1.0
 45
0.0
 46
0.0
 47
0.3
 48
0.3
140
17.5
141
0.09
142
0.0
143
25.4
144
1.0
145
0.0
146
1.0
147
0.625
 71
0.0
 72
0.0
 73
0
 74
0
 75
0
 76
0
 77
1
 78
8
 79
2
170
0
171
2
172
0
173
0
174
0
175
0
176
0
177
0
178
5
270
2
179
3
271
3
272
3
273
2
274
2
275
0
280
0
281
0
282
0
283
1
284
8
285
0
286
0
287
3
288
0
340
11
278
46
341
218
342
218
343
218
344
218
  0
DIMSTYLE
105
222
100
AcDbSymbolTableRecord
100
AcDbDimStyleTableRecord
  2
DIMSTYLE_2
 70
0
  3

  4

 40
1.0
 41
17.5
 42
0.0
 43
0.38
 44
1.0
 45
0.0
 46
0.0
 47
0.8
 48
0.8
140
17.5
141
0.09
142
0.0
143
25.4
144
1.0
145
0.0
146
1.0
147
0.875
 71
0.0
 72
0.0
 73
0
 74
0
 75
0
 76
0
 77
1
 78
8
 79
2
170
0
171
2
172
0
173
0
174
0
175
0
176
0
177
0
178
5
270
2
179
3
271
3
272
3
273
2
274
2
275
0
280
0
281
0
282
0
283
1
284
8
285
0
286
0
287
3
288
0
340
11
278
46
341
218
342
218
343
218
344
218
  0
DIMSTYLE
105
223
100
AcDbSymbolTableRecord
100
AcDbDimStyleTableRecord
  2
DIMSTYLE_3
 70
0
  3

  4

 40
1.0
 41
17.5
 42
0.0
 43
0.38
 44
1.0
 45
0.0
 46
0.0
 47
0.5
 48
0.5
140
17.5
141
0.09
142
0.0
143
25.4
144
1.0
145
0.0
146
1.0
147
0.875
 71
0.0
 72
0.0
 73
0
 74
0
 75
0
 76
0
 77
1
 78
8
 79
2
170
0
171
2
172
0
173
0
174
0
175
0
176
0
177
0
178
5
270
2
179
3
271
3
272
3
273
2
274
2
275
0
280
0
281
0
282
0
283
1
284
8
285
0
286
0
287
3
288
0
340
11
278
46
341
218
342
218
343
218
344
218
  0
ENDTAB
  0
ENDSEC
  0
SECTION
  2
BLOCKS
  0
BLOCK
  5
20
100
AcDbEntity
  8
0
100
AcDbBlockBegin
  2
*Model_Space
 70
0
 10
0.0
 20
0.0
 30
0.0
  3
*Model_Space
  1

  0
ENDBLK
  5
21
100
AcDbEntity
  8
0
100
AcDbBlockEnd
  0
BLOCK
  5
1C
100
AcDbEntity
  8
0
100
AcDbBlockBegin
  2
*Paper_Space
 70
0
 10
0.0
 20
0.0
 30
0.0
  3
*Paper_Space
  1

  0
ENDBLK
  5
1D
100
AcDbEntity
  8
0
100
AcDbBlockEnd
  0
BLOCK
  5
224
100
AcDbEntity
  8
ALL_DETAIL_ITEM
100
AcDbBlockBegin
 62
2
  6
CONTINUOUS
  2
POZ_FS_B2B_BL2
 70
64
 10
750.9237876724
 20
1174.8207569187
  3
POZ_FS_B2B_BL2
  1

  0
TEXT
  5
225
100
AcDbEntity
  8
ALL_DETAIL_ITEM
100
AcDbText
 62
5
  6
CONTINUOUS
 10
742.3619286246
 20
1162.7236049187
  7
TEXTSTYLE_3
 40
25.0
  1
1
 41
0.7619047619
 72
0
100
AcDbText
  0
CIRCLE
  5
226
100
AcDbEntity
  8
ALL_DETAIL_ITEM
100
AcDbCircle
 62
2
  6
CONTINUOUS
 10
750.9237876724
 20
1174.8207569187
 40
23.2719072507
  0
ENDBLK
  5
227
100
AcDbEntity
  8
0
  6
BYBLOCK
 62
0
100
AcDbBlockEnd
  0
BLOCK
  5
228
100
AcDbEntity
  8
ALL_DETAIL_ITEM
100
AcDbBlockBegin
 62
2
  6
CONTINUOUS
  2
U_LUNO_B2B_BL1
 70
64
 10
341.299695022
 20
464.1336031503
  3
U_LUNO_B2B_BL1
  1

  0
TEXT
  5
229
100
AcDbEntity
  8
ALL_DETAIL_ITEM
100
AcDbText
 62
5
  6
CONTINUOUS
 10
492.888403302
 20
458.5592928818
  7
STANDARD
 40
17.5
  1
14
 50
90.0
 41
0.6785714286
 72
0
100
AcDbText
  0
TEXT
  5
22A
100
AcDbEntity
  8
ALL_DETAIL_ITEM
100
AcDbText
 62
5
  6
CONTINUOUS
 10
482.388403302
 20
482.3092928818
  7
STANDARD
 40
10.5
  1
+1
 50
90.0
 41
0.6428571429
 72
0
100
AcDbText
  0
TEXT
  5
22B
100
AcDbEntity
  8
ALL_DETAIL_ITEM
100
AcDbText
 62
5
  6
CONTINUOUS
 10
393.5958883595
 20
686.7993903658
  7
TEXTSTYLE_2
 40
17.5
  1
n
 41
1.0
 72
0
100
AcDbText
  0
TEXT
  5
22C
100
AcDbEntity
  8
ALL_DETAIL_ITEM
100
AcDbText
 62
5
  6
CONTINUOUS
 10
416.9292216928
 20
686.7993903658
  7
STANDARD
 40
17.5
  1
5
 41
0.7142857143
 72
0
100
AcDbText
  0
TEXT
  5
22D
100
AcDbEntity
  8
ALL_DETAIL_ITEM
100
AcDbText
 62
5
  6
CONTINUOUS
 10
208.7210202706
 20
686.8024246163
  7
TEXTSTYLE_3
 40
25.0
  1
1
 41
0.5714285714
 72
0
100
AcDbText
  0
LINE
  5
22E
100
AcDbEntity
  8
ALL_DETAIL_ITEM
100
AcDbLine
 62
9
  6
CONTINUOUS
 10
347.228784366
 20
244.5933837913
 11
355.1714074625
 21
244.5933837913
  0
LINE
  5
22F
100
AcDbEntity
  8
ALL_DETAIL_ITEM
100
AcDbLine
 62
9
  6
CONTINUOUS
 10
358.9298415125
 20
244.5933837913
 11
366.872464609
 21
244.5933837913
  0
LINE
  5
230
100
AcDbEntity
  8
ALL_DETAIL_ITEM
100
AcDbLine
 62
9
  6
CONTINUOUS
 10
376.194528075
 20
248.9477344243
 11
337.9067209
 21
248.9477344243
  0
LINE
  5
231
100
AcDbEntity
  8
ALL_DETAIL_ITEM
100
AcDbLine
 62
9
  6
CONTINUOUS
 10
377.0506244875
 20
250.5883088913
 11
337.0506244875
 21
250.5883088913
  0
LINE
  5
232
100
AcDbEntity
  8
ALL_DETAIL_ITEM
100
AcDbLine
 62
9
  6
CONTINUOUS
 10
347.0506244875
 20
259.6842928818
 11
367.0506244875
 21
259.6842928818
  0
LINE
  5
233
100
AcDbEntity
  8
ALL_DETAIL_ITEM
100
AcDbLine
 62
9
  6
CONTINUOUS
 10
363.11123751
 20
318.6842928818
 11
350.0506244875
 21
318.6842928818
  0
LINE
  5
234
100
AcDbEntity
  8
ALL_DETAIL_ITEM
100
AcDbLine
 62
9
  6
CONTINUOUS
 10
350.714043244
 20
325.7068481343
 11
361.1737865345
 21
325.7068481343
  0
LINE
  5
235
100
AcDbEntity
  8
ALL_DETAIL_ITEM
100
AcDbLine
 62
9
  6
CONTINUOUS
 10
281.9125752155
 20
643.6842928818
 11
281.9125752155
 21
443.6842928818
  0
LINE
  5
236
100
AcDbEntity
  8
ALL_DETAIL_ITEM
100
AcDbLine
 62
9
  6
CONTINUOUS
 10
263.346148221
 20
215.0564480898
 11
278.278970781
 21
436.9261662348
  0
LINE
  5
237
100
AcDbEntity
  8
ALL_DETAIL_ITEM
100
AcDbLine
 62
9
  6
CONTINUOUS
 10
278.4261838255
 20
439.0330752508
 11
278.278970781
 21
436.9261662348
  0
LINE
  5
238
100
AcDbEntity
  8
ALL_DETAIL_ITEM
100
AcDbLine
 62
9
  6
CONTINUOUS
 10
278.4261838255
 20
439.0330752508
 11
278.5343347635
 21
439.7750090888
  0
LINE
  5
239
100
AcDbEntity
  8
ALL_DETAIL_ITEM
100
AcDbLine
 62
9
  6
CONTINUOUS
 10
278.5343347635
 20
439.7750090888
 11
278.7521273805
 21
440.4924157323
  0
LINE
  5
23A
100
AcDbEntity
  8
ALL_DETAIL_ITEM
100
AcDbLine
 62
9
  6
CONTINUOUS
 10
278.7521273805
 20
440.4924157323
 11
279.074664123
 21
441.1691626868
  0
LINE
  5
23B
100
AcDbEntity
  8
ALL_DETAIL_ITEM
100
AcDbLine
 62
9
  6
CONTINUOUS
 10
279.074664123
 20
441.1691626868
 11
279.4946920305
 21
441.7900317833
  0
LINE
  5
23C
100
AcDbEntity
  8
ALL_DETAIL_ITEM
100
AcDbLine
 62
9
  6
CONTINUOUS
 10
279.4946920305
 20
441.7900317833
 11
280.0027658355
 21
442.3410613903
  0
LINE
  5
23D
100
AcDbEntity
  8
ALL_DETAIL_ITEM
100
AcDbLine
 62
9
  6
CONTINUOUS
 10
280.0027658355
 20
442.3410613903
 11
280.5874603605
 21
442.8098603733
  0
LINE
  5
23E
100
AcDbEntity
  8
ALL_DETAIL_ITEM
100
AcDbLine
 62
9
  6
CONTINUOUS
 10
280.5874603605
 20
442.8098603733
 11
281.235627442
 21
443.1858867393
  0
LINE
  5
23F
100
AcDbEntity
  8
ALL_DETAIL_ITEM
100
AcDbLine
 62
9
  6
CONTINUOUS
 10
281.235627442
 20
443.1858867393
 11
281.9326915915
 21
443.4606846928
  0
LINE
  5
240
100
AcDbEntity
  8
ALL_DETAIL_ITEM
100
AcDbLine
 62
9
  6
CONTINUOUS
 10
278.278970781
 20
436.9261662348
 11
277.4031588415
 21
436.5537166888
  0
LINE
  5
241
100
AcDbEntity
  8
ALL_DETAIL_ITEM
100
AcDbLine
 62
9
  6
CONTINUOUS
 10
277.4031588415
 20
436.5537166888
 11
275.78797791
 21
436.2087737668
  0
LINE
  5
242
100
AcDbEntity
  8
ALL_DETAIL_ITEM
100
AcDbLine
 62
9
  6
CONTINUOUS
 10
275.78797791
 20
436.2087737668
 11
273.4394642035
 21
435.8925403313
  0
LINE
  5
243
100
AcDbEntity
  8
ALL_DETAIL_ITEM
100
AcDbLine
 62
9
  6
CONTINUOUS
 10
273.4394642035
 20
435.8925403313
 11
270.365508459
 21
435.6061406578
  0
LINE
  5
244
100
AcDbEntity
  8
ALL_DETAIL_ITEM
100
AcDbLine
 62
9
  6
CONTINUOUS
 10
270.365508459
 20
435.6061406578
 11
266.576587882
 21
435.3506670488
  0
LINE
  5
245
100
AcDbEntity
  8
ALL_DETAIL_ITEM
100
AcDbLine
 62
9
  6
CONTINUOUS
 10
266.576587882
 20
435.3506670488
 11
262.0879082495
 21
435.1272159083
  0
LINE
  5
246
100
AcDbEntity
  8
ALL_DETAIL_ITEM
100
AcDbLine
 62
9
  6
CONTINUOUS
 10
262.0879082495
 20
435.1272159083
 11
256.918738949
 21
434.9367302488
  0
LINE
  5
247
100
AcDbEntity
  8
ALL_DETAIL_ITEM
100
AcDbLine
 62
9
  6
CONTINUOUS
 10
256.918738949
 20
434.9367302488
 11
251.088482863
 21
434.7798890133
  0
LINE
  5
248
100
AcDbEntity
  8
ALL_DETAIL_ITEM
100
AcDbLine
 62
9
  6
CONTINUOUS
 10
251.088482863
 20
434.7798890133
 11
244.617686083
 21
434.6572491668
  0
LINE
  5
249
100
AcDbEntity
  8
ALL_DETAIL_ITEM
100
AcDbLine
 62
9
  6
CONTINUOUS
 10
244.617686083
 20
434.6572491668
 11
237.5315167755
 21
434.5693063758
  0
LINE
  5
24A
100
AcDbEntity
  8
ALL_DETAIL_ITEM
100
AcDbLine
 62
9
  6
CONTINUOUS
 10
237.5315167755
 20
434.5693063758
 11
229.858694358
 21
434.5164149453
  0
LINE
  5
24B
100
AcDbEntity
  8
ALL_DETAIL_ITEM
100
AcDbLine
 62
9
  6
CONTINUOUS
 10
229.858694358
 20
434.5164149453
 11
221.6291565255
 21
434.4987649908
  0
LINE
  5
24C
100
AcDbEntity
  8
ALL_DETAIL_ITEM
100
AcDbLine
 62
9
  6
CONTINUOUS
 10
221.6291565255
 20
434.4987649908
 11
212.873705476
 21
434.5164118168
  0
LINE
  5
24D
100
AcDbEntity
  8
ALL_DETAIL_ITEM
100
AcDbLine
 62
9
  6
CONTINUOUS
 10
212.873705476
 20
434.5164118168
 11
203.624102441
 21
434.5692973618
  0
LINE
  5
24E
100
AcDbEntity
  8
ALL_DETAIL_ITEM
100
AcDbLine
 62
9
  6
CONTINUOUS
 10
203.624102441
 20
434.5692973618
 11
193.915054636
 21
434.6572412743
  0
LINE
  5
24F
100
AcDbEntity
  8
ALL_DETAIL_ITEM
100
AcDbLine
 62
9
  6
CONTINUOUS
 10
193.915054636
 20
434.6572412743
 11
183.78652445
 21
434.7798881243
  0
LINE
  5
250
100
AcDbEntity
  8
ALL_DETAIL_ITEM
100
AcDbLine
 62
9
  6
CONTINUOUS
 10
183.78652445
 20
434.7798881243
 11
176.136481112
 21
434.8940805073
  0
LINE
  5
251
100
AcDbEntity
  8
ALL_DETAIL_ITEM
100
AcDbLine
 62
9
  6
CONTINUOUS
 10
355.1627161455
 20
320.9216813993
 11
354.2838672625
 21
322.5329679858
  0
LINE
  5
252
100
AcDbEntity
  8
ALL_DETAIL_ITEM
100
AcDbLine
 62
9
  6
CONTINUOUS
 10
296.653361138
 20
438.7540493558
 11
298.215635868
 21
438.7540493558
  0
LINE
  5
253
100
AcDbEntity
  8
ALL_DETAIL_ITEM
100
AcDbLine
 62
9
  6
CONTINUOUS
 10
292.662793214
 20
439.0330752508
 11
176.243398915
 21
439.0330752473
  0
LINE
  5
254
100
AcDbEntity
  8
ALL_DETAIL_ITEM
100
AcDbLine
 62
9
  6
CONTINUOUS
 10
281.9326915915
 20
443.4606846928
 11
282.6629777625
 21
443.6280747873
  0
LINE
  5
255
100
AcDbEntity
  8
ALL_DETAIL_ITEM
100
AcDbLine
 62
9
  6
CONTINUOUS
 10
282.6629777625
 20
443.6280747873
 11
283.4100638355
 21
443.6842928818
  0
LINE
  5
256
100
AcDbEntity
  8
ALL_DETAIL_ITEM
100
AcDbLine
 62
9
  6
CONTINUOUS
 10
354.719385297
 20
324.3854178988
 11
354.2838672625
 21
322.5329679858
  0
LINE
  5
257
100
AcDbEntity
  8
ALL_DETAIL_ITEM
100
AcDbLine
 62
2
  6
CONTINUOUS
 10
296.2380634475
 20
643.6842928818
 11
449.933290625
 21
643.6842928818
  0
SPLINE
  5
258
100
AcDbEntity
  8
ALL_DETAIL_ITEM
100
AcDbSpline
 62
2
  6
CONTINUOUS
 70
0
 71
3
 72
26
 73
22
 74
0
 42
0.0000001
 43
0.0000001
 44
0.0000000001
 40
0.0
 40
0.0
 40
0.0
 40
0.0
 40
0.0526315789
 40
0.1052631579
 40
0.1578947368
 40
0.2105263158
 40
0.2631578947
 40
0.3157894737
 40
0.3684210526
 40
0.4210526316
 40
0.4736842105
 40
0.5263157895
 40
0.5789473684
 40
0.6315789474
 40
0.6842105263
 40
0.7368421053
 40
0.7894736842
 40
0.8421052632
 40
0.8947368421
 40
0.9473684211
 40
1.0
 40
1.0
 40
1.0
 40
1.0
 10
449.933290625
 20
643.6842928818
 30
0.0
 10
450.915539374
 20
640.2520840488
 30
0.0
 10
452.8820373925
 20
632.8565565158
 30
0.0
 10
455.780638987
 20
620.5142049793
 30
0.0
 10
458.799536125
 20
605.8899851128
 30
0.0
 10
461.1617464175
 20
591.5486055273
 30
0.0
 10
462.582801204
 20
579.2604761293
 30
0.0
 10
463.298671018
 20
568.4131719998
 30
0.0
 10
463.4429626765
 20
558.4166518053
 30
0.0
 10
463.109686348
 20
549.3056014658
 30
0.0
 10
462.283583097
 20
540.2415407793
 30
0.0
 10
460.8208136305
 20
529.6518615263
 30
0.0
 10
459.0555774145
 20
518.3575051448
 30
0.0
 10
457.6238499885
 20
508.3802979148
 30
0.0
 10
456.7033827205
 20
499.6172045678
 30
0.0
 10
456.2821255045
 20
492.1903260703
 30
0.0
 10
456.294073994
 20
484.8632244908
 30
0.0
 10
456.776139002
 20
476.4080338253
 30
0.0
 10
457.787978152
 20
466.6776660198
 30
0.0
 10
459.315645103
 20
455.8104598993
 30
0.0
 10
460.435975278
 20
447.8481738913
 30
0.0
 10
461.041778389
 20
443.6842928818
 30
0.0
  0
LINE
  5
259
100
AcDbEntity
  8
ALL_DETAIL_ITEM
100
AcDbLine
 62
2
  6
CONTINUOUS
 10
461.041778389
 20
443.6842928818
 11
369.5506244875
 21
443.6842928818
  0
LINE
  5
25A
100
AcDbEntity
  8
ALL_DETAIL_ITEM
100
AcDbLine
 62
2
  6
CONTINUOUS
 10
369.5506244875
 20
443.6842928818
 11
369.5506244875
 21
513.6842928818
  0
LINE
  5
25B
100
AcDbEntity
  8
ALL_DETAIL_ITEM
100
AcDbLine
 62
2
  6
CONTINUOUS
 10
369.5506244875
 20
513.6842928818
 11
357.0506244875
 21
520.9011712468
  0
LINE
  5
25C
100
AcDbEntity
  8
ALL_DETAIL_ITEM
100
AcDbLine
 62
2
  6
CONTINUOUS
 10
357.0506244875
 20
520.9011712468
 11
344.5506244875
 21
513.6842928818
  0
LINE
  5
25D
100
AcDbEntity
  8
ALL_DETAIL_ITEM
100
AcDbLine
 62
2
  6
CONTINUOUS
 10
344.5506244875
 20
513.6842928818
 11
344.5506244875
 21
443.6842928818
  0
LINE
  5
25E
100
AcDbEntity
  8
ALL_DETAIL_ITEM
100
AcDbLine
 62
2
  6
CONTINUOUS
 10
344.5506244875
 20
443.6842928818
 11
296.2380634475
 21
443.6842928818
  0
LINE
  5
25F
100
AcDbEntity
  8
ALL_DETAIL_ITEM
100
AcDbLine
 62
2
  6
CONTINUOUS
 10
296.2380634475
 20
443.6842928818
 11
296.2380634475
 21
643.6842928818
  0
LINE
  5
260
100
AcDbEntity
  8
ALL_DETAIL_ITEM
100
AcDbLine
 62
2
  6
CONTINUOUS
 10
427.171201811
 20
443.6842928818
 11
457.1298855732
 21
473.642976644
  0
LINE
  5
261
100
AcDbEntity
  8
ALL_DETAIL_ITEM
100
AcDbLine
 62
2
  6
CONTINUOUS
 10
391.815862752
 20
443.6842928818
 11
457.8713996531
 21
509.7398297828
  0
LINE
  5
262
100
AcDbEntity
  8
ALL_DETAIL_ITEM
100
AcDbLine
 62
2
  6
CONTINUOUS
 10
369.5506244875
 20
456.7743936763
 11
463.0628778297
 21
550.2866470185
  0
LINE
  5
263
100
AcDbEntity
  8
ALL_DETAIL_ITEM
100
AcDbLine
 62
2
  6
CONTINUOUS
 10
321.105184634
 20
443.6842928818
 11
344.5506244875
 21
467.1297327353
  0
LINE
  5
264
100
AcDbEntity
  8
ALL_DETAIL_ITEM
100
AcDbLine
 62
2
  6
CONTINUOUS
 10
369.5506244875
 20
492.1297327353
 11
461.9386850398
 21
584.5177932875
  0
LINE
  5
265
100
AcDbEntity
  8
ALL_DETAIL_ITEM
100
AcDbLine
 62
2
  6
CONTINUOUS
 10
296.2380634475
 20
454.1725107543
 11
344.5506244875
 21
502.4850717943
  0
LINE
  5
266
100
AcDbEntity
  8
ALL_DETAIL_ITEM
100
AcDbLine
 62
2
  6
CONTINUOUS
 10
360.801281249
 20
518.7357285558
 11
456.9198518496
 21
614.8542991564
  0
LINE
  5
267
100
AcDbEntity
  8
ALL_DETAIL_ITEM
100
AcDbLine
 62
2
  6
CONTINUOUS
 10
296.2380634475
 20
489.5278498133
 11
450.0303186871
 21
643.3201050529
  0
LINE
  5
268
100
AcDbEntity
  8
ALL_DETAIL_ITEM
100
AcDbLine
 62
2
  6
CONTINUOUS
 10
296.2380634475
 20
524.8831888723
 11
415.039167457
 21
643.6842928818
  0
LINE
  5
269
100
AcDbEntity
  8
ALL_DETAIL_ITEM
100
AcDbLine
 62
2
  6
CONTINUOUS
 10
296.2380634475
 20
560.2385279313
 11
379.683828398
 21
643.6842928818
  0
LINE
  5
26A
100
AcDbEntity
  8
ALL_DETAIL_ITEM
100
AcDbLine
 62
2
  6
CONTINUOUS
 10
296.2380634475
 20
595.5938669903
 11
344.328489339
 21
643.6842928818
  0
LINE
  5
26B
100
AcDbEntity
  8
ALL_DETAIL_ITEM
100
AcDbLine
 62
2
  6
CONTINUOUS
 10
296.2380634475
 20
630.9492060493
 11
308.97315028
 21
643.6842928818
  0
LINE
  5
26C
100
AcDbEntity
  8
ALL_DETAIL_ITEM
100
AcDbLine
 62
2
  6
CONTINUOUS
 10
459.3280674847
 20
602.299246822
 11
417.943021425
 21
643.6842928818
  0
LINE
  5
26D
100
AcDbEntity
  8
ALL_DETAIL_ITEM
100
AcDbLine
 62
2
  6
CONTINUOUS
 10
463.2926791443
 20
562.9792961035
 11
382.587682366
 21
643.6842928818
  0
LINE
  5
26E
100
AcDbEntity
  8
ALL_DETAIL_ITEM
100
AcDbLine
 62
2
  6
CONTINUOUS
 10
460.8465028167
 20
530.0701333721
 11
347.232343307
 21
643.6842928818
  0
LINE
  5
26F
100
AcDbEntity
  8
ALL_DETAIL_ITEM
100
AcDbLine
 62
2
  6
CONTINUOUS
 10
456.7294949053
 20
498.8318022245
 11
311.877004248
 21
643.6842928818
  0
LINE
  5
270
100
AcDbEntity
  8
ALL_DETAIL_ITEM
100
AcDbLine
 62
2
  6
CONTINUOUS
 10
458.5233485896
 20
461.6826094811
 11
296.2380634475
 21
623.9678946233
  0
LINE
  5
271
100
AcDbEntity
  8
ALL_DETAIL_ITEM
100
AcDbLine
 62
2
  6
CONTINUOUS
 10
441.16632613
 20
443.6842928818
 11
296.2380634475
 21
588.6125555643
  0
LINE
  5
272
100
AcDbEntity
  8
ALL_DETAIL_ITEM
100
AcDbLine
 62
2
  6
CONTINUOUS
 10
405.810987071
 20
443.6842928818
 11
369.5506244875
 21
479.9446554653
  0
LINE
  5
273
100
AcDbEntity
  8
ALL_DETAIL_ITEM
100
AcDbLine
 62
2
  6
CONTINUOUS
 10
344.5506244875
 20
504.9446554653
 11
296.2380634475
 21
553.2572165053
  0
LINE
  5
274
100
AcDbEntity
  8
ALL_DETAIL_ITEM
100
AcDbLine
 62
2
  6
CONTINUOUS
 10
370.455648012
 20
443.6842928818
 11
369.5506244875
 21
444.5893164063
  0
LINE
  5
275
100
AcDbEntity
  8
ALL_DETAIL_ITEM
100
AcDbLine
 62
2
  6
CONTINUOUS
 10
344.5506244875
 20
469.5893164063
 11
296.2380634475
 21
517.9018774463
  0
LINE
  5
276
100
AcDbEntity
  8
ALL_DETAIL_ITEM
100
AcDbLine
 62
2
  6
CONTINUOUS
 10
335.100308953
 20
443.6842928818
 11
296.2380634475
 21
482.5465383873
  0
LINE
  5
277
100
AcDbEntity
  8
ALL_DETAIL_ITEM
100
AcDbLine
 62
2
  6
CONTINUOUS
 10
299.744969894
 20
443.6842928818
 11
296.2380634475
 21
447.1911993283
  0
LINE
  5
278
100
AcDbEntity
  8
ALL_DETAIL_ITEM
100
AcDbLine
 62
2
  6
CONTINUOUS
 10
343.8006244875
 20
351.6842928818
 11
319.5506244875
 21
351.6842928818
  0
LINE
  5
279
100
AcDbEntity
  8
ALL_DETAIL_ITEM
100
AcDbLine
 62
2
  6
CONTINUOUS
 10
319.5506244875
 20
351.6842928818
 11
319.5506244875
 21
358.6842928818
  0
LINE
  5
27A
100
AcDbEntity
  8
ALL_DETAIL_ITEM
100
AcDbLine
 62
2
  6
CONTINUOUS
 10
319.5506244875
 20
358.6842928818
 11
343.8006244875
 21
358.6842928818
  0
LINE
  5
27B
100
AcDbEntity
  8
ALL_DETAIL_ITEM
100
AcDbLine
 62
2
  6
CONTINUOUS
 10
343.8006244875
 20
358.6842928818
 11
343.8006244875
 21
351.6842928818
  0
LINE
  5
27C
100
AcDbEntity
  8
ALL_DETAIL_ITEM
100
AcDbLine
 62
2
  6
CONTINUOUS
 10
370.3006244875
 20
358.6842928818
 11
394.5506244875
 21
358.6842928818
  0
LINE
  5
27D
100
AcDbEntity
  8
ALL_DETAIL_ITEM
100
AcDbLine
 62
2
  6
CONTINUOUS
 10
394.5506244875
 20
358.6842928818
 11
394.5506244875
 21
351.6842928818
  0
LINE
  5
27E
100
AcDbEntity
  8
ALL_DETAIL_ITEM
100
AcDbLine
 62
2
  6
CONTINUOUS
 10
394.5506244875
 20
351.6842928818
 11
370.3006244875
 21
351.6842928818
  0
LINE
  5
27F
100
AcDbEntity
  8
ALL_DETAIL_ITEM
100
AcDbLine
 62
2
  6
CONTINUOUS
 10
370.3006244875
 20
351.6842928818
 11
370.3006244875
 21
358.6842928818
  0
LINE
  5
280
100
AcDbEntity
  8
ALL_DETAIL_ITEM
100
AcDbLine
 62
2
  6
CONTINUOUS
 10
391.739744312
 20
351.6842928818
 11
394.5506244875
 21
354.4951730573
  0
LINE
  5
281
100
AcDbEntity
  8
ALL_DETAIL_ITEM
100
AcDbLine
 62
2
  6
CONTINUOUS
 10
386.082890063
 20
351.6842928818
 11
393.082890063
 21
358.6842928818
  0
LINE
  5
282
100
AcDbEntity
  8
ALL_DETAIL_ITEM
100
AcDbLine
 62
2
  6
CONTINUOUS
 10
380.426035814
 20
351.6842928818
 11
387.426035814
 21
358.6842928818
  0
LINE
  5
283
100
AcDbEntity
  8
ALL_DETAIL_ITEM
100
AcDbLine
 62
2
  6
CONTINUOUS
 10
374.769181565
 20
351.6842928818
 11
381.769181565
 21
358.6842928818
  0
LINE
  5
284
100
AcDbEntity
  8
ALL_DETAIL_ITEM
100
AcDbLine
 62
2
  6
CONTINUOUS
 10
370.3006244875
 20
352.8725900533
 11
376.112327316
 21
358.6842928818
  0
LINE
  5
285
100
AcDbEntity
  8
ALL_DETAIL_ITEM
100
AcDbLine
 62
2
  6
CONTINUOUS
 10
370.3006244875
 20
358.5294443023
 11
370.455473067
 21
358.6842928818
  0
LINE
  5
286
100
AcDbEntity
  8
ALL_DETAIL_ITEM
100
AcDbLine
 62
2
  6
CONTINUOUS
 10
340.828056071
 20
351.6842928818
 11
343.8006244875
 21
354.6568612983
  0
LINE
  5
287
100
AcDbEntity
  8
ALL_DETAIL_ITEM
100
AcDbLine
 62
2
  6
CONTINUOUS
 10
335.171201822
 20
351.6842928818
 11
342.171201822
 21
358.6842928818
  0
LINE
  5
288
100
AcDbEntity
  8
ALL_DETAIL_ITEM
100
AcDbLine
 62
2
  6
CONTINUOUS
 10
329.514347573
 20
351.6842928818
 11
336.514347573
 21
358.6842928818
  0
LINE
  5
289
100
AcDbEntity
  8
ALL_DETAIL_ITEM
100
AcDbLine
 62
2
  6
CONTINUOUS
 10
323.857493324
 20
351.6842928818
 11
330.857493324
 21
358.6842928818
  0
LINE
  5
28A
100
AcDbEntity
  8
ALL_DETAIL_ITEM
100
AcDbLine
 62
2
  6
CONTINUOUS
 10
319.5506244875
 20
353.0342782943
 11
325.200639075
 21
358.6842928818
  0
LINE
  5
28B
100
AcDbEntity
  8
ALL_DETAIL_ITEM
100
AcDbLine
 62
2
  6
CONTINUOUS
 10
342.0506244875
 20
439.6842928818
 11
297.6510031
 21
439.6842928818
  0
SPLINE
  5
28C
100
AcDbEntity
  8
ALL_DETAIL_ITEM
100
AcDbSpline
 62
2
  6
CONTINUOUS
 70
0
 71
3
 72
14
 73
10
 74
0
 42
0.0000001
 43
0.0000001
 44
0.0000000001
 40
0.0
 40
0.0
 40
0.0
 40
0.0
 40
0.1428571429
 40
0.2857142857
 40
0.4285714286
 40
0.5714285714
 40
0.7142857143
 40
0.8571428571
 40
1.0
 40
1.0
 40
1.0
 40
1.0
 10
297.6510031
 20
439.6842928818
 30
0.0
 10
297.5762194065
 20
439.6836647218
 30
0.0
 10
297.432004935
 20
439.6680164238
 30
0.0
 10
297.2314926835
 20
439.6001027853
 30
0.0
 10
297.047537757
 20
439.4915437303
 30
0.0
 10
296.886499061
 20
439.3412825033
 30
0.0
 10
296.7645587595
 20
439.1631097368
 30
0.0
 10
296.6840500365
 20
438.9677574718
 30
0.0
 10
296.6588883965
 20
438.8270817678
 30
0.0
 10
296.653361138
 20
438.7540493558
 30
0.0
  0
LINE
  5
28D
100
AcDbEntity
  8
ALL_DETAIL_ITEM
100
AcDbLine
 62
2
  6
CONTINUOUS
 10
296.653361138
 20
438.7540493558
 11
280.397343058
 21
206.3003308113
  0
ARC
  5
28E
100
AcDbEntity
  8
ALL_DETAIL_ITEM
100
AcDbCircle
 62
2
  6
CONTINUOUS
 10
368.8337473145
 20
405.2867631613
 40
217.7535254765
100
AcDbArc
 50
244.9140684792
 51
246.0379943471
  0
LINE
  5
28F
100
AcDbEntity
  8
ALL_DETAIL_ITEM
100
AcDbLine
 62
2
  6
CONTINUOUS
 10
276.5112487725
 20
208.0732896858
 11
292.662793214
 21
439.0330752508
  0
ARC
  5
290
100
AcDbEntity
  8
ALL_DETAIL_ITEM
100
AcDbCircle
 62
2
  6
CONTINUOUS
 10
297.650804146
 20
438.6840423508
 40
5.000229123
100
AcDbArc
 50
89.9977202685
 51
175.9972886534
  0
LINE
  5
291
100
AcDbEntity
  8
ALL_DETAIL_ITEM
100
AcDbLine
 62
2
  6
CONTINUOUS
 10
297.6510031
 20
443.6842928818
 11
342.0506244875
 21
443.6842928818
  0
LINE
  5
292
100
AcDbEntity
  8
ALL_DETAIL_ITEM
100
AcDbLine
 62
2
  6
CONTINUOUS
 10
342.0506244875
 20
443.6842928818
 11
342.0506244875
 21
439.6842928818
  0
LINE
  5
293
100
AcDbEntity
  8
ALL_DETAIL_ITEM
100
AcDbLine
 62
2
  6
CONTINUOUS
 10
276.5186352201
 20
208.1789125509
 11
280.83023667
 21
212.4905140008
  0
LINE
  5
294
100
AcDbEntity
  8
ALL_DETAIL_ITEM
100
AcDbLine
 62
2
  6
CONTINUOUS
 10
277.5819898234
 20
223.3844027782
 11
281.8935912381
 21
227.6960041928
  0
LINE
  5
295
100
AcDbEntity
  8
ALL_DETAIL_ITEM
100
AcDbLine
 62
2
  6
CONTINUOUS
 10
278.6453444268
 20
238.5898930055
 11
282.9569458061
 21
242.9014943849
  0
LINE
  5
296
100
AcDbEntity
  8
ALL_DETAIL_ITEM
100
AcDbLine
 62
2
  6
CONTINUOUS
 10
279.7086990301
 20
253.7953832328
 11
284.0203003742
 21
258.106984577
  0
LINE
  5
297
100
AcDbEntity
  8
ALL_DETAIL_ITEM
100
AcDbLine
 62
2
  6
CONTINUOUS
 10
280.7720536334
 20
269.0008734602
 11
285.0836549423
 21
273.312474769
  0
LINE
  5
298
100
AcDbEntity
  8
ALL_DETAIL_ITEM
100
AcDbLine
 62
2
  6
CONTINUOUS
 10
281.8354082367
 20
284.2063636875
 11
286.1470095103
 21
288.5179649611
  0
LINE
  5
299
100
AcDbEntity
  8
ALL_DETAIL_ITEM
100
AcDbLine
 62
2
  6
CONTINUOUS
 10
282.8987628401
 20
299.4118539148
 11
287.2103640784
 21
303.7234551531
  0
LINE
  5
29A
100
AcDbEntity
  8
ALL_DETAIL_ITEM
100
AcDbLine
 62
2
  6
CONTINUOUS
 10
283.9621174434
 20
314.6173441422
 11
288.2737186465
 21
318.9289453452
  0
LINE
  5
29B
100
AcDbEntity
  8
ALL_DETAIL_ITEM
100
AcDbLine
 62
2
  6
CONTINUOUS
 10
285.0254720467
 20
329.8228343695
 11
289.3370732145
 21
334.1344355373
  0
LINE
  5
29C
100
AcDbEntity
  8
ALL_DETAIL_ITEM
100
AcDbLine
 62
2
  6
CONTINUOUS
 10
286.0888266501
 20
345.0283245968
 11
290.4004277826
 21
349.3399257293
  0
LINE
  5
29D
100
AcDbEntity
  8
ALL_DETAIL_ITEM
100
AcDbLine
 62
2
  6
CONTINUOUS
 10
287.1521812534
 20
360.2338148241
 11
291.4637823506
 21
364.5454159214
  0
LINE
  5
29E
100
AcDbEntity
  8
ALL_DETAIL_ITEM
100
AcDbLine
 62
2
  6
CONTINUOUS
 10
288.2155358567
 20
375.4393050515
 11
292.5271369187
 21
379.7509061135
  0
LINE
  5
29F
100
AcDbEntity
  8
ALL_DETAIL_ITEM
100
AcDbLine
 62
2
  6
CONTINUOUS
 10
289.2788904601
 20
390.6447952788
 11
293.5904914868
 21
394.9563963055
  0
LINE
  5
2A0
100
AcDbEntity
  8
ALL_DETAIL_ITEM
100
AcDbLine
 62
2
  6
CONTINUOUS
 10
338.318388063
 20
439.6842928818
 11
342.0506244875
 21
443.4165293063
  0
LINE
  5
2A1
100
AcDbEntity
  8
ALL_DETAIL_ITEM
100
AcDbLine
 62
2
  6
CONTINUOUS
 10
290.3422450634
 20
405.8502855061
 11
294.6538460548
 21
410.1618864976
  0
LINE
  5
2A2
100
AcDbEntity
  8
ALL_DETAIL_ITEM
100
AcDbLine
 62
2
  6
CONTINUOUS
 10
324.176252439
 20
439.6842928818
 11
328.176245748
 21
443.6842861908
  0
LINE
  5
2A3
100
AcDbEntity
  8
ALL_DETAIL_ITEM
100
AcDbLine
 62
2
  6
CONTINUOUS
 10
291.4055996667
 20
421.0557757335
 11
295.7172006229
 21
425.3673766896
  0
LINE
  5
2A4
100
AcDbEntity
  8
ALL_DETAIL_ITEM
100
AcDbLine
 62
2
  6
CONTINUOUS
 10
310.034116815
 20
439.6842928818
 11
314.0341033039
 21
443.6842793706
  0
LINE
  5
2A5
100
AcDbEntity
  8
ALL_DETAIL_ITEM
100
AcDbLine
 62
2
  6
CONTINUOUS
 10
292.46895427
 20
436.2612659608
 11
299.8919608598
 21
443.6842725505
  0
LINE
  5
2A6
100
AcDbEntity
  8
ALL_DETAIL_ITEM
100
AcDbLine
 62
2
  6
CONTINUOUS
 10
369.5506244875
 20
443.6842928818
 11
506.638403302
 21
443.6842928818
  0
LINE
  5
2A7
100
AcDbEntity
  8
ALL_DETAIL_ITEM
100
AcDbLine
 62
2
  6
CONTINUOUS
 10
369.5506244875
 20
513.6842928818
 11
506.638403302
 21
513.6842928818
  0
LINE
  5
2A8
100
AcDbEntity
  8
ALL_DETAIL_ITEM
100
AcDbLine
 62
2
  6
CONTINUOUS
 10
501.638403302
 20
443.6842928818
 11
501.638403302
 21
478.6842928818
  0
LINE
  5
2A9
100
AcDbEntity
  8
ALL_DETAIL_ITEM
100
AcDbLine
 62
2
  6
CONTINUOUS
 10
501.638403302
 20
513.6842928818
 11
501.638403302
 21
478.6842928818
  0
LINE
  5
2AA
100
AcDbEntity
  8
ALL_DETAIL_ITEM
100
AcDbLine
 62
2
  6
CONTINUOUS
 10
505.3884033022
 20
461.1842928818
 11
497.8884033017
 21
461.1842928818
  0
LINE
  5
2AB
100
AcDbEntity
  8
ALL_DETAIL_ITEM
100
AcDbLine
 62
2
  6
CONTINUOUS
 10
497.8884033017
 20
461.1842928818
 11
501.638403302
 21
443.6842928818
  0
LINE
  5
2AC
100
AcDbEntity
  8
ALL_DETAIL_ITEM
100
AcDbLine
 62
2
  6
CONTINUOUS
 10
501.638403302
 20
443.6842928818
 11
505.3884033022
 21
461.1842928818
  0
SOLID
  5
2AD
100
AcDbEntity
  8
ALL_DETAIL_ITEM
100
AcDbTrace
 62
2
  6
CONTINUOUS
 10
505.3884033022
 20
461.1842928818
 11
501.638403302
 21
443.6842928818
 12
497.8884033017
 22
461.1842928818
 13
497.8884033017
 23
461.1842928818
  0
LINE
  5
2AE
100
AcDbEntity
  8
ALL_DETAIL_ITEM
100
AcDbLine
 62
2
  6
CONTINUOUS
 10
497.8884033017
 20
496.1842928818
 11
505.3884033022
 21
496.1842928818
  0
LINE
  5
2AF
100
AcDbEntity
  8
ALL_DETAIL_ITEM
100
AcDbLine
 62
2
  6
CONTINUOUS
 10
505.3884033022
 20
496.1842928818
 11
501.638403302
 21
513.6842928818
  0
LINE
  5
2B0
100
AcDbEntity
  8
ALL_DETAIL_ITEM
100
AcDbLine
 62
2
  6
CONTINUOUS
 10
501.638403302
 20
513.6842928818
 11
497.8884033017
 21
496.1842928818
  0
SOLID
  5
2B1
100
AcDbEntity
  8
ALL_DETAIL_ITEM
100
AcDbTrace
 62
2
  6
CONTINUOUS
 10
497.8884033017
 20
496.1842928818
 11
501.638403302
 21
513.6842928818
 12
505.3884033022
 22
496.1842928818
 13
505.3884033022
 23
496.1842928818
  0
LINE
  5
2B2
100
AcDbEntity
  8
ALL_DETAIL_ITEM
100
AcDbLine
 62
2
  6
CONTINUOUS
 10
344.5506244875
 20
443.6842928818
 11
344.5506244875
 21
687.4243903658
  0
LINE
  5
2B3
100
AcDbEntity
  8
ALL_DETAIL_ITEM
100
AcDbLine
 62
2
  6
CONTINUOUS
 10
369.5506244875
 20
443.6842928818
 11
369.5506244875
 21
687.4243903658
  0
LINE
  5
2B4
100
AcDbEntity
  8
ALL_DETAIL_ITEM
100
AcDbLine
 62
2
  6
CONTINUOUS
 10
344.5506244875
 20
682.4243903658
 11
319.5506244875
 21
682.4243903658
  0
LINE
  5
2B5
100
AcDbEntity
  8
ALL_DETAIL_ITEM
100
AcDbLine
 62
2
  6
CONTINUOUS
 10
319.5506244875
 20
682.4243903658
 11
357.0506244875
 21
682.4243903658
  0
LINE
  5
2B6
100
AcDbEntity
  8
ALL_DETAIL_ITEM
100
AcDbLine
 62
2
  6
CONTINUOUS
 10
369.5506244875
 20
682.4243903658
 11
429.429221693
 21
682.4243903658
  0
LINE
  5
2B7
100
AcDbEntity
  8
ALL_DETAIL_ITEM
100
AcDbLine
 62
2
  6
CONTINUOUS
 10
429.429221693
 20
682.4243903658
 11
357.0506244875
 21
682.4243903658
  0
LINE
  5
2B8
100
AcDbEntity
  8
ALL_DETAIL_ITEM
100
AcDbLine
 62
2
  6
CONTINUOUS
 10
327.0506244875
 20
686.174390366
 11
327.0506244875
 21
678.6743903655
  0
LINE
  5
2B9
100
AcDbEntity
  8
ALL_DETAIL_ITEM
100
AcDbLine
 62
2
  6
CONTINUOUS
 10
327.0506244875
 20
678.6743903655
 11
344.5506244875
 21
682.4243903658
  0
LINE
  5
2BA
100
AcDbEntity
  8
ALL_DETAIL_ITEM
100
AcDbLine
 62
2
  6
CONTINUOUS
 10
344.5506244875
 20
682.4243903658
 11
327.0506244875
 21
686.174390366
  0
SOLID
  5
2BB
100
AcDbEntity
  8
ALL_DETAIL_ITEM
100
AcDbTrace
 62
2
  6
CONTINUOUS
 10
327.0506244875
 20
686.174390366
 11
344.5506244875
 21
682.4243903658
 12
327.0506244875
 22
678.6743903655
 13
327.0506244875
 23
678.6743903655
  0
LINE
  5
2BC
100
AcDbEntity
  8
ALL_DETAIL_ITEM
100
AcDbLine
 62
2
  6
CONTINUOUS
 10
387.0506244875
 20
678.6743903655
 11
387.0506244875
 21
686.174390366
  0
LINE
  5
2BD
100
AcDbEntity
  8
ALL_DETAIL_ITEM
100
AcDbLine
 62
2
  6
CONTINUOUS
 10
387.0506244875
 20
686.174390366
 11
369.5506244875
 21
682.4243903658
  0
LINE
  5
2BE
100
AcDbEntity
  8
ALL_DETAIL_ITEM
100
AcDbLine
 62
2
  6
CONTINUOUS
 10
369.5506244875
 20
682.4243903658
 11
387.0506244875
 21
678.6743903655
  0
SOLID
  5
2BF
100
AcDbEntity
  8
ALL_DETAIL_ITEM
100
AcDbTrace
 62
2
  6
CONTINUOUS
 10
387.0506244875
 20
678.6743903655
 11
369.5506244875
 21
682.4243903658
 12
387.0506244875
 22
686.174390366
 13
387.0506244875
 23
686.174390366
  0
LINE
  5
2C0
100
AcDbEntity
  8
ALL_DETAIL_ITEM
100
AcDbLine
 62
2
  6
CONTINUOUS
 10
267.806689867
 20
212.3889032688
 11
281.9465807945
 21
206.0957224338
  0
LINE
  5
2C1
100
AcDbEntity
  8
ALL_DETAIL_ITEM
100
AcDbLine
 62
2
  6
CONTINUOUS
 10
246.853979975
 20
224.9192857188
 11
267.806689867
 21
212.3889032688
  0
LINE
  5
2C2
100
AcDbEntity
  8
ALL_DETAIL_ITEM
100
AcDbLine
 62
2
  6
CONTINUOUS
 10
228.348793924
 20
239.8236836118
 11
246.853979975
 21
224.9192857188
  0
LINE
  5
2C3
100
AcDbEntity
  8
ALL_DETAIL_ITEM
100
AcDbLine
 62
2
  6
CONTINUOUS
 10
194.8380231995
 20
643.6842928818
 11
192.074267992
 21
634.5568720188
  0
LINE
  5
2C4
100
AcDbEntity
  8
ALL_DETAIL_ITEM
100
AcDbLine
 62
2
  6
CONTINUOUS
 10
213.021533617
 20
257.5060907688
 11
228.348793924
 21
239.8236836118
  0
LINE
  5
2C5
100
AcDbEntity
  8
ALL_DETAIL_ITEM
100
AcDbLine
 62
2
  6
CONTINUOUS
 10
206.886899769
 20
267.2141872018
 11
213.021533617
 21
257.5060907688
  0
LINE
  5
2C6
100
AcDbEntity
  8
ALL_DETAIL_ITEM
100
AcDbLine
 62
2
  6
CONTINUOUS
 10
192.074267992
 20
634.5568720188
 11
182.504218422
 21
581.1355359593
  0
LINE
  5
2C7
100
AcDbEntity
  8
ALL_DETAIL_ITEM
100
AcDbLine
 62
2
  6
CONTINUOUS
 10
201.557103861
 20
277.4840538503
 11
206.886899769
 21
267.2141872018
  0
LINE
  5
2C8
100
AcDbEntity
  8
ALL_DETAIL_ITEM
100
AcDbLine
 62
2
  6
CONTINUOUS
 10
196.908252367
 20
288.1213251438
 11
201.557103861
 21
277.4840538503
  0
LINE
  5
2C9
100
AcDbEntity
  8
ALL_DETAIL_ITEM
100
AcDbLine
 62
2
  6
CONTINUOUS
 10
184.5265861405
 20
328.2531146643
 11
196.908252367
 21
288.1213251438
  0
LINE
  5
2CA
100
AcDbEntity
  8
ALL_DETAIL_ITEM
100
AcDbLine
 62
2
  6
CONTINUOUS
 10
175.960986742
 20
412.1935907688
 11
178.0364878375
 21
369.8763585398
  0
LINE
  5
2CB
100
AcDbEntity
  8
ALL_DETAIL_ITEM
100
AcDbLine
 62
2
  6
CONTINUOUS
 10
176.141223293
 20
435.5074895608
 11
175.960986742
 21
412.1935907688
  0
LINE
  5
2CC
100
AcDbEntity
  8
ALL_DETAIL_ITEM
100
AcDbLine
 62
2
  6
CONTINUOUS
 10
178.9236555655
 20
531.0340017423
 11
177.572314867
 21
481.4807001438
  0
LINE
  5
2CD
100
AcDbEntity
  8
ALL_DETAIL_ITEM
100
AcDbLine
 62
2
  6
CONTINUOUS
 10
176.8119173895
 20
458.6498933878
 11
176.141223293
 21
435.5074895608
  0
LINE
  5
2CE
100
AcDbEntity
  8
ALL_DETAIL_ITEM
100
AcDbLine
 62
2
  6
CONTINUOUS
 10
177.572314867
 20
481.4807001438
 11
176.8119173895
 21
458.6498933878
  0
LINE
  5
2CF
100
AcDbEntity
  8
ALL_DETAIL_ITEM
100
AcDbLine
 62
2
  6
CONTINUOUS
 10
182.504218422
 20
581.1355359593
 11
178.9236555655
 21
531.0340017423
  0
LINE
  5
2D0
100
AcDbEntity
  8
ALL_DETAIL_ITEM
100
AcDbLine
 62
2
  6
CONTINUOUS
 10
178.0364878375
 20
369.8763585398
 11
184.5265861405
 21
328.2531146643
  0
LINE
  5
2D1
100
AcDbEntity
  8
ALL_DETAIL_ITEM
100
AcDbLine
 62
2
  6
CONTINUOUS
 10
456.332080492
 20
491.1486688938
 11
457.8194165465
 21
509.4624437338
  0
LINE
  5
2D2
100
AcDbEntity
  8
ALL_DETAIL_ITEM
100
AcDbLine
 62
2
  6
CONTINUOUS
 10
460.5065922995
 20
527.7203898933
 11
462.777392992
 21
545.9338251438
  0
LINE
  5
2D3
100
AcDbEntity
  8
ALL_DETAIL_ITEM
100
AcDbLine
 62
2
  6
CONTINUOUS
 10
457.8194165465
 20
509.4624437338
 11
460.5065922995
 21
527.7203898933
  0
LINE
  5
2D4
100
AcDbEntity
  8
ALL_DETAIL_ITEM
100
AcDbLine
 62
2
  6
CONTINUOUS
 10
456.9662039325
 20
474.9796280228
 11
456.332080492
 21
491.1486688938
  0
LINE
  5
2D5
100
AcDbEntity
  8
ALL_DETAIL_ITEM
100
AcDbLine
 62
2
  6
CONTINUOUS
 10
462.777392992
 20
545.9338251438
 11
463.025384933
 21
572.1043062353
  0
LINE
  5
2D6
100
AcDbEntity
  8
ALL_DETAIL_ITEM
100
AcDbLine
 62
2
  6
CONTINUOUS
 10
461.0411770315
 20
443.6842928818
 11
458.879261923
 21
458.8393872163
  0
LINE
  5
2D7
100
AcDbEntity
  8
ALL_DETAIL_ITEM
100
AcDbLine
 62
2
  6
CONTINUOUS
 10
458.879261923
 20
458.8393872163
 11
456.9662039325
 21
474.9796280228
  0
LINE
  5
2D8
100
AcDbEntity
  8
ALL_DETAIL_ITEM
100
AcDbLine
 62
2
  6
CONTINUOUS
 10
463.025384933
 20
572.1043062353
 11
460.021374874
 21
598.3685188738
  0
LINE
  5
2D9
100
AcDbEntity
  8
ALL_DETAIL_ITEM
100
AcDbLine
 62
2
  6
CONTINUOUS
 10
454.720752367
 20
624.8889032688
 11
449.6489940945
 21
643.6842928818
  0
LINE
  5
2DA
100
AcDbEntity
  8
ALL_DETAIL_ITEM
100
AcDbLine
 62
2
  6
CONTINUOUS
 10
460.021374874
 20
598.3685188738
 11
454.720752367
 21
624.8889032688
  0
LINE
  5
2DB
100
AcDbEntity
  8
ALL_DETAIL_ITEM
100
AcDbLine
 62
2
  6
CENTER
 10
357.0506244875
 20
663.8322034913
 11
357.0506244875
 21
433.0758514913
  0
LINE
  5
2DC
100
AcDbEntity
  8
ALL_DETAIL_ITEM
100
AcDbLine
 62
7
  6
CONTINUOUS
 10
364.288528324
 20
243.9685728138
 11
365.132473619
 21
244.1506764388
  0
LINE
  5
2DD
100
AcDbEntity
  8
ALL_DETAIL_ITEM
100
AcDbLine
 62
7
  6
CONTINUOUS
 10
365.132473619
 20
244.1506764388
 11
365.9945665445
 21
244.3585639168
  0
LINE
  5
2DE
100
AcDbEntity
  8
ALL_DETAIL_ITEM
100
AcDbLine
 62
7
  6
CONTINUOUS
 10
365.9945665445
 20
244.3585639168
 11
366.872464609
 21
244.5933837913
  0
LINE
  5
2DF
100
AcDbEntity
  8
ALL_DETAIL_ITEM
100
AcDbLine
 62
7
  6
CONTINUOUS
 10
353.1365572625
 20
243.6101361493
 11
353.7692053485
 21
243.6806272763
  0
LINE
  5
2E0
100
AcDbEntity
  8
ALL_DETAIL_ITEM
100
AcDbLine
 62
7
  6
CONTINUOUS
 10
353.7692053485
 20
243.6806272763
 11
354.421830134
 21
243.7973788038
  0
LINE
  5
2E1
100
AcDbEntity
  8
ALL_DETAIL_ITEM
100
AcDbLine
 62
7
  6
CONTINUOUS
 10
354.421830134
 20
243.7973788038
 11
355.1112043215
 21
243.9685728138
  0
LINE
  5
2E2
100
AcDbEntity
  8
ALL_DETAIL_ITEM
100
AcDbLine
 62
7
  6
CONTINUOUS
 10
360.9646917125
 20
243.6101361493
 11
362.0414239105
 21
243.6806189373
  0
LINE
  5
2E3
100
AcDbEntity
  8
ALL_DETAIL_ITEM
100
AcDbLine
 62
7
  6
CONTINUOUS
 10
362.0414239105
 20
243.6806189373
 11
363.1405965775
 21
243.7973889948
  0
LINE
  5
2E4
100
AcDbEntity
  8
ALL_DETAIL_ITEM
100
AcDbLine
 62
7
  6
CONTINUOUS
 10
363.1405965775
 20
243.7973889948
 11
364.288528324
 21
243.9685728138
  0
LINE
  5
2E5
100
AcDbEntity
  8
ALL_DETAIL_ITEM
100
AcDbLine
 62
7
  6
CONTINUOUS
 10
367.8928872795
 20
244.8989556708
 11
368.049548906
 21
244.8989558543
  0
LINE
  5
2E6
100
AcDbEntity
  8
ALL_DETAIL_ITEM
100
AcDbLine
 62
7
  6
CONTINUOUS
 10
355.2008505865
 20
244.8989556708
 11
358.9003983885
 21
244.8989556708
  0
LINE
  5
2E7
100
AcDbEntity
  8
ALL_DETAIL_ITEM
100
AcDbLine
 62
7
  6
CONTINUOUS
 10
346.051700069
 20
244.8989558543
 11
346.1235511965
 21
244.8989557703
  0
LINE
  5
2E8
100
AcDbEntity
  8
ALL_DETAIL_ITEM
100
AcDbLine
 62
7
  6
CONTINUOUS
 10
346.1235511965
 20
244.8989557703
 11
346.2157399475
 21
244.8966091313
  0
LINE
  5
2E9
100
AcDbEntity
  8
ALL_DETAIL_ITEM
100
AcDbLine
 62
7
  6
CONTINUOUS
 10
337.0506244875
 20
258.6842928818
 11
377.0506244875
 21
258.6842928818
  0
LINE
  5
2EA
100
AcDbEntity
  8
ALL_DETAIL_ITEM
100
AcDbLine
 62
7
  6
CONTINUOUS
 10
349.8127206515
 20
243.9685728138
 11
350.98516087
 21
243.7942862493
  0
LINE
  5
2EB
100
AcDbEntity
  8
ALL_DETAIL_ITEM
100
AcDbLine
 62
7
  6
CONTINUOUS
 10
350.98516087
 20
243.7942862493
 11
352.0828544895
 21
243.6786592048
  0
LINE
  5
2EC
100
AcDbEntity
  8
ALL_DETAIL_ITEM
100
AcDbLine
 62
7
  6
CONTINUOUS
 10
352.0828544895
 20
243.6786592048
 11
353.1365572625
 21
243.6101361493
  0
LINE
  5
2ED
100
AcDbEntity
  8
ALL_DETAIL_ITEM
100
AcDbLine
 62
7
  6
CONTINUOUS
 10
358.9900446535
 20
243.9685728138
 11
359.6940084595
 21
243.7942849838
  0
LINE
  5
2EE
100
AcDbEntity
  8
ALL_DETAIL_ITEM
100
AcDbLine
 62
7
  6
CONTINUOUS
 10
359.6940084595
 20
243.7942849838
 11
360.3456922715
 21
243.6786605148
  0
LINE
  5
2EF
100
AcDbEntity
  8
ALL_DETAIL_ITEM
100
AcDbLine
 62
7
  6
CONTINUOUS
 10
360.3456922715
 20
243.6786605148
 11
360.9646917125
 21
243.6101361493
  0
LINE
  5
2F0
100
AcDbEntity
  8
ALL_DETAIL_ITEM
100
AcDbLine
 62
7
  6
CONTINUOUS
 10
347.228784366
 20
244.5933837913
 11
348.1054779885
 21
244.3588699973
  0
LINE
  5
2F1
100
AcDbEntity
  8
ALL_DETAIL_ITEM
100
AcDbLine
 62
7
  6
CONTINUOUS
 10
348.1054779885
 20
244.3588699973
 11
348.967507959
 21
244.1509657518
  0
LINE
  5
2F2
100
AcDbEntity
  8
ALL_DETAIL_ITEM
100
AcDbLine
 62
7
  6
CONTINUOUS
 10
348.967507959
 20
244.1509657518
 11
349.8127206515
 21
243.9685728138
  0
LINE
  5
2F3
100
AcDbEntity
  8
ALL_DETAIL_ITEM
100
AcDbLine
 62
7
  6
CONTINUOUS
 10
346.2157399475
 20
244.8966091313
 11
346.5546719905
 21
244.7909852158
  0
LINE
  5
2F4
100
AcDbEntity
  8
ALL_DETAIL_ITEM
100
AcDbLine
 62
7
  6
CONTINUOUS
 10
346.5546719905
 20
244.7909852158
 11
346.8923794635
 21
244.6899327383
  0
LINE
  5
2F5
100
AcDbEntity
  8
ALL_DETAIL_ITEM
100
AcDbLine
 62
7
  6
CONTINUOUS
 10
346.8923794635
 20
244.6899327383
 11
347.228784366
 21
244.5933837913
  0
LINE
  5
2F6
100
AcDbEntity
  8
ALL_DETAIL_ITEM
100
AcDbLine
 62
7
  6
CONTINUOUS
 10
359.2993174045
 20
279.6333908528
 11
361.2115651705
 21
279.9765011468
  0
LINE
  5
2F7
100
AcDbEntity
  8
ALL_DETAIL_ITEM
100
AcDbLine
 62
7
  6
CONTINUOUS
 10
361.2115651705
 20
279.9765011468
 11
362.740276174
 21
280.3252040208
  0
LINE
  5
2F8
100
AcDbEntity
  8
ALL_DETAIL_ITEM
100
AcDbLine
 62
7
  6
CONTINUOUS
 10
362.740276174
 20
280.3252040208
 11
363.714013322
 21
280.6710882588
  0
LINE
  5
2F9
100
AcDbEntity
  8
ALL_DETAIL_ITEM
100
AcDbLine
 62
7
  6
CONTINUOUS
 10
363.714013322
 20
280.6710882588
 11
363.7931746215
 21
280.7149287163
  0
LINE
  5
2FA
100
AcDbEntity
  8
ALL_DETAIL_ITEM
100
AcDbLine
 62
7
  6
CONTINUOUS
 10
362.359827254
 20
267.4930171138
 11
364.5108635885
 21
267.8211380958
  0
LINE
  5
2FB
100
AcDbEntity
  8
ALL_DETAIL_ITEM
100
AcDbLine
 62
7
  6
CONTINUOUS
 10
364.5108635885
 20
267.8211380958
 11
366.020380433
 21
268.1491958813
  0
LINE
  5
2FC
100
AcDbEntity
  8
ALL_DETAIL_ITEM
100
AcDbLine
 62
7
  6
CONTINUOUS
 10
366.020380433
 20
268.1491958813
 11
366.6282361615
 21
268.3823087228
  0
LINE
  5
2FD
100
AcDbEntity
  8
ALL_DETAIL_ITEM
100
AcDbLine
 62
7
  6
CONTINUOUS
 10
367.0506244875
 20
267.3592928818
 11
347.0506244875
 21
267.3592928818
  0
LINE
  5
2FE
100
AcDbEntity
  8
ALL_DETAIL_ITEM
100
AcDbLine
 62
7
  6
CONTINUOUS
 10
360.9776998065
 20
268.6842928818
 11
349.3455918075
 21
268.6842928818
  0
LINE
  5
2FF
100
AcDbEntity
  8
ALL_DETAIL_ITEM
100
AcDbLine
 62
7
  6
CONTINUOUS
 10
359.3249994325
 20
293.6366551713
 11
361.23700924
 21
293.9821527833
  0
LINE
  5
300
100
AcDbEntity
  8
ALL_DETAIL_ITEM
100
AcDbLine
 62
7
  6
CONTINUOUS
 10
361.23700924
 20
293.9821527833
 11
362.7513535985
 21
294.3280701638
  0
LINE
  5
301
100
AcDbEntity
  8
ALL_DETAIL_ITEM
100
AcDbLine
 62
7
  6
CONTINUOUS
 10
362.7513535985
 20
294.3280701638
 11
363.7169484415
 21
294.6719133578
  0
LINE
  5
302
100
AcDbEntity
  8
ALL_DETAIL_ITEM
100
AcDbLine
 62
7
  6
CONTINUOUS
 10
363.7169484415
 20
294.6719133578
 11
363.79494726
 21
294.7153040698
  0
LINE
  5
303
100
AcDbEntity
  8
ALL_DETAIL_ITEM
100
AcDbLine
 62
7
  6
CONTINUOUS
 10
354.830295007
 20
296.1603653183
 11
352.911309575
 21
295.8141221318
  0
LINE
  5
304
100
AcDbEntity
  8
ALL_DETAIL_ITEM
100
AcDbLine
 62
7
  6
CONTINUOUS
 10
352.911309575
 20
295.8141221318
 11
351.3714834875
 21
295.4656612498
  0
LINE
  5
305
100
AcDbEntity
  8
ALL_DETAIL_ITEM
100
AcDbLine
 62
7
  6
CONTINUOUS
 10
351.3714834875
 20
295.4656612498
 11
350.389830023
 21
295.1183224448
  0
LINE
  5
306
100
AcDbEntity
  8
ALL_DETAIL_ITEM
100
AcDbLine
 62
7
  6
CONTINUOUS
 10
350.389830023
 20
295.1183224448
 11
350.273600498
 21
295.0518212523
  0
LINE
  5
307
100
AcDbEntity
  8
ALL_DETAIL_ITEM
100
AcDbLine
 62
7
  6
CONTINUOUS
 10
354.8605225505
 20
282.1645015373
 11
352.916283559
 21
281.8161126723
  0
LINE
  5
308
100
AcDbEntity
  8
ALL_DETAIL_ITEM
100
AcDbLine
 62
7
  6
CONTINUOUS
 10
352.916283559
 20
281.8161126723
 11
351.3854881275
 21
281.4681513893
  0
LINE
  5
309
100
AcDbEntity
  8
ALL_DETAIL_ITEM
100
AcDbLine
 62
7
  6
CONTINUOUS
 10
351.3854881275
 20
281.4681513893
 11
350.3930109105
 21
281.1198472368
  0
LINE
  5
30A
100
AcDbEntity
  8
ALL_DETAIL_ITEM
100
AcDbLine
 62
7
  6
CONTINUOUS
 10
350.3930109105
 20
281.1198472368
 11
350.2745064845
 21
281.0525706148
  0
LINE
  5
30B
100
AcDbEntity
  8
ALL_DETAIL_ITEM
100
AcDbLine
 62
7
  6
CONTINUOUS
 10
359.19518799
 20
286.6152696613
 11
361.1156111715
 21
286.9579608903
  0
LINE
  5
30C
100
AcDbEntity
  8
ALL_DETAIL_ITEM
100
AcDbLine
 62
7
  6
CONTINUOUS
 10
361.1156111715
 20
286.9579608903
 11
362.6717745095
 21
287.3063726223
  0
LINE
  5
30D
100
AcDbEntity
  8
ALL_DETAIL_ITEM
100
AcDbLine
 62
7
  6
CONTINUOUS
 10
362.6717745095
 20
287.3063726223
 11
363.7033275795
 21
287.6652347223
  0
LINE
  5
30E
100
AcDbEntity
  8
ALL_DETAIL_ITEM
100
AcDbLine
 62
7
  6
CONTINUOUS
 10
363.7033275795
 20
287.6652347223
 11
363.7944457445
 21
287.7153112143
  0
LINE
  5
30F
100
AcDbEntity
  8
ALL_DETAIL_ITEM
100
AcDbLine
 62
7
  6
CONTINUOUS
 10
354.8721447415
 20
289.1670542038
 11
359.141895402
 21
289.8566564418
  0
LINE
  5
310
100
AcDbEntity
  8
ALL_DETAIL_ITEM
100
AcDbLine
 62
7
  6
CONTINUOUS
 10
359.141895402
 20
289.8566564418
 11
361.069648885
 21
290.2013031223
  0
LINE
  5
311
100
AcDbEntity
  8
ALL_DETAIL_ITEM
100
AcDbLine
 62
7
  6
CONTINUOUS
 10
361.069648885
 20
290.2013031223
 11
362.6550132865
 21
290.5539578028
  0
LINE
  5
312
100
AcDbEntity
  8
ALL_DETAIL_ITEM
100
AcDbLine
 62
7
  6
CONTINUOUS
 10
362.6550132865
 20
290.5539578028
 11
363.700967125
 21
290.9156972028
  0
LINE
  5
313
100
AcDbEntity
  8
ALL_DETAIL_ITEM
100
AcDbLine
 62
7
  6
CONTINUOUS
 10
363.700967125
 20
290.9156972028
 11
364.0506244875
 21
291.2699017408
  0
LINE
  5
314
100
AcDbEntity
  8
ALL_DETAIL_ITEM
100
AcDbLine
 62
7
  6
CONTINUOUS
 10
360.018882298
 20
295.1969024123
 11
354.583788396
 21
294.5684871118
  0
LINE
  5
315
100
AcDbEntity
  8
ALL_DETAIL_ITEM
100
AcDbLine
 62
7
  6
CONTINUOUS
 10
354.583788396
 20
294.5684871118
 11
352.0519743285
 21
294.2542794613
  0
LINE
  5
316
100
AcDbEntity
  8
ALL_DETAIL_ITEM
100
AcDbLine
 62
7
  6
CONTINUOUS
 10
352.0519743285
 20
294.2542794613
 11
349.9124354895
 21
293.9400718113
  0
LINE
  5
317
100
AcDbEntity
  8
ALL_DETAIL_ITEM
100
AcDbLine
 62
7
  6
CONTINUOUS
 10
349.9124354895
 20
293.9400718113
 11
348.338480977
 21
293.6258641608
  0
LINE
  5
318
100
AcDbEntity
  8
ALL_DETAIL_ITEM
100
AcDbLine
 62
7
  6
CONTINUOUS
 10
348.338480977
 20
293.6258641608
 11
347.462857711
 21
293.3171513588
  0
LINE
  5
319
100
AcDbEntity
  8
ALL_DETAIL_ITEM
100
AcDbLine
 62
7
  6
CONTINUOUS
 10
363.11123751
 20
318.6842928818
 11
361.702784691
 21
318.3297078723
  0
LINE
  5
31A
100
AcDbEntity
  8
ALL_DETAIL_ITEM
100
AcDbLine
 62
7
  6
CONTINUOUS
 10
361.702784691
 20
318.3297078723
 11
359.822895476
 21
317.9726394003
  0
LINE
  5
31B
100
AcDbEntity
  8
ALL_DETAIL_ITEM
100
AcDbLine
 62
7
  6
CONTINUOUS
 10
359.822895476
 20
317.9726394003
 11
357.6611756475
 21
317.6172121038
  0
LINE
  5
31C
100
AcDbEntity
  8
ALL_DETAIL_ITEM
100
AcDbLine
 62
7
  6
CONTINUOUS
 10
357.6611756475
 20
317.6172121038
 11
355.437641219
 21
317.2598540168
  0
LINE
  5
31D
100
AcDbEntity
  8
ALL_DETAIL_ITEM
100
AcDbLine
 62
7
  6
CONTINUOUS
 10
355.437641219
 20
317.2598540168
 11
353.377609819
 21
316.9043105773
  0
LINE
  5
31E
100
AcDbEntity
  8
ALL_DETAIL_ITEM
100
AcDbLine
 62
7
  6
CONTINUOUS
 10
353.377609819
 20
316.9043105773
 11
351.6899508155
 21
316.5481235838
  0
LINE
  5
31F
100
AcDbEntity
  8
ALL_DETAIL_ITEM
100
AcDbLine
 62
7
  6
CONTINUOUS
 10
351.6899508155
 20
316.5481235838
 11
350.5462936335
 21
316.1904336398
  0
LINE
  5
320
100
AcDbEntity
  8
ALL_DETAIL_ITEM
100
AcDbLine
 62
7
  6
CONTINUOUS
 10
350.5462936335
 20
316.1904336398
 11
350.2712428625
 21
316.0495519993
  0
LINE
  5
321
100
AcDbEntity
  8
ALL_DETAIL_ITEM
100
AcDbLine
 62
7
  6
CONTINUOUS
 10
365.6456054275
 20
303.0520936693
 11
364.0188062125
 21
302.7378860188
  0
LINE
  5
322
100
AcDbEntity
  8
ALL_DETAIL_ITEM
100
AcDbLine
 62
7
  6
CONTINUOUS
 10
364.0188062125
 20
302.7378860188
 11
361.8393831085
 21
302.4236783683
  0
LINE
  5
323
100
AcDbEntity
  8
ALL_DETAIL_ITEM
100
AcDbLine
 62
7
  6
CONTINUOUS
 10
361.8393831085
 20
302.4236783683
 11
359.2799742765
 21
302.1094707183
  0
LINE
  5
324
100
AcDbEntity
  8
ALL_DETAIL_ITEM
100
AcDbLine
 62
7
  6
CONTINUOUS
 10
359.2799742765
 20
302.1094707183
 11
356.546595785
 21
301.7952630678
  0
LINE
  5
325
100
AcDbEntity
  8
ALL_DETAIL_ITEM
100
AcDbLine
 62
7
  6
CONTINUOUS
 10
356.546595785
 20
301.7952630678
 11
353.8509503625
 21
301.4810554178
  0
LINE
  5
326
100
AcDbEntity
  8
ALL_DETAIL_ITEM
100
AcDbLine
 62
7
  6
CONTINUOUS
 10
353.8509503625
 20
301.4810554178
 11
351.408804943
 21
301.1668477673
  0
LINE
  5
327
100
AcDbEntity
  8
ALL_DETAIL_ITEM
100
AcDbLine
 62
7
  6
CONTINUOUS
 10
351.408804943
 20
301.1668477673
 11
349.412182162
 21
300.8526401173
  0
LINE
  5
328
100
AcDbEntity
  8
ALL_DETAIL_ITEM
100
AcDbLine
 62
7
  6
CONTINUOUS
 10
349.412182162
 20
300.8526401173
 11
348.0205428415
 21
300.5384324668
  0
LINE
  5
329
100
AcDbEntity
  8
ALL_DETAIL_ITEM
100
AcDbLine
 62
7
  6
CONTINUOUS
 10
348.0205428415
 20
300.5384324668
 11
347.461010649
 21
300.3143057328
  0
LINE
  5
32A
100
AcDbEntity
  8
ALL_DETAIL_ITEM
100
AcDbLine
 62
7
  6
CONTINUOUS
 10
359.279633695
 20
307.6289736143
 11
361.1953917455
 21
307.9736695708
  0
LINE
  5
32B
100
AcDbEntity
  8
ALL_DETAIL_ITEM
100
AcDbLine
 62
7
  6
CONTINUOUS
 10
361.1953917455
 20
307.9736695708
 11
362.732352944
 21
308.3232430873
  0
LINE
  5
32C
100
AcDbEntity
  8
ALL_DETAIL_ITEM
100
AcDbLine
 62
7
  6
CONTINUOUS
 10
362.732352944
 20
308.3232430873
 11
363.71193314
 21
308.6697272813
  0
LINE
  5
32D
100
AcDbEntity
  8
ALL_DETAIL_ITEM
100
AcDbLine
 62
7
  6
CONTINUOUS
 10
363.71193314
 20
308.6697272813
 11
363.795456786
 21
308.7159150058
  0
LINE
  5
32E
100
AcDbEntity
  8
ALL_DETAIL_ITEM
100
AcDbLine
 62
7
  6
CONTINUOUS
 10
359.248760329
 20
314.6236624993
 11
361.1606049165
 21
314.9667068313
  0
LINE
  5
32F
100
AcDbEntity
  8
ALL_DETAIL_ITEM
100
AcDbLine
 62
7
  6
CONTINUOUS
 10
361.1606049165
 20
314.9667068313
 11
362.6911544225
 21
315.3126807513
  0
LINE
  5
330
100
AcDbEntity
  8
ALL_DETAIL_ITEM
100
AcDbLine
 62
7
  6
CONTINUOUS
 10
362.6911544225
 20
315.3126807513
 11
363.706718951
 21
315.6672792788
  0
LINE
  5
331
100
AcDbEntity
  8
ALL_DETAIL_ITEM
100
AcDbLine
 62
7
  6
CONTINUOUS
 10
363.706718951
 20
315.6672792788
 11
363.799440573
 21
315.7185276008
  0
LINE
  5
332
100
AcDbEntity
  8
ALL_DETAIL_ITEM
100
AcDbLine
 62
7
  6
CONTINUOUS
 10
354.8688658975
 20
310.1659425813
 11
352.921399854
 21
309.8170169083
  0
LINE
  5
333
100
AcDbEntity
  8
ALL_DETAIL_ITEM
100
AcDbLine
 62
7
  6
CONTINUOUS
 10
352.921399854
 20
309.8170169083
 11
351.3804096195
 21
309.4681041478
  0
LINE
  5
334
100
AcDbEntity
  8
ALL_DETAIL_ITEM
100
AcDbLine
 62
7
  6
CONTINUOUS
 10
351.3804096195
 20
309.4681041478
 11
350.392388891
 21
309.1181706013
  0
LINE
  5
335
100
AcDbEntity
  8
ALL_DETAIL_ITEM
100
AcDbLine
 62
7
  6
CONTINUOUS
 10
350.392388891
 20
309.1181706013
 11
350.2725552375
 21
309.0499402738
  0
LINE
  5
336
100
AcDbEntity
  8
ALL_DETAIL_ITEM
100
AcDbLine
 62
7
  6
CONTINUOUS
 10
367.0506244375
 20
267.3592928818
 11
365.9572748035
 21
267.9905386153
  0
LINE
  5
337
100
AcDbEntity
  8
ALL_DETAIL_ITEM
100
AcDbLine
 62
7
  6
CONTINUOUS
 10
347.468311781
 20
278.8857449063
 11
349.574606685
 21
277.6510144508
  0
LINE
  5
338
100
AcDbEntity
  8
ALL_DETAIL_ITEM
100
AcDbLine
 62
7
  6
CONTINUOUS
 10
347.472814128
 20
271.8823772118
 11
349.576355551
 21
270.6486205598
  0
LINE
  5
339
100
AcDbEntity
  8
ALL_DETAIL_ITEM
100
AcDbLine
 62
7
  6
CONTINUOUS
 10
349.576355551
 20
270.6486205598
 11
349.984449789
 21
270.4063572888
  0
LINE
  5
33A
100
AcDbEntity
  8
ALL_DETAIL_ITEM
100
AcDbLine
 62
7
  6
CONTINUOUS
 10
349.574606685
 20
277.6510144508
 11
350.0506244875
 21
277.3685330028
  0
LINE
  5
33B
100
AcDbEntity
  8
ALL_DETAIL_ITEM
100
AcDbLine
 62
7
  6
CONTINUOUS
 10
366.643797175
 20
268.8147014533
 11
365.6880118865
 21
269.3945975683
  0
LINE
  5
33C
100
AcDbEntity
  8
ALL_DETAIL_ITEM
100
AcDbLine
 62
7
  6
CONTINUOUS
 10
365.6880118865
 20
269.3945975683
 11
364.5259999235
 21
270.1116063978
  0
LINE
  5
33D
100
AcDbEntity
  8
ALL_DETAIL_ITEM
100
AcDbLine
 62
7
  6
CONTINUOUS
 10
364.5259999235
 20
270.1116063978
 11
364.0506244875
 21
270.4109545473
  0
LINE
  5
33E
100
AcDbEntity
  8
ALL_DETAIL_ITEM
100
AcDbLine
 62
7
  6
CONTINUOUS
 10
354.719385297
 20
324.3854178988
 11
352.905439087
 21
323.9984930848
  0
LINE
  5
33F
100
AcDbEntity
  8
ALL_DETAIL_ITEM
100
AcDbLine
 62
7
  6
CONTINUOUS
 10
352.905439087
 20
323.9984930848
 11
351.4744508915
 21
323.6197254063
  0
LINE
  5
340
100
AcDbEntity
  8
ALL_DETAIL_ITEM
100
AcDbLine
 62
7
  6
CONTINUOUS
 10
351.4744508915
 20
323.6197254063
 11
350.554746788
 21
323.2300564653
  0
LINE
  5
341
100
AcDbEntity
  8
ALL_DETAIL_ITEM
100
AcDbLine
 62
7
  6
CONTINUOUS
 10
354.719385297
 20
324.3854178988
 11
358.186084088
 21
325.0528310123
  0
LINE
  5
342
100
AcDbEntity
  8
ALL_DETAIL_ITEM
100
AcDbLine
 62
7
  6
CONTINUOUS
 10
358.186084088
 20
325.0528310123
 11
359.789950604
 21
325.3783980073
  0
LINE
  5
343
100
AcDbEntity
  8
ALL_DETAIL_ITEM
100
AcDbLine
 62
7
  6
CONTINUOUS
 10
359.789950604
 20
325.3783980073
 11
361.1737865345
 21
325.7068481343
  0
LINE
  5
344
100
AcDbEntity
  8
ALL_DETAIL_ITEM
100
AcDbLine
 62
7
  6
CONTINUOUS
 10
354.2838672625
 20
322.5329679858
 11
351.7878863985
 21
322.2187603358
  0
LINE
  5
345
100
AcDbEntity
  8
ALL_DETAIL_ITEM
100
AcDbLine
 62
7
  6
CONTINUOUS
 10
351.7878863985
 20
322.2187603358
 11
349.7037962145
 21
321.9045526853
  0
LINE
  5
346
100
AcDbEntity
  8
ALL_DETAIL_ITEM
100
AcDbLine
 62
7
  6
CONTINUOUS
 10
349.7037962145
 20
321.9045526853
 11
348.204478523
 21
321.5903450353
  0
LINE
  5
347
100
AcDbEntity
  8
ALL_DETAIL_ITEM
100
AcDbLine
 62
7
  6
CONTINUOUS
 10
348.204478523
 20
321.5903450353
 11
347.4566352105
 21
321.3129580538
  0
LINE
  5
348
100
AcDbEntity
  8
ALL_DETAIL_ITEM
100
AcDbLine
 62
7
  6
CONTINUOUS
 10
347.4687304655
 20
299.8846469418
 11
349.5743250425
 21
298.6502855073
  0
LINE
  5
349
100
AcDbEntity
  8
ALL_DETAIL_ITEM
100
AcDbLine
 62
7
  6
CONTINUOUS
 10
347.4740186065
 20
285.8820143733
 11
349.5775101615
 21
284.6481022958
  0
LINE
  5
34A
100
AcDbEntity
  8
ALL_DETAIL_ITEM
100
AcDbLine
 62
7
  6
CONTINUOUS
 10
347.4771110135
 20
292.8809675993
 11
349.5797410115
 21
291.6471292088
  0
LINE
  5
34B
100
AcDbEntity
  8
ALL_DETAIL_ITEM
100
AcDbLine
 62
7
  6
CONTINUOUS
 10
349.5743250425
 20
298.6502855073
 11
350.0506244875
 21
298.3676442423
  0
LINE
  5
34C
100
AcDbEntity
  8
ALL_DETAIL_ITEM
100
AcDbLine
 62
7
  6
CONTINUOUS
 10
349.5775101615
 20
284.6481022958
 11
350.0506244875
 21
284.3671911338
  0
LINE
  5
34D
100
AcDbEntity
  8
ALL_DETAIL_ITEM
100
AcDbLine
 62
7
  6
CONTINUOUS
 10
349.5797410115
 20
291.6471292088
 11
350.0506244875
 21
291.3674489763
  0
LINE
  5
34E
100
AcDbEntity
  8
ALL_DETAIL_ITEM
100
AcDbLine
 62
7
  6
CONTINUOUS
 10
366.644875226
 20
289.8137810743
 11
365.6881396945
 21
290.3941627318
  0
LINE
  5
34F
100
AcDbEntity
  8
ALL_DETAIL_ITEM
100
AcDbLine
 62
7
  6
CONTINUOUS
 10
365.6881396945
 20
290.3941627318
 11
364.524966104
 21
291.1119910503
  0
LINE
  5
350
100
AcDbEntity
  8
ALL_DETAIL_ITEM
100
AcDbLine
 62
7
  6
CONTINUOUS
 10
366.644053813
 20
282.8145357298
 11
365.688165128
 21
283.3944505113
  0
LINE
  5
351
100
AcDbEntity
  8
ALL_DETAIL_ITEM
100
AcDbLine
 62
7
  6
CONTINUOUS
 10
365.688165128
 20
283.3944505113
 11
364.5260705425
 21
284.1114630303
  0
LINE
  5
352
100
AcDbEntity
  8
ALL_DETAIL_ITEM
100
AcDbLine
 62
7
  6
CONTINUOUS
 10
366.6415996085
 20
275.8157732783
 11
365.6867169315
 21
276.3953824058
  0
LINE
  5
353
100
AcDbEntity
  8
ALL_DETAIL_ITEM
100
AcDbLine
 62
7
  6
CONTINUOUS
 10
365.6867169315
 20
276.3953824058
 11
364.525468618
 21
277.1122801718
  0
LINE
  5
354
100
AcDbEntity
  8
ALL_DETAIL_ITEM
100
AcDbLine
 62
7
  6
CONTINUOUS
 10
364.5260705425
 20
284.1114630303
 11
364.0506244875
 21
284.4108399663
  0
LINE
  5
355
100
AcDbEntity
  8
ALL_DETAIL_ITEM
100
AcDbLine
 62
7
  6
CONTINUOUS
 10
364.525468618
 20
277.1122801718
 11
364.0506244875
 21
277.4113877038
  0
LINE
  5
356
100
AcDbEntity
  8
ALL_DETAIL_ITEM
100
AcDbLine
 62
7
  6
CONTINUOUS
 10
364.524966104
 20
291.1119910503
 11
364.0506244875
 21
291.4108161928
  0
LINE
  5
357
100
AcDbEntity
  8
ALL_DETAIL_ITEM
100
AcDbLine
 62
7
  6
CONTINUOUS
 10
347.468311781
 20
278.8857449063
 11
347.3641112265
 21
278.9583930118
  0
LINE
  5
358
100
AcDbEntity
  8
ALL_DETAIL_ITEM
100
AcDbLine
 62
7
  6
CONTINUOUS
 10
347.3641112265
 20
278.9583930118
 11
347.4586262355
 21
279.3147254988
  0
LINE
  5
359
100
AcDbEntity
  8
ALL_DETAIL_ITEM
100
AcDbLine
 62
7
  6
CONTINUOUS
 10
362.359827254
 20
267.4930171138
 11
361.8957813355
 21
267.8997348733
  0
LINE
  5
35A
100
AcDbEntity
  8
ALL_DETAIL_ITEM
100
AcDbLine
 62
7
  6
CONTINUOUS
 10
361.8957813355
 20
267.8997348733
 11
361.434858961
 21
268.2968316218
  0
LINE
  5
35B
100
AcDbEntity
  8
ALL_DETAIL_ITEM
100
AcDbLine
 62
7
  6
CONTINUOUS
 10
361.434858961
 20
268.2968316218
 11
360.9780915965
 21
268.6842928818
  0
LINE
  5
35C
100
AcDbEntity
  8
ALL_DETAIL_ITEM
100
AcDbLine
 62
7
  6
CONTINUOUS
 10
357.0506244875
 20
520.9011712468
 11
344.5506244875
 21
513.6842928818
  0
LINE
  5
35D
100
AcDbEntity
  8
ALL_DETAIL_ITEM
100
AcDbLine
 62
7
  6
CONTINUOUS
 10
353.1880736695
 20
338.6842928818
 11
360.9131753055
 21
338.6842928818
  0
LINE
  5
35E
100
AcDbEntity
  8
ALL_DETAIL_ITEM
100
AcDbLine
 62
7
  6
CONTINUOUS
 10
352.3925908685
 20
334.4868014963
 11
351.9387610925
 21
334.5890797288
  0
LINE
  5
35F
100
AcDbEntity
  8
ALL_DETAIL_ITEM
100
AcDbLine
 62
7
  6
CONTINUOUS
 10
351.9387610925
 20
334.5890797288
 11
351.4867427575
 21
334.7239538223
  0
LINE
  5
360
100
AcDbEntity
  8
ALL_DETAIL_ITEM
100
AcDbLine
 62
7
  6
CONTINUOUS
 10
347.4715030655
 20
306.8836151583
 11
348.4275809725
 21
306.3251563003
  0
LINE
  5
361
100
AcDbEntity
  8
ALL_DETAIL_ITEM
100
AcDbLine
 62
7
  6
CONTINUOUS
 10
347.471064282
 20
320.8848674768
 11
348.427516582
 21
320.3262303618
  0
LINE
  5
362
100
AcDbEntity
  8
ALL_DETAIL_ITEM
100
AcDbLine
 62
7
  6
CONTINUOUS
 10
347.472817277
 20
313.8828006138
 11
348.428466157
 21
313.3245065988
  0
LINE
  5
363
100
AcDbEntity
  8
ALL_DETAIL_ITEM
100
AcDbLine
 62
7
  6
CONTINUOUS
 10
348.4275809725
 20
306.3251563003
 11
350.0506244875
 21
305.3676718553
  0
LINE
  5
364
100
AcDbEntity
  8
ALL_DETAIL_ITEM
100
AcDbLine
 62
7
  6
CONTINUOUS
 10
348.428466157
 20
313.3245065988
 11
350.0506244875
 21
312.3674337053
  0
LINE
  5
365
100
AcDbEntity
  8
ALL_DETAIL_ITEM
100
AcDbLine
 62
7
  6
CONTINUOUS
 10
348.427516582
 20
320.3262303618
 11
350.058130824
 21
319.3642777473
  0
LINE
  5
366
100
AcDbEntity
  8
ALL_DETAIL_ITEM
100
AcDbLine
 62
7
  6
CONTINUOUS
 10
366.6406342565
 20
296.8162368538
 11
365.6859601885
 21
297.3958048263
  0
LINE
  5
367
100
AcDbEntity
  8
ALL_DETAIL_ITEM
100
AcDbLine
 62
7
  6
CONTINUOUS
 10
365.6859601885
 20
297.3958048263
 11
364.525014386
 21
298.1125680333
  0
LINE
  5
368
100
AcDbEntity
  8
ALL_DETAIL_ITEM
100
AcDbLine
 62
7
  6
CONTINUOUS
 10
366.643181613
 20
303.8150344363
 11
365.523134116
 21
304.4955171753
  0
LINE
  5
369
100
AcDbEntity
  8
ALL_DETAIL_ITEM
100
AcDbLine
 62
7
  6
CONTINUOUS
 10
365.523134116
 20
304.4955171753
 11
364.213187496
 21
305.3078847808
  0
LINE
  5
36A
100
AcDbEntity
  8
ALL_DETAIL_ITEM
100
AcDbLine
 62
7
  6
CONTINUOUS
 10
366.64457444
 20
310.8131559068
 11
365.5230103925
 21
311.4943452743
  0
LINE
  5
36B
100
AcDbEntity
  8
ALL_DETAIL_ITEM
100
AcDbLine
 62
7
  6
CONTINUOUS
 10
365.5230103925
 20
311.4943452743
 11
364.2113306765
 21
312.3078933088
  0
LINE
  5
36C
100
AcDbEntity
  8
ALL_DETAIL_ITEM
100
AcDbLine
 62
7
  6
CONTINUOUS
 10
364.525014386
 20
298.1125680333
 11
364.0506244875
 21
298.4114057908
  0
LINE
  5
36D
100
AcDbEntity
  8
ALL_DETAIL_ITEM
100
AcDbLine
 62
7
  6
CONTINUOUS
 10
364.213187496
 20
305.3078847808
 11
364.0506244875
 21
305.4106940158
  0
LINE
  5
36E
100
AcDbEntity
  8
ALL_DETAIL_ITEM
100
AcDbLine
 62
7
  6
CONTINUOUS
 10
364.2113306765
 20
312.3078933088
 11
364.0506244875
 21
312.4095762568
  0
LINE
  5
36F
100
AcDbEntity
  8
ALL_DETAIL_ITEM
100
AcDbLine
 62
7
  6
CONTINUOUS
 10
366.6406342565
 20
296.8162368538
 11
366.711568388
 21
296.7679406638
  0
LINE
  5
370
100
AcDbEntity
  8
ALL_DETAIL_ITEM
100
AcDbLine
 62
7
  6
CONTINUOUS
 10
366.711568388
 20
296.7679406638
 11
366.730274425
 21
296.4537330133
  0
LINE
  5
371
100
AcDbEntity
  8
ALL_DETAIL_ITEM
100
AcDbLine
 62
7
  6
CONTINUOUS
 10
366.730274425
 20
296.4537330133
 11
366.626692663
 21
296.3816597683
  0
LINE
  5
372
100
AcDbEntity
  8
ALL_DETAIL_ITEM
100
AcDbLine
 62
7
  6
CONTINUOUS
 10
347.472814128
 20
271.8823772118
 11
347.285110252
 21
272.0784519078
  0
LINE
  5
373
100
AcDbEntity
  8
ALL_DETAIL_ITEM
100
AcDbLine
 62
7
  6
CONTINUOUS
 10
347.285110252
 20
272.0784519078
 11
347.4573237495
 21
272.3146188658
  0
LINE
  5
374
100
AcDbEntity
  8
ALL_DETAIL_ITEM
100
AcDbLine
 62
7
  6
CONTINUOUS
 10
394.5506244875
 20
351.6842928818
 11
319.5506244875
 21
351.6842928818
  0
LINE
  5
375
100
AcDbEntity
  8
ALL_DETAIL_ITEM
100
AcDbLine
 62
7
  6
CONTINUOUS
 10
394.5506244875
 20
358.6842928818
 11
319.5506244875
 21
358.6842928818
  0
LINE
  5
376
100
AcDbEntity
  8
ALL_DETAIL_ITEM
100
AcDbLine
 62
7
  6
CONTINUOUS
 10
351.340425275
 20
334.8007995868
 11
351.486742397
 21
334.7239540118
  0
LINE
  5
377
100
AcDbEntity
  8
ALL_DETAIL_ITEM
100
AcDbLine
 62
7
  6
CONTINUOUS
 10
351.6393780575
 20
334.4724779738
 11
352.096815438
 21
334.2195654728
  0
LINE
  5
378
100
AcDbEntity
  8
ALL_DETAIL_ITEM
100
AcDbLine
 62
7
  6
CONTINUOUS
 10
352.096815438
 20
334.2195654728
 11
352.3137697175
 21
334.0981604278
  0
LINE
  5
379
100
AcDbEntity
  8
ALL_DETAIL_ITEM
100
AcDbLine
 62
7
  6
CONTINUOUS
 10
348.2383510345
 20
327.8163973863
 11
349.2304084155
 21
327.2372965878
  0
LINE
  5
37A
100
AcDbEntity
  8
ALL_DETAIL_ITEM
100
AcDbLine
 62
7
  6
CONTINUOUS
 10
349.2304084155
 20
327.2372965878
 11
350.4608911015
 21
326.5120746743
  0
LINE
  5
37B
100
AcDbEntity
  8
ALL_DETAIL_ITEM
100
AcDbLine
 62
7
  6
CONTINUOUS
 10
350.4608911015
 20
326.5120746743
 11
350.8260345505
 21
326.2942948288
  0
LINE
  5
37C
100
AcDbEntity
  8
ALL_DETAIL_ITEM
100
AcDbLine
 62
7
  6
CONTINUOUS
 10
366.64198498
 20
317.8155648588
 11
365.5227578755
 21
318.4957048008
  0
LINE
  5
37D
100
AcDbEntity
  8
ALL_DETAIL_ITEM
100
AcDbLine
 62
7
  6
CONTINUOUS
 10
365.5227578755
 20
318.4957048008
 11
364.2135589205
 21
319.3078143738
  0
LINE
  5
37E
100
AcDbEntity
  8
ALL_DETAIL_ITEM
100
AcDbLine
 62
7
  6
CONTINUOUS
 10
366.544306022
 20
324.7946840613
 11
365.1638294775
 21
325.6366764633
  0
LINE
  5
37F
100
AcDbEntity
  8
ALL_DETAIL_ITEM
100
AcDbLine
 62
7
  6
CONTINUOUS
 10
365.1638294775
 20
325.6366764633
 11
363.7348469925
 21
326.5333427993
  0
LINE
  5
380
100
AcDbEntity
  8
ALL_DETAIL_ITEM
100
AcDbLine
 62
7
  6
CONTINUOUS
 10
364.2135589205
 20
319.3078143738
 11
364.0401797285
 21
319.4174866143
  0
LINE
  5
381
100
AcDbEntity
  8
ALL_DETAIL_ITEM
100
AcDbLine
 62
7
  6
CONTINUOUS
 10
364.550829972
 20
331.7324168378
 11
363.291752254
 21
332.5435860283
  0
LINE
  5
382
100
AcDbEntity
  8
ALL_DETAIL_ITEM
100
AcDbLine
 62
7
  6
CONTINUOUS
 10
363.7348469925
 20
326.5333427993
 11
363.158193531
 21
326.9081240538
  0
LINE
  5
383
100
AcDbEntity
  8
ALL_DETAIL_ITEM
100
AcDbLine
 62
7
  6
CONTINUOUS
 10
366.643181613
 20
303.8150344363
 11
366.795422898
 21
303.6805089698
  0
LINE
  5
384
100
AcDbEntity
  8
ALL_DETAIL_ITEM
100
AcDbLine
 62
7
  6
CONTINUOUS
 10
366.795422898
 20
303.6805089698
 11
366.630386857
 21
303.3831080458
  0
LINE
  5
385
100
AcDbEntity
  8
ALL_DETAIL_ITEM
100
AcDbLine
 62
7
  6
CONTINUOUS
 10
292.662793214
 20
439.0330752508
 11
292.7718362445
 21
439.7785733313
  0
LINE
  5
386
100
AcDbEntity
  8
ALL_DETAIL_ITEM
100
AcDbLine
 62
7
  6
CONTINUOUS
 10
292.7718362445
 20
439.7785733313
 11
292.99185705
 21
440.4997127003
  0
LINE
  5
387
100
AcDbEntity
  8
ALL_DETAIL_ITEM
100
AcDbLine
 62
7
  6
CONTINUOUS
 10
292.99185705
 20
440.4997127003
 11
293.3134775645
 21
441.1720250228
  0
LINE
  5
388
100
AcDbEntity
  8
ALL_DETAIL_ITEM
100
AcDbLine
 62
7
  6
CONTINUOUS
 10
293.3134775645
 20
441.1720250228
 11
293.7324474365
 21
441.7903064193
  0
LINE
  5
389
100
AcDbEntity
  8
ALL_DETAIL_ITEM
100
AcDbLine
 62
7
  6
CONTINUOUS
 10
293.7324474365
 20
441.7903064193
 11
294.2436910715
 21
442.3438062693
  0
LINE
  5
38A
100
AcDbEntity
  8
ALL_DETAIL_ITEM
100
AcDbLine
 62
7
  6
CONTINUOUS
 10
294.2436910715
 20
442.3438062693
 11
294.8321036315
 21
442.8140685388
  0
LINE
  5
38B
100
AcDbEntity
  8
ALL_DETAIL_ITEM
100
AcDbLine
 62
7
  6
CONTINUOUS
 10
294.8321036315
 20
442.8140685388
 11
295.478391684
 21
443.1876801528
  0
LINE
  5
38C
100
AcDbEntity
  8
ALL_DETAIL_ITEM
100
AcDbLine
 62
7
  6
CONTINUOUS
 10
295.478391684
 20
443.1876801528
 11
296.172667926
 21
443.4607839018
  0
LINE
  5
38D
100
AcDbEntity
  8
ALL_DETAIL_ITEM
100
AcDbLine
 62
7
  6
CONTINUOUS
 10
371.3006244875
 20
373.6842928818
 11
342.8006244875
 21
373.6842928818
  0
LINE
  5
38E
100
AcDbEntity
  8
ALL_DETAIL_ITEM
100
AcDbLine
 62
7
  6
CONTINUOUS
 10
342.8006244875
 20
377.5185237368
 11
371.3006244875
 21
377.5185237368
  0
LINE
  5
38F
100
AcDbEntity
  8
ALL_DETAIL_ITEM
100
AcDbLine
 62
7
  6
CONTINUOUS
 10
345.3006244875
 20
378.6842928818
 11
368.8006244875
 21
378.6842928818
  0
LINE
  5
390
100
AcDbEntity
  8
ALL_DETAIL_ITEM
100
AcDbLine
 62
7
  6
CONTINUOUS
 10
342.8006244875
 20
379.8500620273
 11
371.3006244875
 21
379.8500620273
  0
LINE
  5
391
100
AcDbEntity
  8
ALL_DETAIL_ITEM
100
AcDbLine
 62
7
  6
CONTINUOUS
 10
342.8006244875
 20
380.5185237368
 11
371.3006244875
 21
380.5185237368
  0
LINE
  5
392
100
AcDbEntity
  8
ALL_DETAIL_ITEM
100
AcDbLine
 62
7
  6
CONTINUOUS
 10
345.3006244875
 20
381.6842928818
 11
368.8006244875
 21
381.6842928818
  0
LINE
  5
393
100
AcDbEntity
  8
ALL_DETAIL_ITEM
100
AcDbLine
 62
7
  6
CONTINUOUS
 10
342.8006244875
 20
382.8500620273
 11
371.3006244875
 21
382.8500620273
  0
LINE
  5
394
100
AcDbEntity
  8
ALL_DETAIL_ITEM
100
AcDbLine
 62
7
  6
CONTINUOUS
 10
342.8006244875
 20
383.5185237368
 11
371.3006244875
 21
383.5185237368
  0
LINE
  5
395
100
AcDbEntity
  8
ALL_DETAIL_ITEM
100
AcDbLine
 62
7
  6
CONTINUOUS
 10
345.3006244875
 20
384.6842928818
 11
368.8006244875
 21
384.6842928818
  0
LINE
  5
396
100
AcDbEntity
  8
ALL_DETAIL_ITEM
100
AcDbLine
 62
7
  6
CONTINUOUS
 10
342.8006244875
 20
385.8500620273
 11
371.3006244875
 21
385.8500620273
  0
LINE
  5
397
100
AcDbEntity
  8
ALL_DETAIL_ITEM
100
AcDbLine
 62
7
  6
CONTINUOUS
 10
363.291752254
 20
332.5435860283
 11
361.896836863
 21
333.5245287263
  0
LINE
  5
398
100
AcDbEntity
  8
ALL_DETAIL_ITEM
100
AcDbLine
 62
7
  6
CONTINUOUS
 10
366.544306022
 20
324.7946840613
 11
366.665273495
 21
324.7016329718
  0
LINE
  5
399
100
AcDbEntity
  8
ALL_DETAIL_ITEM
100
AcDbLine
 62
7
  6
CONTINUOUS
 10
366.665273495
 20
324.7016329718
 11
366.535231511
 21
324.3683809808
  0
LINE
  5
39A
100
AcDbEntity
  8
ALL_DETAIL_ITEM
100
AcDbLine
 62
7
  6
CONTINUOUS
 10
351.3685581195
 20
334.7699029988
 11
351.6393780575
 21
334.4724779738
  0
LINE
  5
39B
100
AcDbEntity
  8
ALL_DETAIL_ITEM
100
AcDbLine
 62
7
  6
CONTINUOUS
 10
366.64457444
 20
310.8131559068
 11
366.8193835115
 21
310.5930772758
  0
LINE
  5
39C
100
AcDbEntity
  8
ALL_DETAIL_ITEM
100
AcDbLine
 62
7
  6
CONTINUOUS
 10
366.8193835115
 20
310.5930772758
 11
366.6299059105
 21
310.3836360408
  0
LINE
  5
39D
100
AcDbEntity
  8
ALL_DETAIL_ITEM
100
AcDbLine
 62
7
  6
CONTINUOUS
 10
296.2380634475
 20
443.6842928818
 11
296.2380634475
 21
643.6842928818
  0
LINE
  5
39E
100
AcDbEntity
  8
ALL_DETAIL_ITEM
100
AcDbLine
 62
7
  6
CONTINUOUS
 10
292.662793214
 20
439.0330752508
 11
276.54119272
 21
208.5014754068
  0
LINE
  5
39F
100
AcDbEntity
  8
ALL_DETAIL_ITEM
100
AcDbLine
 62
7
  6
CONTINUOUS
 10
280.430229881
 20
206.7705982553
 11
296.653361138
 21
438.7540493558
  0
LINE
  5
3A0
100
AcDbEntity
  8
ALL_DETAIL_ITEM
100
AcDbLine
 62
7
  6
CONTINUOUS
 10
281.9465807945
 20
206.0957224338
 11
298.215635868
 21
438.7540493558
  0
LINE
  5
3A1
100
AcDbEntity
  8
ALL_DETAIL_ITEM
100
AcDbLine
 62
7
  6
CONTINUOUS
 10
342.8006244875
 20
386.5185237368
 11
371.3006244875
 21
386.5185237368
  0
LINE
  5
3A2
100
AcDbEntity
  8
ALL_DETAIL_ITEM
100
AcDbLine
 62
7
  6
CONTINUOUS
 10
355.0506244875
 20
386.6842928818
 11
359.0506244875
 21
386.6842928818
  0
LINE
  5
3A3
100
AcDbEntity
  8
ALL_DETAIL_ITEM
100
AcDbLine
 62
7
  6
CONTINUOUS
 10
345.3006244875
 20
387.6842928818
 11
355.0331694225
 21
387.6842928818
  0
LINE
  5
3A4
100
AcDbEntity
  8
ALL_DETAIL_ITEM
100
AcDbLine
 62
7
  6
CONTINUOUS
 10
359.0680795525
 20
387.6842928818
 11
368.8006244875
 21
387.6842928818
  0
LINE
  5
3A5
100
AcDbEntity
  8
ALL_DETAIL_ITEM
100
AcDbLine
 62
7
  6
CONTINUOUS
 10
371.3006244875
 20
388.8500620273
 11
359.0884281285
 21
388.8500620273
  0
LINE
  5
3A6
100
AcDbEntity
  8
ALL_DETAIL_ITEM
100
AcDbLine
 62
7
  6
CONTINUOUS
 10
355.0128208465
 20
388.8500620273
 11
342.8006244875
 21
388.8500620273
  0
LINE
  5
3A7
100
AcDbEntity
  8
ALL_DETAIL_ITEM
100
AcDbLine
 62
7
  6
CONTINUOUS
 10
371.3006244875
 20
389.5185237368
 11
359.100096171
 21
389.5185237368
  0
LINE
  5
3A8
100
AcDbEntity
  8
ALL_DETAIL_ITEM
100
AcDbLine
 62
7
  6
CONTINUOUS
 10
355.001152804
 20
389.5185237368
 11
342.8006244875
 21
389.5185237368
  0
LINE
  5
3A9
100
AcDbEntity
  8
ALL_DETAIL_ITEM
100
AcDbLine
 62
7
  6
CONTINUOUS
 10
368.8006244875
 20
390.6842928818
 11
359.1204447475
 21
390.6842928818
  0
LINE
  5
3AA
100
AcDbEntity
  8
ALL_DETAIL_ITEM
100
AcDbLine
 62
7
  6
CONTINUOUS
 10
354.980804228
 20
390.6842928818
 11
345.3006244875
 21
390.6842928818
  0
LINE
  5
3AB
100
AcDbEntity
  8
ALL_DETAIL_ITEM
100
AcDbLine
 62
7
  6
CONTINUOUS
 10
342.8006244875
 20
391.8500620273
 11
354.960455652
 21
391.8500620273
  0
LINE
  5
3AC
100
AcDbEntity
  8
ALL_DETAIL_ITEM
100
AcDbLine
 62
7
  6
CONTINUOUS
 10
359.1407933235
 20
391.8500620273
 11
371.3006244875
 21
391.8500620273
  0
LINE
  5
3AD
100
AcDbEntity
  8
ALL_DETAIL_ITEM
100
AcDbLine
 62
7
  6
CONTINUOUS
 10
371.3006244875
 20
392.5185237368
 11
359.152461366
 21
392.5185237368
  0
LINE
  5
3AE
100
AcDbEntity
  8
ALL_DETAIL_ITEM
100
AcDbLine
 62
7
  6
CONTINUOUS
 10
354.948787609
 20
392.5185237368
 11
342.8006244875
 21
392.5185237368
  0
LINE
  5
3AF
100
AcDbEntity
  8
ALL_DETAIL_ITEM
100
AcDbLine
 62
7
  6
CONTINUOUS
 10
368.8006244875
 20
393.6842928818
 11
359.172809942
 21
393.6842928818
  0
LINE
  5
3B0
100
AcDbEntity
  8
ALL_DETAIL_ITEM
100
AcDbLine
 62
7
  6
CONTINUOUS
 10
354.928439033
 20
393.6842928818
 11
345.3006244875
 21
393.6842928818
  0
LINE
  5
3B1
100
AcDbEntity
  8
ALL_DETAIL_ITEM
100
AcDbLine
 62
7
  6
CONTINUOUS
 10
342.8006244875
 20
394.8500620273
 11
354.908090457
 21
394.8500620273
  0
LINE
  5
3B2
100
AcDbEntity
  8
ALL_DETAIL_ITEM
100
AcDbLine
 62
7
  6
CONTINUOUS
 10
359.193158518
 20
394.8500620273
 11
371.3006244875
 21
394.8500620273
  0
LINE
  5
3B3
100
AcDbEntity
  8
ALL_DETAIL_ITEM
100
AcDbLine
 62
7
  6
CONTINUOUS
 10
371.3006244875
 20
395.5185237368
 11
359.204826561
 21
395.5185237368
  0
LINE
  5
3B4
100
AcDbEntity
  8
ALL_DETAIL_ITEM
100
AcDbLine
 62
7
  6
CONTINUOUS
 10
354.8964224145
 20
395.5185237368
 11
342.8006244875
 21
395.5185237368
  0
LINE
  5
3B5
100
AcDbEntity
  8
ALL_DETAIL_ITEM
100
AcDbLine
 62
7
  6
CONTINUOUS
 10
368.8006244875
 20
396.6842928818
 11
359.225175137
 21
396.6842928818
  0
LINE
  5
3B6
100
AcDbEntity
  8
ALL_DETAIL_ITEM
100
AcDbLine
 62
7
  6
CONTINUOUS
 10
354.8760738385
 20
396.6842928818
 11
345.3006244875
 21
396.6842928818
  0
LINE
  5
3B7
100
AcDbEntity
  8
ALL_DETAIL_ITEM
100
AcDbLine
 62
7
  6
CONTINUOUS
 10
342.8006244875
 20
397.8500620273
 11
354.855725262
 21
397.8500620273
  0
LINE
  5
3B8
100
AcDbEntity
  8
ALL_DETAIL_ITEM
100
AcDbLine
 62
7
  6
CONTINUOUS
 10
359.245523713
 20
397.8500620273
 11
371.3006244875
 21
397.8500620273
  0
LINE
  5
3B9
100
AcDbEntity
  8
ALL_DETAIL_ITEM
100
AcDbLine
 62
7
  6
CONTINUOUS
 10
371.3006244875
 20
398.5185237368
 11
359.2571917555
 21
398.5185237368
  0
LINE
  5
3BA
100
AcDbEntity
  8
ALL_DETAIL_ITEM
100
AcDbLine
 62
7
  6
CONTINUOUS
 10
354.8440572195
 20
398.5185237368
 11
342.8006244875
 21
398.5185237368
  0
LINE
  5
3BB
100
AcDbEntity
  8
ALL_DETAIL_ITEM
100
AcDbLine
 62
7
  6
CONTINUOUS
 10
368.8006244875
 20
399.6842928818
 11
359.2775403315
 21
399.6842928818
  0
LINE
  5
3BC
100
AcDbEntity
  8
ALL_DETAIL_ITEM
100
AcDbLine
 62
7
  6
CONTINUOUS
 10
354.8237086435
 20
399.6842928818
 11
345.3006244875
 21
399.6842928818
  0
LINE
  5
3BD
100
AcDbEntity
  8
ALL_DETAIL_ITEM
100
AcDbLine
 62
7
  6
CONTINUOUS
 10
342.8006244875
 20
400.8500620273
 11
354.8033600675
 21
400.8500620273
  0
LINE
  5
3BE
100
AcDbEntity
  8
ALL_DETAIL_ITEM
100
AcDbLine
 62
7
  6
CONTINUOUS
 10
359.297888908
 20
400.8500620273
 11
371.3006244875
 21
400.8500620273
  0
LINE
  5
3BF
100
AcDbEntity
  8
ALL_DETAIL_ITEM
100
AcDbLine
 62
7
  6
CONTINUOUS
 10
371.3006244875
 20
401.5185237368
 11
359.3095569505
 21
401.5185237368
  0
LINE
  5
3C0
100
AcDbEntity
  8
ALL_DETAIL_ITEM
100
AcDbLine
 62
7
  6
CONTINUOUS
 10
354.791692025
 20
401.5185237368
 11
342.8006244875
 21
401.5185237368
  0
LINE
  5
3C1
100
AcDbEntity
  8
ALL_DETAIL_ITEM
100
AcDbLine
 62
7
  6
CONTINUOUS
 10
368.8006244875
 20
402.6842928818
 11
359.3299055265
 21
402.6842928818
  0
LINE
  5
3C2
100
AcDbEntity
  8
ALL_DETAIL_ITEM
100
AcDbLine
 62
7
  6
CONTINUOUS
 10
354.771343449
 20
402.6842928818
 11
345.3006244875
 21
402.6842928818
  0
LINE
  5
3C3
100
AcDbEntity
  8
ALL_DETAIL_ITEM
100
AcDbLine
 62
7
  6
CONTINUOUS
 10
342.8006244875
 20
403.8500620273
 11
354.7509948725
 21
403.8500620273
  0
LINE
  5
3C4
100
AcDbEntity
  8
ALL_DETAIL_ITEM
100
AcDbLine
 62
7
  6
CONTINUOUS
 10
359.3502541025
 20
403.8500620273
 11
371.3006244875
 21
403.8500620273
  0
LINE
  5
3C5
100
AcDbEntity
  8
ALL_DETAIL_ITEM
100
AcDbLine
 62
7
  6
CONTINUOUS
 10
345.3006244875
 20
378.6842928818
 11
342.8006244875
 21
379.8500620273
  0
LINE
  5
3C6
100
AcDbEntity
  8
ALL_DETAIL_ITEM
100
AcDbLine
 62
7
  6
CONTINUOUS
 10
345.3006244875
 20
381.6842928818
 11
342.8006244875
 21
382.8500620273
  0
LINE
  5
3C7
100
AcDbEntity
  8
ALL_DETAIL_ITEM
100
AcDbLine
 62
7
  6
CONTINUOUS
 10
345.3006244875
 20
384.6842928818
 11
342.8006244875
 21
385.8500620273
  0
LINE
  5
3C8
100
AcDbEntity
  8
ALL_DETAIL_ITEM
100
AcDbLine
 62
7
  6
CONTINUOUS
 10
345.3006244875
 20
387.6842928818
 11
342.8006244875
 21
388.8500620273
  0
LINE
  5
3C9
100
AcDbEntity
  8
ALL_DETAIL_ITEM
100
AcDbLine
 62
7
  6
CONTINUOUS
 10
371.3006244875
 20
377.5185237368
 11
368.8006244875
 21
378.6842928818
  0
LINE
  5
3CA
100
AcDbEntity
  8
ALL_DETAIL_ITEM
100
AcDbLine
 62
7
  6
CONTINUOUS
 10
345.3006244875
 20
390.6842928818
 11
342.8006244875
 21
391.8500620273
  0
LINE
  5
3CB
100
AcDbEntity
  8
ALL_DETAIL_ITEM
100
AcDbLine
 62
7
  6
CONTINUOUS
 10
371.3006244875
 20
380.5185237368
 11
368.8006244875
 21
381.6842928818
  0
LINE
  5
3CC
100
AcDbEntity
  8
ALL_DETAIL_ITEM
100
AcDbLine
 62
7
  6
CONTINUOUS
 10
364.550829972
 20
331.7324168378
 11
364.745104387
 21
331.4757021213
  0
LINE
  5
3CD
100
AcDbEntity
  8
ALL_DETAIL_ITEM
100
AcDbLine
 62
7
  6
CONTINUOUS
 10
364.745104387
 20
331.4757021213
 11
364.5135165955
 21
331.2191632618
  0
LINE
  5
3CE
100
AcDbEntity
  8
ALL_DETAIL_ITEM
100
AcDbLine
 62
7
  6
CONTINUOUS
 10
366.644875226
 20
289.8137810743
 11
366.8033230905
 21
289.5411647073
  0
LINE
  5
3CF
100
AcDbEntity
  8
ALL_DETAIL_ITEM
100
AcDbLine
 62
7
  6
CONTINUOUS
 10
366.8033230905
 20
289.5411647073
 11
366.628057685
 21
289.3829332073
  0
LINE
  5
3D0
100
AcDbEntity
  8
ALL_DETAIL_ITEM
100
AcDbLine
 62
7
  6
CONTINUOUS
 10
319.5506244875
 20
358.6842928818
 11
319.5506244875
 21
351.6842928818
  0
LINE
  5
3D1
100
AcDbEntity
  8
ALL_DETAIL_ITEM
100
AcDbLine
 62
7
  6
CONTINUOUS
 10
371.3006244875
 20
404.5185237368
 11
359.361922145
 21
404.5185237368
  0
LINE
  5
3D2
100
AcDbEntity
  8
ALL_DETAIL_ITEM
100
AcDbLine
 62
7
  6
CONTINUOUS
 10
354.73932683
 20
404.5185237368
 11
342.8006244875
 21
404.5185237368
  0
LINE
  5
3D3
100
AcDbEntity
  8
ALL_DETAIL_ITEM
100
AcDbLine
 62
7
  6
CONTINUOUS
 10
368.8006244875
 20
405.6842928818
 11
359.382270721
 21
405.6842928818
  0
LINE
  5
3D4
100
AcDbEntity
  8
ALL_DETAIL_ITEM
100
AcDbLine
 62
7
  6
CONTINUOUS
 10
354.718978254
 20
405.6842928818
 11
345.3006244875
 21
405.6842928818
  0
LINE
  5
3D5
100
AcDbEntity
  8
ALL_DETAIL_ITEM
100
AcDbLine
 62
7
  6
CONTINUOUS
 10
342.8006244875
 20
406.8500620273
 11
354.698629678
 21
406.8500620273
  0
LINE
  5
3D6
100
AcDbEntity
  8
ALL_DETAIL_ITEM
100
AcDbLine
 62
7
  6
CONTINUOUS
 10
359.4026192975
 20
406.8500620273
 11
371.3006244875
 21
406.8500620273
  0
LINE
  5
3D7
100
AcDbEntity
  8
ALL_DETAIL_ITEM
100
AcDbLine
 62
7
  6
CONTINUOUS
 10
371.3006244875
 20
407.5185237368
 11
359.41428734
 21
407.5185237368
  0
LINE
  5
3D8
100
AcDbEntity
  8
ALL_DETAIL_ITEM
100
AcDbLine
 62
7
  6
CONTINUOUS
 10
354.6869616355
 20
407.5185237368
 11
342.8006244875
 21
407.5185237368
  0
LINE
  5
3D9
100
AcDbEntity
  8
ALL_DETAIL_ITEM
100
AcDbLine
 62
7
  6
CONTINUOUS
 10
368.8006244875
 20
408.6842928818
 11
359.434635916
 21
408.6842928818
  0
LINE
  5
3DA
100
AcDbEntity
  8
ALL_DETAIL_ITEM
100
AcDbLine
 62
7
  6
CONTINUOUS
 10
354.666613059
 20
408.6842928818
 11
345.3006244875
 21
408.6842928818
  0
LINE
  5
3DB
100
AcDbEntity
  8
ALL_DETAIL_ITEM
100
AcDbLine
 62
7
  6
CONTINUOUS
 10
342.8006244875
 20
409.8500620273
 11
354.646264483
 21
409.8500620273
  0
LINE
  5
3DC
100
AcDbEntity
  8
ALL_DETAIL_ITEM
100
AcDbLine
 62
7
  6
CONTINUOUS
 10
359.454984492
 20
409.8500620273
 11
371.3006244875
 21
409.8500620273
  0
LINE
  5
3DD
100
AcDbEntity
  8
ALL_DETAIL_ITEM
100
AcDbLine
 62
7
  6
CONTINUOUS
 10
371.3006244875
 20
410.5185237368
 11
359.4666525345
 21
410.5185237368
  0
LINE
  5
3DE
100
AcDbEntity
  8
ALL_DETAIL_ITEM
100
AcDbLine
 62
7
  6
CONTINUOUS
 10
354.6345964405
 20
410.5185237368
 11
342.8006244875
 21
410.5185237368
  0
LINE
  5
3DF
100
AcDbEntity
  8
ALL_DETAIL_ITEM
100
AcDbLine
 62
7
  6
CONTINUOUS
 10
368.8006244875
 20
411.6842928818
 11
359.487001111
 21
411.6842928818
  0
LINE
  5
3E0
100
AcDbEntity
  8
ALL_DETAIL_ITEM
100
AcDbLine
 62
7
  6
CONTINUOUS
 10
354.6142478645
 20
411.6842928818
 11
345.3006244875
 21
411.6842928818
  0
LINE
  5
3E1
100
AcDbEntity
  8
ALL_DETAIL_ITEM
100
AcDbLine
 62
7
  6
CONTINUOUS
 10
342.8006244875
 20
412.8500620273
 11
354.5938992885
 21
412.8500620273
  0
LINE
  5
3E2
100
AcDbEntity
  8
ALL_DETAIL_ITEM
100
AcDbLine
 62
7
  6
CONTINUOUS
 10
359.507349687
 20
412.8500620273
 11
371.3006244875
 21
412.8500620273
  0
LINE
  5
3E3
100
AcDbEntity
  8
ALL_DETAIL_ITEM
100
AcDbLine
 62
7
  6
CONTINUOUS
 10
371.3006244875
 20
413.5185237368
 11
359.5190177295
 21
413.5185237368
  0
LINE
  5
3E4
100
AcDbEntity
  8
ALL_DETAIL_ITEM
100
AcDbLine
 62
7
  6
CONTINUOUS
 10
354.5822312455
 20
413.5185237368
 11
342.8006244875
 21
413.5185237368
  0
LINE
  5
3E5
100
AcDbEntity
  8
ALL_DETAIL_ITEM
100
AcDbLine
 62
7
  6
CONTINUOUS
 10
368.8006244875
 20
414.6842928818
 11
359.5393663055
 21
414.6842928818
  0
LINE
  5
3E6
100
AcDbEntity
  8
ALL_DETAIL_ITEM
100
AcDbLine
 62
7
  6
CONTINUOUS
 10
354.5618826695
 20
414.6842928818
 11
345.3006244875
 21
414.6842928818
  0
LINE
  5
3E7
100
AcDbEntity
  8
ALL_DETAIL_ITEM
100
AcDbLine
 62
7
  6
CONTINUOUS
 10
342.8006244875
 20
415.8500620273
 11
354.5415340935
 21
415.8500620273
  0
LINE
  5
3E8
100
AcDbEntity
  8
ALL_DETAIL_ITEM
100
AcDbLine
 62
7
  6
CONTINUOUS
 10
359.5597148815
 20
415.8500620273
 11
371.3006244875
 21
415.8500620273
  0
LINE
  5
3E9
100
AcDbEntity
  8
ALL_DETAIL_ITEM
100
AcDbLine
 62
7
  6
CONTINUOUS
 10
371.3006244875
 20
416.5185237368
 11
359.5713829245
 21
416.5185237368
  0
LINE
  5
3EA
100
AcDbEntity
  8
ALL_DETAIL_ITEM
100
AcDbLine
 62
7
  6
CONTINUOUS
 10
354.529866051
 20
416.5185237368
 11
342.8006244875
 21
416.5185237368
  0
LINE
  5
3EB
100
AcDbEntity
  8
ALL_DETAIL_ITEM
100
AcDbLine
 62
7
  6
CONTINUOUS
 10
368.8006244875
 20
417.6842928818
 11
359.5917315005
 21
417.6842928818
  0
LINE
  5
3EC
100
AcDbEntity
  8
ALL_DETAIL_ITEM
100
AcDbLine
 62
7
  6
CONTINUOUS
 10
354.509517475
 20
417.6842928818
 11
345.3006244875
 21
417.6842928818
  0
LINE
  5
3ED
100
AcDbEntity
  8
ALL_DETAIL_ITEM
100
AcDbLine
 62
7
  6
CONTINUOUS
 10
342.8006244875
 20
418.8500620273
 11
354.4891688985
 21
418.8500620273
  0
LINE
  5
3EE
100
AcDbEntity
  8
ALL_DETAIL_ITEM
100
AcDbLine
 62
7
  6
CONTINUOUS
 10
359.6120800765
 20
418.8500620273
 11
371.3006244875
 21
418.8500620273
  0
LINE
  5
3EF
100
AcDbEntity
  8
ALL_DETAIL_ITEM
100
AcDbLine
 62
7
  6
CONTINUOUS
 10
371.3006244875
 20
419.5185237368
 11
359.623748119
 21
419.5185237368
  0
LINE
  5
3F0
100
AcDbEntity
  8
ALL_DETAIL_ITEM
100
AcDbLine
 62
7
  6
CONTINUOUS
 10
354.477500856
 20
419.5185237368
 11
342.8006244875
 21
419.5185237368
  0
LINE
  5
3F1
100
AcDbEntity
  8
ALL_DETAIL_ITEM
100
AcDbLine
 62
7
  6
CONTINUOUS
 10
368.8006244875
 20
420.6842928818
 11
359.644096695
 21
420.6842928818
  0
LINE
  5
3F2
100
AcDbEntity
  8
ALL_DETAIL_ITEM
100
AcDbLine
 62
7
  6
CONTINUOUS
 10
354.45715228
 20
420.6842928818
 11
345.3006244875
 21
420.6842928818
  0
LINE
  5
3F3
100
AcDbEntity
  8
ALL_DETAIL_ITEM
100
AcDbLine
 62
7
  6
CONTINUOUS
 10
342.8529664045
 20
421.8256545908
 11
354.4372297375
 21
421.8256545908
  0
LINE
  5
3F4
100
AcDbEntity
  8
ALL_DETAIL_ITEM
100
AcDbLine
 62
7
  6
CONTINUOUS
 10
359.664019238
 20
421.8256545908
 11
371.248282571
 21
421.8256545908
  0
LINE
  5
3F5
100
AcDbEntity
  8
ALL_DETAIL_ITEM
100
AcDbLine
 62
7
  6
CONTINUOUS
 10
345.3006244875
 20
393.6842928818
 11
342.8006244875
 21
394.8500620273
  0
LINE
  5
3F6
100
AcDbEntity
  8
ALL_DETAIL_ITEM
100
AcDbLine
 62
7
  6
CONTINUOUS
 10
371.3006244875
 20
383.5185237368
 11
368.8006244875
 21
384.6842928818
  0
LINE
  5
3F7
100
AcDbEntity
  8
ALL_DETAIL_ITEM
100
AcDbLine
 62
7
  6
CONTINUOUS
 10
345.3006244875
 20
396.6842928818
 11
342.8006244875
 21
397.8500620273
  0
LINE
  5
3F8
100
AcDbEntity
  8
ALL_DETAIL_ITEM
100
AcDbLine
 62
7
  6
CONTINUOUS
 10
371.3006244875
 20
386.5185237368
 11
368.8006244875
 21
387.6842928818
  0
LINE
  5
3F9
100
AcDbEntity
  8
ALL_DETAIL_ITEM
100
AcDbLine
 62
7
  6
CONTINUOUS
 10
345.3006244875
 20
399.6842928818
 11
342.8006244875
 21
400.8500620273
  0
LINE
  5
3FA
100
AcDbEntity
  8
ALL_DETAIL_ITEM
100
AcDbLine
 62
7
  6
CONTINUOUS
 10
371.3006244875
 20
389.5185237368
 11
368.8006244875
 21
390.6842928818
  0
LINE
  5
3FB
100
AcDbEntity
  8
ALL_DETAIL_ITEM
100
AcDbLine
 62
7
  6
CONTINUOUS
 10
345.3006244875
 20
402.6842928818
 11
342.8006244875
 21
403.8500620273
  0
LINE
  5
3FC
100
AcDbEntity
  8
ALL_DETAIL_ITEM
100
AcDbLine
 62
7
  6
CONTINUOUS
 10
371.3006244875
 20
392.5185237368
 11
368.8006244875
 21
393.6842928818
  0
LINE
  5
3FD
100
AcDbEntity
  8
ALL_DETAIL_ITEM
100
AcDbLine
 62
7
  6
CONTINUOUS
 10
345.3006244875
 20
405.6842928818
 11
342.8006244875
 21
406.8500620273
  0
LINE
  5
3FE
100
AcDbEntity
  8
ALL_DETAIL_ITEM
100
AcDbLine
 62
7
  6
CONTINUOUS
 10
371.3006244875
 20
395.5185237368
 11
368.8006244875
 21
396.6842928818
  0
LINE
  5
3FF
100
AcDbEntity
  8
ALL_DETAIL_ITEM
100
AcDbLine
 62
7
  6
CONTINUOUS
 10
345.3006244875
 20
408.6842928818
 11
342.8006244875
 21
409.8500620273
  0
LINE
  5
400
100
AcDbEntity
  8
ALL_DETAIL_ITEM
100
AcDbLine
 62
7
  6
CONTINUOUS
 10
371.3006244875
 20
398.5185237368
 11
368.8006244875
 21
399.6842928818
  0
LINE
  5
401
100
AcDbEntity
  8
ALL_DETAIL_ITEM
100
AcDbLine
 62
7
  6
CONTINUOUS
 10
345.3006244875
 20
411.6842928818
 11
342.8006244875
 21
412.8500620273
  0
LINE
  5
402
100
AcDbEntity
  8
ALL_DETAIL_ITEM
100
AcDbLine
 62
7
  6
CONTINUOUS
 10
366.64198498
 20
317.8155648588
 11
366.7821218485
 21
317.5056455818
  0
LINE
  5
403
100
AcDbEntity
  8
ALL_DETAIL_ITEM
100
AcDbLine
 62
7
  6
CONTINUOUS
 10
366.7821218485
 20
317.5056455818
 11
366.630984224
 21
317.3833952673
  0
LINE
  5
404
100
AcDbEntity
  8
ALL_DETAIL_ITEM
100
AcDbLine
 62
7
  6
CONTINUOUS
 10
358.9003983885
 20
244.8989556708
 11
358.9900446535
 21
243.9685728138
  0
LINE
  5
405
100
AcDbEntity
  8
ALL_DETAIL_ITEM
100
AcDbLine
 62
7
  6
CONTINUOUS
 10
337.0506244875
 20
258.6842928818
 11
337.0506244875
 21
250.5883088913
  0
LINE
  5
406
100
AcDbEntity
  8
ALL_DETAIL_ITEM
100
AcDbLine
 62
7
  6
CONTINUOUS
 10
342.0506244875
 20
439.6842928818
 11
342.0506244875
 21
443.6842928818
  0
LINE
  5
407
100
AcDbEntity
  8
ALL_DETAIL_ITEM
100
AcDbLine
 62
7
  6
CONTINUOUS
 10
342.8006244875
 20
373.6842928818
 11
342.8006244875
 21
377.5185237368
  0
LINE
  5
408
100
AcDbEntity
  8
ALL_DETAIL_ITEM
100
AcDbLine
 62
7
  6
CONTINUOUS
 10
342.8006244875
 20
379.8500620273
 11
342.8006244875
 21
380.5185237368
  0
LINE
  5
409
100
AcDbEntity
  8
ALL_DETAIL_ITEM
100
AcDbLine
 62
7
  6
CONTINUOUS
 10
342.8006244875
 20
382.8500620273
 11
342.8006244875
 21
383.5185237368
  0
LINE
  5
40A
100
AcDbEntity
  8
ALL_DETAIL_ITEM
100
AcDbLine
 62
7
  6
CONTINUOUS
 10
342.8006244875
 20
385.8500620273
 11
342.8006244875
 21
386.5185237368
  0
LINE
  5
40B
100
AcDbEntity
  8
ALL_DETAIL_ITEM
100
AcDbLine
 62
7
  6
CONTINUOUS
 10
342.8006244875
 20
388.8500620273
 11
342.8006244875
 21
389.5185237368
  0
LINE
  5
40C
100
AcDbEntity
  8
ALL_DETAIL_ITEM
100
AcDbLine
 62
7
  6
CONTINUOUS
 10
342.8006244875
 20
391.8500620273
 11
342.8006244875
 21
392.5185237368
  0
LINE
  5
40D
100
AcDbEntity
  8
ALL_DETAIL_ITEM
100
AcDbLine
 62
7
  6
CONTINUOUS
 10
342.8006244875
 20
394.8500620273
 11
342.8006244875
 21
395.5185237368
  0
LINE
  5
40E
100
AcDbEntity
  8
ALL_DETAIL_ITEM
100
AcDbLine
 62
7
  6
CONTINUOUS
 10
342.8006244875
 20
397.8500620273
 11
342.8006244875
 21
398.5185237368
  0
LINE
  5
40F
100
AcDbEntity
  8
ALL_DETAIL_ITEM
100
AcDbLine
 62
7
  6
CONTINUOUS
 10
342.8006244875
 20
400.8500620273
 11
342.8006244875
 21
401.5185237368
  0
LINE
  5
410
100
AcDbEntity
  8
ALL_DETAIL_ITEM
100
AcDbLine
 62
7
  6
CONTINUOUS
 10
342.8006244875
 20
403.8500620273
 11
342.8006244875
 21
404.5185237368
  0
LINE
  5
411
100
AcDbEntity
  8
ALL_DETAIL_ITEM
100
AcDbLine
 62
7
  6
CONTINUOUS
 10
342.8006244875
 20
406.8500620273
 11
342.8006244875
 21
407.5185237368
  0
LINE
  5
412
100
AcDbEntity
  8
ALL_DETAIL_ITEM
100
AcDbLine
 62
7
  6
CONTINUOUS
 10
342.8006244875
 20
409.8500620273
 11
342.8006244875
 21
410.5185237368
  0
LINE
  5
413
100
AcDbEntity
  8
ALL_DETAIL_ITEM
100
AcDbLine
 62
7
  6
CONTINUOUS
 10
342.8006244875
 20
412.8500620273
 11
342.8006244875
 21
413.5185237368
  0
LINE
  5
414
100
AcDbEntity
  8
ALL_DETAIL_ITEM
100
AcDbLine
 62
7
  6
CONTINUOUS
 10
342.8006244875
 20
415.8500620273
 11
342.8006244875
 21
416.5185237368
  0
LINE
  5
415
100
AcDbEntity
  8
ALL_DETAIL_ITEM
100
AcDbLine
 62
7
  6
CONTINUOUS
 10
342.8006244875
 20
418.8500620273
 11
342.8006244875
 21
419.5185237368
  0
LINE
  5
416
100
AcDbEntity
  8
ALL_DETAIL_ITEM
100
AcDbLine
 62
7
  6
CONTINUOUS
 10
343.8006244875
 20
358.6842928818
 11
343.8006244875
 21
351.6842928818
  0
LINE
  5
417
100
AcDbEntity
  8
ALL_DETAIL_ITEM
100
AcDbLine
 62
7
  6
CONTINUOUS
 10
345.5311237355
 20
429.1842928818
 11
342.8529664045
 21
421.8256545908
  0
LINE
  5
418
100
AcDbEntity
  8
ALL_DETAIL_ITEM
100
AcDbLine
 62
7
  6
CONTINUOUS
 10
342.8006244875
 20
419.5185237368
 11
345.3006244875
 21
420.6842928818
  0
LINE
  5
419
100
AcDbEntity
  8
ALL_DETAIL_ITEM
100
AcDbLine
 62
7
  6
CONTINUOUS
 10
342.8006244875
 20
416.5185237368
 11
345.3006244875
 21
417.6842928818
  0
LINE
  5
41A
100
AcDbEntity
  8
ALL_DETAIL_ITEM
100
AcDbLine
 62
7
  6
CONTINUOUS
 10
342.8006244875
 20
413.5185237368
 11
345.3006244875
 21
414.6842928818
  0
LINE
  5
41B
100
AcDbEntity
  8
ALL_DETAIL_ITEM
100
AcDbLine
 62
7
  6
CONTINUOUS
 10
342.8006244875
 20
410.5185237368
 11
345.3006244875
 21
411.6842928818
  0
LINE
  5
41C
100
AcDbEntity
  8
ALL_DETAIL_ITEM
100
AcDbLine
 62
7
  6
CONTINUOUS
 10
368.8006244875
 20
420.6842928818
 11
371.248282571
 21
421.8256545908
  0
LINE
  5
41D
100
AcDbEntity
  8
ALL_DETAIL_ITEM
100
AcDbLine
 62
7
  6
CONTINUOUS
 10
342.8006244875
 20
407.5185237368
 11
345.3006244875
 21
408.6842928818
  0
LINE
  5
41E
100
AcDbEntity
  8
ALL_DETAIL_ITEM
100
AcDbLine
 62
7
  6
CONTINUOUS
 10
345.530723307
 20
429.1842928818
 11
354.308784228
 21
429.1842928818
  0
LINE
  5
41F
100
AcDbEntity
  8
ALL_DETAIL_ITEM
100
AcDbLine
 62
7
  6
CONTINUOUS
 10
359.792464747
 20
429.1842928818
 11
368.5705256685
 21
429.1842928818
  0
LINE
  5
420
100
AcDbEntity
  8
ALL_DETAIL_ITEM
100
AcDbLine
 62
7
  6
CONTINUOUS
 10
297.6510031
 20
439.6842928818
 11
342.0506244875
 21
439.6842928818
  0
LINE
  5
421
100
AcDbEntity
  8
ALL_DETAIL_ITEM
100
AcDbLine
 62
7
  6
CONTINUOUS
 10
371.3006244875
 20
401.5185237368
 11
368.8006244875
 21
402.6842928818
  0
LINE
  5
422
100
AcDbEntity
  8
ALL_DETAIL_ITEM
100
AcDbLine
 62
7
  6
CONTINUOUS
 10
345.3006244875
 20
414.6842928818
 11
342.8006244875
 21
415.8500620273
  0
LINE
  5
423
100
AcDbEntity
  8
ALL_DETAIL_ITEM
100
AcDbLine
 62
7
  6
CONTINUOUS
 10
371.3006244875
 20
404.5185237368
 11
368.8006244875
 21
405.6842928818
  0
LINE
  5
424
100
AcDbEntity
  8
ALL_DETAIL_ITEM
100
AcDbLine
 62
7
  6
CONTINUOUS
 10
345.3006244875
 20
417.6842928818
 11
342.8006244875
 21
418.8500620273
  0
LINE
  5
425
100
AcDbEntity
  8
ALL_DETAIL_ITEM
100
AcDbLine
 62
7
  6
CONTINUOUS
 10
371.3006244875
 20
407.5185237368
 11
368.8006244875
 21
408.6842928818
  0
LINE
  5
426
100
AcDbEntity
  8
ALL_DETAIL_ITEM
100
AcDbLine
 62
7
  6
CONTINUOUS
 10
345.3006244875
 20
420.6842928818
 11
342.8529664045
 21
421.8256545908
  0
LINE
  5
427
100
AcDbEntity
  8
ALL_DETAIL_ITEM
100
AcDbLine
 62
7
  6
CONTINUOUS
 10
371.3006244875
 20
410.5185237368
 11
368.8006244875
 21
411.6842928818
  0
LINE
  5
428
100
AcDbEntity
  8
ALL_DETAIL_ITEM
100
AcDbLine
 62
7
  6
CONTINUOUS
 10
371.3006244875
 20
413.5185237368
 11
368.8006244875
 21
414.6842928818
  0
LINE
  5
429
100
AcDbEntity
  8
ALL_DETAIL_ITEM
100
AcDbLine
 62
7
  6
CONTINUOUS
 10
371.3006244875
 20
416.5185237368
 11
368.8006244875
 21
417.6842928818
  0
LINE
  5
42A
100
AcDbEntity
  8
ALL_DETAIL_ITEM
100
AcDbLine
 62
7
  6
CONTINUOUS
 10
371.3006244875
 20
419.5185237368
 11
368.8006244875
 21
420.6842928818
  0
LINE
  5
42B
100
AcDbEntity
  8
ALL_DETAIL_ITEM
100
AcDbLine
 62
7
  6
CONTINUOUS
 10
355.0506244875
 20
386.6842928818
 11
354.308784228
 21
429.1842928818
  0
LINE
  5
42C
100
AcDbEntity
  8
ALL_DETAIL_ITEM
100
AcDbLine
 62
7
  6
CONTINUOUS
 10
344.5506244875
 20
513.6842928818
 11
344.5506244875
 21
443.6842928818
  0
LINE
  5
42D
100
AcDbEntity
  8
ALL_DETAIL_ITEM
100
AcDbLine
 62
7
  6
CONTINUOUS
 10
347.0506244875
 20
267.3592928818
 11
347.0506244875
 21
259.6842928818
  0
LINE
  5
42E
100
AcDbEntity
  8
ALL_DETAIL_ITEM
100
AcDbLine
 62
7
  6
CONTINUOUS
 10
350.0506244875
 20
268.6842928818
 11
350.0506244875
 21
270.5178290483
  0
LINE
  5
42F
100
AcDbEntity
  8
ALL_DETAIL_ITEM
100
AcDbLine
 62
7
  6
CONTINUOUS
 10
350.0506244875
 20
273.9108545498
 11
350.0506244875
 21
277.5173274433
  0
LINE
  5
430
100
AcDbEntity
  8
ALL_DETAIL_ITEM
100
AcDbLine
 62
7
  6
CONTINUOUS
 10
350.0506244875
 20
280.9111645628
 11
350.0506244875
 21
284.5181597358
  0
LINE
  5
431
100
AcDbEntity
  8
ALL_DETAIL_ITEM
100
AcDbLine
 62
7
  6
CONTINUOUS
 10
350.0506244875
 20
287.9113052413
 11
350.0506244875
 21
291.5192722538
  0
LINE
  5
432
100
AcDbEntity
  8
ALL_DETAIL_ITEM
100
AcDbLine
 62
7
  6
CONTINUOUS
 10
350.0506244875
 20
294.9115698113
 11
350.0506244875
 21
298.5178243048
  0
LINE
  5
433
100
AcDbEntity
  8
ALL_DETAIL_ITEM
100
AcDbLine
 62
7
  6
CONTINUOUS
 10
350.0506244875
 20
301.9097950383
 11
350.0506244875
 21
305.5173348498
  0
LINE
  5
434
100
AcDbEntity
  8
ALL_DETAIL_ITEM
100
AcDbLine
 62
7
  6
CONTINUOUS
 10
350.0506244875
 20
308.9094713363
 11
350.0506244875
 21
312.5176188893
  0
LINE
  5
435
100
AcDbEntity
  8
ALL_DETAIL_ITEM
100
AcDbLine
 62
7
  6
CONTINUOUS
 10
350.0506244875
 20
315.9098649943
 11
350.0506244875
 21
318.6842928818
  0
LINE
  5
436
100
AcDbEntity
  8
ALL_DETAIL_ITEM
100
AcDbLine
 62
7
  6
CONTINUOUS
 10
350.0597627985
 20
319.5121152023
 11
350.0506244875
 21
318.6842928818
  0
LINE
  5
437
100
AcDbEntity
  8
ALL_DETAIL_ITEM
100
AcDbLine
 62
7
  6
CONTINUOUS
 10
359.0506244875
 20
386.6842928818
 11
359.792464747
 21
429.1842928818
  0
LINE
  5
438
100
AcDbEntity
  8
ALL_DETAIL_ITEM
100
AcDbLine
 62
7
  6
CONTINUOUS
 10
368.8006244875
 20
417.6842928818
 11
371.3006244875
 21
418.8500620273
  0
LINE
  5
439
100
AcDbEntity
  8
ALL_DETAIL_ITEM
100
AcDbLine
 62
7
  6
CONTINUOUS
 10
342.8006244875
 20
404.5185237368
 11
345.3006244875
 21
405.6842928818
  0
LINE
  5
43A
100
AcDbEntity
  8
ALL_DETAIL_ITEM
100
AcDbLine
 62
7
  6
CONTINUOUS
 10
368.8006244875
 20
414.6842928818
 11
371.3006244875
 21
415.8500620273
  0
LINE
  5
43B
100
AcDbEntity
  8
ALL_DETAIL_ITEM
100
AcDbLine
 62
7
  6
CONTINUOUS
 10
342.8006244875
 20
401.5185237368
 11
345.3006244875
 21
402.6842928818
  0
LINE
  5
43C
100
AcDbEntity
  8
ALL_DETAIL_ITEM
100
AcDbLine
 62
7
  6
CONTINUOUS
 10
368.8006244875
 20
411.6842928818
 11
371.3006244875
 21
412.8500620273
  0
LINE
  5
43D
100
AcDbEntity
  8
ALL_DETAIL_ITEM
100
AcDbLine
 62
7
  6
CONTINUOUS
 10
342.8006244875
 20
398.5185237368
 11
345.3006244875
 21
399.6842928818
  0
LINE
  5
43E
100
AcDbEntity
  8
ALL_DETAIL_ITEM
100
AcDbLine
 62
7
  6
CONTINUOUS
 10
368.8006244875
 20
408.6842928818
 11
371.3006244875
 21
409.8500620273
  0
LINE
  5
43F
100
AcDbEntity
  8
ALL_DETAIL_ITEM
100
AcDbLine
 62
7
  6
CONTINUOUS
 10
342.8006244875
 20
395.5185237368
 11
345.3006244875
 21
396.6842928818
  0
LINE
  5
440
100
AcDbEntity
  8
ALL_DETAIL_ITEM
100
AcDbLine
 62
7
  6
CONTINUOUS
 10
368.8006244875
 20
405.6842928818
 11
371.3006244875
 21
406.8500620273
  0
LINE
  5
441
100
AcDbEntity
  8
ALL_DETAIL_ITEM
100
AcDbLine
 62
7
  6
CONTINUOUS
 10
342.8006244875
 20
392.5185237368
 11
345.3006244875
 21
393.6842928818
  0
LINE
  5
442
100
AcDbEntity
  8
ALL_DETAIL_ITEM
100
AcDbLine
 62
7
  6
CONTINUOUS
 10
368.8006244875
 20
402.6842928818
 11
371.3006244875
 21
403.8500620273
  0
LINE
  5
443
100
AcDbEntity
  8
ALL_DETAIL_ITEM
100
AcDbLine
 62
7
  6
CONTINUOUS
 10
342.8006244875
 20
389.5185237368
 11
345.3006244875
 21
390.6842928818
  0
LINE
  5
444
100
AcDbEntity
  8
ALL_DETAIL_ITEM
100
AcDbLine
 62
7
  6
CONTINUOUS
 10
368.8006244875
 20
399.6842928818
 11
371.3006244875
 21
400.8500620273
  0
LINE
  5
445
100
AcDbEntity
  8
ALL_DETAIL_ITEM
100
AcDbLine
 62
7
  6
CONTINUOUS
 10
342.8006244875
 20
386.5185237368
 11
345.3006244875
 21
387.6842928818
  0
LINE
  5
446
100
AcDbEntity
  8
ALL_DETAIL_ITEM
100
AcDbLine
 62
7
  6
CONTINUOUS
 10
296.172667926
 20
443.4607839018
 11
296.905726053
 21
443.6284458803
  0
LINE
  5
447
100
AcDbEntity
  8
ALL_DETAIL_ITEM
100
AcDbLine
 62
7
  6
CONTINUOUS
 10
296.905726053
 20
443.6284458803
 11
297.6510031
 21
443.6842928818
  0
LINE
  5
448
100
AcDbEntity
  8
ALL_DETAIL_ITEM
100
AcDbLine
 62
7
  6
CONTINUOUS
 10
297.6510031
 20
439.6842928818
 11
297.4346398445
 21
439.6606095583
  0
LINE
  5
449
100
AcDbEntity
  8
ALL_DETAIL_ITEM
100
AcDbLine
 62
7
  6
CONTINUOUS
 10
297.4346398445
 20
439.6606095583
 11
297.2342522375
 21
439.5933285493
  0
LINE
  5
44A
100
AcDbEntity
  8
ALL_DETAIL_ITEM
100
AcDbLine
 62
7
  6
CONTINUOUS
 10
297.2342522375
 20
439.5933285493
 11
297.0513571285
 21
439.4845933683
  0
LINE
  5
44B
100
AcDbEntity
  8
ALL_DETAIL_ITEM
100
AcDbLine
 62
7
  6
CONTINUOUS
 10
297.0513571285
 20
439.4845933683
 11
296.89301546
 21
439.3366305798
  0
LINE
  5
44C
100
AcDbEntity
  8
ALL_DETAIL_ITEM
100
AcDbLine
 62
7
  6
CONTINUOUS
 10
296.89301546
 20
439.3366305798
 11
296.771464023
 21
439.1602464868
  0
LINE
  5
44D
100
AcDbEntity
  8
ALL_DETAIL_ITEM
100
AcDbLine
 62
7
  6
CONTINUOUS
 10
296.771464023
 20
439.1602464868
 11
296.691177747
 21
438.9651472563
  0
LINE
  5
44E
100
AcDbEntity
  8
ALL_DETAIL_ITEM
100
AcDbLine
 62
7
  6
CONTINUOUS
 10
296.691177747
 20
438.9651472563
 11
296.653361138
 21
438.7540493558
  0
LINE
  5
44F
100
AcDbEntity
  8
ALL_DETAIL_ITEM
100
AcDbLine
 62
7
  6
CONTINUOUS
 10
176.3781966755
 20
443.6842928818
 11
461.0411770315
 21
443.6842928818
  0
LINE
  5
450
100
AcDbEntity
  8
ALL_DETAIL_ITEM
100
AcDbLine
 62
7
  6
CONTINUOUS
 10
360.9131753055
 20
338.6842928818
 11
361.9162148335
 21
333.4228822223
  0
LINE
  5
451
100
AcDbEntity
  8
ALL_DETAIL_ITEM
100
AcDbLine
 62
7
  6
CONTINUOUS
 10
362.555069623
 20
330.0717905608
 11
363.1880251875
 21
326.7516430888
  0
LINE
  5
452
100
AcDbEntity
  8
ALL_DETAIL_ITEM
100
AcDbLine
 62
7
  6
CONTINUOUS
 10
364.0506244875
 20
270.2695718153
 11
364.0506244875
 21
273.8670729403
  0
LINE
  5
453
100
AcDbEntity
  8
ALL_DETAIL_ITEM
100
AcDbLine
 62
7
  6
CONTINUOUS
 10
364.0506244875
 20
277.2693270013
 11
364.0506244875
 21
280.8681477238
  0
LINE
  5
454
100
AcDbEntity
  8
ALL_DETAIL_ITEM
100
AcDbLine
 62
7
  6
CONTINUOUS
 10
364.0506244875
 20
284.2692854223
 11
364.0506244875
 21
287.8676595978
  0
LINE
  5
455
100
AcDbEntity
  8
ALL_DETAIL_ITEM
100
AcDbLine
 62
7
  6
CONTINUOUS
 10
364.0506244875
 20
291.2699017408
 11
364.0506244875
 21
294.8671194123
  0
LINE
  5
456
100
AcDbEntity
  8
ALL_DETAIL_ITEM
100
AcDbLine
 62
7
  6
CONTINUOUS
 10
364.0506244875
 20
298.2688960208
 11
364.0506244875
 21
301.8673753028
  0
LINE
  5
457
100
AcDbEntity
  8
ALL_DETAIL_ITEM
100
AcDbLine
 62
7
  6
CONTINUOUS
 10
364.0506244875
 20
305.2696647533
 11
364.0506244875
 21
308.8676278003
  0
LINE
  5
458
100
AcDbEntity
  8
ALL_DETAIL_ITEM
100
AcDbLine
 62
7
  6
CONTINUOUS
 10
364.0506244875
 20
312.2699820163
 11
364.0506244875
 21
315.8672848943
  0
LINE
  5
459
100
AcDbEntity
  8
ALL_DETAIL_ITEM
100
AcDbLine
 62
7
  6
CONTINUOUS
 10
367.0506244875
 20
259.6842928818
 11
367.0506244875
 21
267.3592928818
  0
LINE
  5
45A
100
AcDbEntity
  8
ALL_DETAIL_ITEM
100
AcDbLine
 62
7
  6
CONTINUOUS
 10
369.5506244875
 20
513.6842928818
 11
369.5506244875
 21
443.6842928818
  0
LINE
  5
45B
100
AcDbEntity
  8
ALL_DETAIL_ITEM
100
AcDbLine
 62
7
  6
CONTINUOUS
 10
370.3006244875
 20
358.6842928818
 11
370.3006244875
 21
351.6842928818
  0
LINE
  5
45C
100
AcDbEntity
  8
ALL_DETAIL_ITEM
100
AcDbLine
 62
7
  6
CONTINUOUS
 10
371.3006244875
 20
373.6842928818
 11
371.3006244875
 21
377.5185237368
  0
LINE
  5
45D
100
AcDbEntity
  8
ALL_DETAIL_ITEM
100
AcDbLine
 62
7
  6
CONTINUOUS
 10
371.3006244875
 20
379.8500620273
 11
371.3006244875
 21
380.5185237368
  0
LINE
  5
45E
100
AcDbEntity
  8
ALL_DETAIL_ITEM
100
AcDbLine
 62
7
  6
CONTINUOUS
 10
371.3006244875
 20
382.8500620273
 11
371.3006244875
 21
383.5185237368
  0
LINE
  5
45F
100
AcDbEntity
  8
ALL_DETAIL_ITEM
100
AcDbLine
 62
7
  6
CONTINUOUS
 10
371.3006244875
 20
385.8500620273
 11
371.3006244875
 21
386.5185237368
  0
LINE
  5
460
100
AcDbEntity
  8
ALL_DETAIL_ITEM
100
AcDbLine
 62
7
  6
CONTINUOUS
 10
371.3006244875
 20
388.8500620273
 11
371.3006244875
 21
389.5185237368
  0
LINE
  5
461
100
AcDbEntity
  8
ALL_DETAIL_ITEM
100
AcDbLine
 62
7
  6
CONTINUOUS
 10
371.3006244875
 20
391.8500620273
 11
371.3006244875
 21
392.5185237368
  0
LINE
  5
462
100
AcDbEntity
  8
ALL_DETAIL_ITEM
100
AcDbLine
 62
7
  6
CONTINUOUS
 10
371.3006244875
 20
394.8500620273
 11
371.3006244875
 21
395.5185237368
  0
LINE
  5
463
100
AcDbEntity
  8
ALL_DETAIL_ITEM
100
AcDbLine
 62
7
  6
CONTINUOUS
 10
371.3006244875
 20
397.8500620273
 11
371.3006244875
 21
398.5185237368
  0
LINE
  5
464
100
AcDbEntity
  8
ALL_DETAIL_ITEM
100
AcDbLine
 62
7
  6
CONTINUOUS
 10
371.3006244875
 20
400.8500620273
 11
371.3006244875
 21
401.5185237368
  0
LINE
  5
465
100
AcDbEntity
  8
ALL_DETAIL_ITEM
100
AcDbLine
 62
7
  6
CONTINUOUS
 10
371.3006244875
 20
403.8500620273
 11
371.3006244875
 21
404.5185237368
  0
LINE
  5
466
100
AcDbEntity
  8
ALL_DETAIL_ITEM
100
AcDbLine
 62
7
  6
CONTINUOUS
 10
371.3006244875
 20
406.8500620273
 11
371.3006244875
 21
407.5185237368
  0
LINE
  5
467
100
AcDbEntity
  8
ALL_DETAIL_ITEM
100
AcDbLine
 62
7
  6
CONTINUOUS
 10
371.3006244875
 20
409.8500620273
 11
371.3006244875
 21
410.5185237368
  0
LINE
  5
468
100
AcDbEntity
  8
ALL_DETAIL_ITEM
100
AcDbLine
 62
7
  6
CONTINUOUS
 10
371.3006244875
 20
412.8500620273
 11
371.3006244875
 21
413.5185237368
  0
LINE
  5
469
100
AcDbEntity
  8
ALL_DETAIL_ITEM
100
AcDbLine
 62
7
  6
CONTINUOUS
 10
371.3006244875
 20
415.8500620273
 11
371.3006244875
 21
416.5185237368
  0
LINE
  5
46A
100
AcDbEntity
  8
ALL_DETAIL_ITEM
100
AcDbLine
 62
7
  6
CONTINUOUS
 10
371.3006244875
 20
418.8500620273
 11
371.3006244875
 21
419.5185237368
  0
LINE
  5
46B
100
AcDbEntity
  8
ALL_DETAIL_ITEM
100
AcDbLine
 62
7
  6
CONTINUOUS
 10
377.0506244875
 20
258.6842928818
 11
377.0506244875
 21
250.5883088913
  0
LINE
  5
46C
100
AcDbEntity
  8
ALL_DETAIL_ITEM
100
AcDbLine
 62
7
  6
CONTINUOUS
 10
355.1112043215
 20
243.9685728138
 11
355.2008505865
 21
244.8989556708
  0
LINE
  5
46D
100
AcDbEntity
  8
ALL_DETAIL_ITEM
100
AcDbLine
 62
7
  6
CONTINUOUS
 10
351.5124625355
 20
334.8685631523
 11
351.486742397
 21
334.7239540118
  0
LINE
  5
46E
100
AcDbEntity
  8
ALL_DETAIL_ITEM
100
AcDbLine
 62
7
  6
CONTINUOUS
 10
352.4883738885
 20
335.0140408308
 11
352.439205728
 21
334.7498458858
  0
LINE
  5
46F
100
AcDbEntity
  8
ALL_DETAIL_ITEM
100
AcDbLine
 62
7
  6
CONTINUOUS
 10
352.439205728
 20
334.7498458858
 11
352.3925908685
 21
334.4868014963
  0
LINE
  5
470
100
AcDbEntity
  8
ALL_DETAIL_ITEM
100
AcDbLine
 62
7
  6
CONTINUOUS
 10
353.1880736695
 20
338.6842928818
 11
352.4883738885
 21
335.0140408308
  0
LINE
  5
471
100
AcDbEntity
  8
ALL_DETAIL_ITEM
100
AcDbLine
 62
7
  6
CONTINUOUS
 10
352.377261369
 20
334.4312037858
 11
351.6164636945
 21
330.4404647538
  0
LINE
  5
472
100
AcDbEntity
  8
ALL_DETAIL_ITEM
100
AcDbLine
 62
7
  6
CONTINUOUS
 10
350.864953372
 20
326.4984422188
 11
350.714043244
 21
325.7068481343
  0
LINE
  5
473
100
AcDbEntity
  8
ALL_DETAIL_ITEM
100
AcDbLine
 62
7
  6
CONTINUOUS
 10
351.5199840635
 20
334.9077886303
 11
351.5124625355
 21
334.8685631523
  0
LINE
  5
474
100
AcDbEntity
  8
ALL_DETAIL_ITEM
100
AcDbLine
 62
7
  6
CONTINUOUS
 10
352.377261369
 20
334.4312037858
 11
352.3837444995
 21
334.4589992888
  0
LINE
  5
475
100
AcDbEntity
  8
ALL_DETAIL_ITEM
100
AcDbLine
 62
7
  6
CONTINUOUS
 10
352.3837444995
 20
334.4589992888
 11
352.3925908685
 21
334.4868014963
  0
LINE
  5
476
100
AcDbEntity
  8
ALL_DETAIL_ITEM
100
AcDbLine
 62
7
  6
CONTINUOUS
 10
368.8006244875
 20
396.6842928818
 11
371.3006244875
 21
397.8500620273
  0
LINE
  5
477
100
AcDbEntity
  8
ALL_DETAIL_ITEM
100
AcDbLine
 62
7
  6
CONTINUOUS
 10
342.8006244875
 20
383.5185237368
 11
345.3006244875
 21
384.6842928818
  0
LINE
  5
478
100
AcDbEntity
  8
ALL_DETAIL_ITEM
100
AcDbLine
 62
7
  6
CONTINUOUS
 10
368.8006244875
 20
393.6842928818
 11
371.3006244875
 21
394.8500620273
  0
LINE
  5
479
100
AcDbEntity
  8
ALL_DETAIL_ITEM
100
AcDbLine
 62
7
  6
CONTINUOUS
 10
342.8006244875
 20
380.5185237368
 11
345.3006244875
 21
381.6842928818
  0
LINE
  5
47A
100
AcDbEntity
  8
ALL_DETAIL_ITEM
100
AcDbLine
 62
7
  6
CONTINUOUS
 10
368.8006244875
 20
390.6842928818
 11
371.3006244875
 21
391.8500620273
  0
LINE
  5
47B
100
AcDbEntity
  8
ALL_DETAIL_ITEM
100
AcDbLine
 62
7
  6
CONTINUOUS
 10
342.8006244875
 20
377.5185237368
 11
345.3006244875
 21
378.6842928818
  0
LINE
  5
47C
100
AcDbEntity
  8
ALL_DETAIL_ITEM
100
AcDbLine
 62
7
  6
CONTINUOUS
 10
368.8006244875
 20
387.6842928818
 11
371.3006244875
 21
388.8500620273
  0
LINE
  5
47D
100
AcDbEntity
  8
ALL_DETAIL_ITEM
100
AcDbLine
 62
7
  6
CONTINUOUS
 10
368.8006244875
 20
384.6842928818
 11
371.3006244875
 21
385.8500620273
  0
LINE
  5
47E
100
AcDbEntity
  8
ALL_DETAIL_ITEM
100
AcDbLine
 62
7
  6
CONTINUOUS
 10
368.8006244875
 20
381.6842928818
 11
371.3006244875
 21
382.8500620273
  0
LINE
  5
47F
100
AcDbEntity
  8
ALL_DETAIL_ITEM
100
AcDbLine
 62
7
  6
CONTINUOUS
 10
368.8006244875
 20
378.6842928818
 11
371.3006244875
 21
379.8500620273
  0
LINE
  5
480
100
AcDbEntity
  8
ALL_DETAIL_ITEM
100
AcDbLine
 62
7
  6
CONTINUOUS
 10
368.5701252395
 20
429.1842928818
 11
371.248282571
 21
421.8256545908
  0
LINE
  5
481
100
AcDbEntity
  8
ALL_DETAIL_ITEM
100
AcDbLine
 62
7
  6
CONTINUOUS
 10
394.5506244875
 20
358.6842928818
 11
394.5506244875
 21
351.6842928818
  0
LINE
  5
482
100
AcDbEntity
  8
ALL_DETAIL_ITEM
100
AcDbLine
 62
7
  6
CONTINUOUS
 10
364.0506244875
 20
305.2696647533
 11
364.021490352
 21
305.1679531723
  0
LINE
  5
483
100
AcDbEntity
  8
ALL_DETAIL_ITEM
100
AcDbLine
 62
7
  6
CONTINUOUS
 10
364.021490352
 20
305.1679531723
 11
363.9343714765
 21
305.0665173398
  0
LINE
  5
484
100
AcDbEntity
  8
ALL_DETAIL_ITEM
100
AcDbLine
 62
7
  6
CONTINUOUS
 10
363.9343714765
 20
305.0665173398
 11
363.7899290075
 21
304.9650106568
  0
LINE
  5
485
100
AcDbEntity
  8
ALL_DETAIL_ITEM
100
AcDbLine
 62
7
  6
CONTINUOUS
 10
347.462857711
 20
293.3171513588
 11
347.329513292
 21
292.9974488603
  0
LINE
  5
486
100
AcDbEntity
  8
ALL_DETAIL_ITEM
100
AcDbLine
 62
7
  6
CONTINUOUS
 10
347.329513292
 20
292.9974488603
 11
347.4771110135
 21
292.8809675993
  0
LINE
  5
487
100
AcDbEntity
  8
ALL_DETAIL_ITEM
100
AcDbLine
 62
7
  6
CONTINUOUS
 10
350.0597770395
 20
319.5127598753
 11
350.1191609875
 21
319.6517665083
  0
LINE
  5
488
100
AcDbEntity
  8
ALL_DETAIL_ITEM
100
AcDbLine
 62
7
  6
CONTINUOUS
 10
350.1191609875
 20
319.6517665083
 11
350.675363503
 21
319.9721410303
  0
LINE
  5
489
100
AcDbEntity
  8
ALL_DETAIL_ITEM
100
AcDbLine
 62
7
  6
CONTINUOUS
 10
350.675363503
 20
319.9721410303
 11
351.771283333
 21
320.2897539758
  0
LINE
  5
48A
100
AcDbEntity
  8
ALL_DETAIL_ITEM
100
AcDbLine
 62
7
  6
CONTINUOUS
 10
351.771283333
 20
320.2897539758
 11
353.3116512745
 21
320.6082486993
  0
LINE
  5
48B
100
AcDbEntity
  8
ALL_DETAIL_ITEM
100
AcDbLine
 62
7
  6
CONTINUOUS
 10
353.3116512745
 20
320.6082486993
 11
355.162406265
 21
320.9216312998
  0
LINE
  5
48C
100
AcDbEntity
  8
ALL_DETAIL_ITEM
100
AcDbLine
 62
7
  6
CONTINUOUS
 10
347.4556909755
 20
314.3132844883
 11
347.293867677
 21
314.0493614288
  0
LINE
  5
48D
100
AcDbEntity
  8
ALL_DETAIL_ITEM
100
AcDbLine
 62
7
  6
CONTINUOUS
 10
347.293867677
 20
314.0493614288
 11
347.472817277
 21
313.8828006138
  0
LINE
  5
48E
100
AcDbEntity
  8
ALL_DETAIL_ITEM
100
AcDbLine
 62
7
  6
CONTINUOUS
 10
350.864982463
 20
326.4985948148
 11
351.123189572
 21
326.8003860108
  0
LINE
  5
48F
100
AcDbEntity
  8
ALL_DETAIL_ITEM
100
AcDbLine
 62
7
  6
CONTINUOUS
 10
351.123189572
 20
326.8003860108
 11
351.960420228
 21
327.1746590388
  0
LINE
  5
490
100
AcDbEntity
  8
ALL_DETAIL_ITEM
100
AcDbLine
 62
7
  6
CONTINUOUS
 10
351.960420228
 20
327.1746590388
 11
353.2835266185
 21
327.5543258158
  0
LINE
  5
491
100
AcDbEntity
  8
ALL_DETAIL_ITEM
100
AcDbLine
 62
7
  6
CONTINUOUS
 10
353.2835266185
 20
327.5543258158
 11
354.9531834765
 21
327.9377450483
  0
LINE
  5
492
100
AcDbEntity
  8
ALL_DETAIL_ITEM
100
AcDbLine
 62
7
  6
CONTINUOUS
 10
354.9531834765
 20
327.9377450483
 11
356.796842543
 21
328.3271700538
  0
LINE
  5
493
100
AcDbEntity
  8
ALL_DETAIL_ITEM
100
AcDbLine
 62
7
  6
CONTINUOUS
 10
356.796842543
 20
328.3271700538
 11
358.625724226
 21
328.7204644378
  0
LINE
  5
494
100
AcDbEntity
  8
ALL_DETAIL_ITEM
100
AcDbLine
 62
7
  6
CONTINUOUS
 10
358.625724226
 20
328.7204644378
 11
360.253352072
 21
329.1215907598
  0
LINE
  5
495
100
AcDbEntity
  8
ALL_DETAIL_ITEM
100
AcDbLine
 62
7
  6
CONTINUOUS
 10
360.253352072
 20
329.1215907598
 11
361.5174689195
 21
329.5253949998
  0
LINE
  5
496
100
AcDbEntity
  8
ALL_DETAIL_ITEM
100
AcDbLine
 62
7
  6
CONTINUOUS
 10
361.5174689195
 20
329.5253949998
 11
362.088044111
 21
329.7954232118
  0
LINE
  5
497
100
AcDbEntity
  8
ALL_DETAIL_ITEM
100
AcDbLine
 62
7
  6
CONTINUOUS
 10
348.220857542
 20
328.2729909563
 11
348.047595607
 21
328.1009836828
  0
LINE
  5
498
100
AcDbEntity
  8
ALL_DETAIL_ITEM
100
AcDbLine
 62
7
  6
CONTINUOUS
 10
348.047595607
 20
328.1009836828
 11
348.2383510345
 21
327.8163973863
  0
LINE
  5
499
100
AcDbEntity
  8
ALL_DETAIL_ITEM
100
AcDbLine
 62
7
  6
CONTINUOUS
 10
351.9415664265
 20
335.2400409878
 11
352.3252346905
 21
335.5664502058
  0
LINE
  5
49A
100
AcDbEntity
  8
ALL_DETAIL_ITEM
100
AcDbLine
 62
7
  6
CONTINUOUS
 10
352.3252346905
 20
335.5664502058
 11
352.652368908
 21
335.8742712793
  0
LINE
  5
49B
100
AcDbEntity
  8
ALL_DETAIL_ITEM
100
AcDbLine
 62
7
  6
CONTINUOUS
 10
351.5199829125
 20
334.9077826313
 11
351.9415664265
 21
335.2400409878
  0
LINE
  5
49C
100
AcDbEntity
  8
ALL_DETAIL_ITEM
100
AcDbLine
 62
7
  6
CONTINUOUS
 10
351.8056487105
 20
330.5681698888
 11
350.982238775
 21
330.0123453358
  0
LINE
  5
49D
100
AcDbEntity
  8
ALL_DETAIL_ITEM
100
AcDbLine
 62
7
  6
CONTINUOUS
 10
350.982238775
 20
330.0123453358
 11
349.5075279245
 21
329.0671179438
  0
LINE
  5
49E
100
AcDbEntity
  8
ALL_DETAIL_ITEM
100
AcDbLine
 62
7
  6
CONTINUOUS
 10
349.5075279245
 20
329.0671179438
 11
348.220857542
 21
328.2729909563
  0
LINE
  5
49F
100
AcDbEntity
  8
ALL_DETAIL_ITEM
100
AcDbLine
 62
7
  6
CONTINUOUS
 10
351.805654594
 20
330.5682133388
 11
351.9172530225
 21
330.6377893838
  0
LINE
  5
4A0
100
AcDbEntity
  8
ALL_DETAIL_ITEM
100
AcDbLine
 62
7
  6
CONTINUOUS
 10
351.9172530225
 20
330.6377893838
 11
352.7631776605
 21
330.9768095703
  0
LINE
  5
4A1
100
AcDbEntity
  8
ALL_DETAIL_ITEM
100
AcDbLine
 62
7
  6
CONTINUOUS
 10
352.7631776605
 20
330.9768095703
 11
354.005733455
 21
331.3035700508
  0
LINE
  5
4A2
100
AcDbEntity
  8
ALL_DETAIL_ITEM
100
AcDbLine
 62
7
  6
CONTINUOUS
 10
354.005733455
 20
331.3035700508
 11
355.4705286905
 21
331.6179113653
  0
LINE
  5
4A3
100
AcDbEntity
  8
ALL_DETAIL_ITEM
100
AcDbLine
 62
7
  6
CONTINUOUS
 10
355.4705286905
 20
331.6179113653
 11
357.0547904895
 21
331.9264006843
  0
LINE
  5
4A4
100
AcDbEntity
  8
ALL_DETAIL_ITEM
100
AcDbLine
 62
7
  6
CONTINUOUS
 10
357.0547904895
 20
331.9264006843
 11
358.6147592555
 21
332.2343759368
  0
LINE
  5
4A5
100
AcDbEntity
  8
ALL_DETAIL_ITEM
100
AcDbLine
 62
7
  6
CONTINUOUS
 10
358.6147592555
 20
332.2343759368
 11
359.991906294
 21
332.5350921508
  0
LINE
  5
4A6
100
AcDbEntity
  8
ALL_DETAIL_ITEM
100
AcDbLine
 62
7
  6
CONTINUOUS
 10
359.991906294
 20
332.5350921508
 11
361.0612062105
 21
332.8358768058
  0
LINE
  5
4A7
100
AcDbEntity
  8
ALL_DETAIL_ITEM
100
AcDbLine
 62
7
  6
CONTINUOUS
 10
361.0612062105
 20
332.8358768058
 11
361.72586015
 21
333.1308763008
  0
LINE
  5
4A8
100
AcDbEntity
  8
ALL_DETAIL_ITEM
100
AcDbLine
 62
7
  6
CONTINUOUS
 10
361.72586015
 20
333.1308763008
 11
361.9162148335
 21
333.4228822223
  0
LINE
  5
4A9
100
AcDbEntity
  8
ALL_DETAIL_ITEM
100
AcDbLine
 62
7
  6
CONTINUOUS
 10
351.5199840635
 20
334.9077886303
 11
351.340425275
 21
334.8007995868
  0
LINE
  5
4AA
100
AcDbEntity
  8
ALL_DETAIL_ITEM
100
AcDbLine
 62
7
  6
CONTINUOUS
 10
366.6294785205
 20
275.3826570083
 11
366.7923761885
 21
275.6842014928
  0
LINE
  5
4AB
100
AcDbEntity
  8
ALL_DETAIL_ITEM
100
AcDbLine
 62
7
  6
CONTINUOUS
 10
366.7923761885
 20
275.6842014928
 11
366.6415996085
 21
275.8157732783
  0
LINE
  5
4AC
100
AcDbEntity
  8
ALL_DETAIL_ITEM
100
AcDbLine
 62
7
  6
CONTINUOUS
 10
347.4583570105
 20
286.3152276988
 11
347.2848125805
 21
286.0848805543
  0
LINE
  5
4AD
100
AcDbEntity
  8
ALL_DETAIL_ITEM
100
AcDbLine
 62
7
  6
CONTINUOUS
 10
347.2848125805
 20
286.0848805543
 11
347.4740186065
 21
285.8820143733
  0
LINE
  5
4AE
100
AcDbEntity
  8
ALL_DETAIL_ITEM
100
AcDbLine
 62
7
  6
CONTINUOUS
 10
350.0506244875
 20
298.5178243048
 11
350.3438617255
 21
298.8424875923
  0
LINE
  5
4AF
100
AcDbEntity
  8
ALL_DETAIL_ITEM
100
AcDbLine
 62
7
  6
CONTINUOUS
 10
350.3438617255
 20
298.8424875923
 11
351.202549103
 21
299.1656472468
  0
LINE
  5
4B0
100
AcDbEntity
  8
ALL_DETAIL_ITEM
100
AcDbLine
 62
7
  6
CONTINUOUS
 10
351.202549103
 20
299.1656472468
 11
352.576904875
 21
299.4955450008
  0
LINE
  5
4B1
100
AcDbEntity
  8
ALL_DETAIL_ITEM
100
AcDbLine
 62
7
  6
CONTINUOUS
 10
352.576904875
 20
299.4955450008
 11
354.3108050265
 21
299.8198196553
  0
LINE
  5
4B2
100
AcDbEntity
  8
ALL_DETAIL_ITEM
100
AcDbLine
 62
7
  6
CONTINUOUS
 10
354.3108050265
 20
299.8198196553
 11
356.3051655435
 21
300.1497530338
  0
LINE
  5
4B3
100
AcDbEntity
  8
ALL_DETAIL_ITEM
100
AcDbLine
 62
7
  6
CONTINUOUS
 10
356.3051655435
 20
300.1497530338
 11
358.3364512205
 21
300.4734243598
  0
LINE
  5
4B4
100
AcDbEntity
  8
ALL_DETAIL_ITEM
100
AcDbLine
 62
7
  6
CONTINUOUS
 10
358.3364512205
 20
300.4734243598
 11
360.252957429
 21
300.7978988498
  0
LINE
  5
4B5
100
AcDbEntity
  8
ALL_DETAIL_ITEM
100
AcDbLine
 62
7
  6
CONTINUOUS
 10
360.252957429
 20
300.7978988498
 11
361.9198854935
 21
301.1246331578
  0
LINE
  5
4B6
100
AcDbEntity
  8
ALL_DETAIL_ITEM
100
AcDbLine
 62
7
  6
CONTINUOUS
 10
361.9198854935
 20
301.1246331578
 11
363.195497052
 21
301.4629931343
  0
LINE
  5
4B7
100
AcDbEntity
  8
ALL_DETAIL_ITEM
100
AcDbLine
 62
7
  6
CONTINUOUS
 10
363.195497052
 20
301.4629931343
 11
363.7995261565
 21
301.7188337398
  0
LINE
  5
4B8
100
AcDbEntity
  8
ALL_DETAIL_ITEM
100
AcDbLine
 62
7
  6
CONTINUOUS
 10
347.4563849955
 20
307.3129902058
 11
347.285905423
 21
307.1367931228
  0
LINE
  5
4B9
100
AcDbEntity
  8
ALL_DETAIL_ITEM
100
AcDbLine
 62
7
  6
CONTINUOUS
 10
347.285905423
 20
307.1367931228
 11
347.4715030655
 21
306.8836151583
  0
LINE
  5
4BA
100
AcDbEntity
  8
ALL_DETAIL_ITEM
100
AcDbLine
 62
7
  6
CONTINUOUS
 10
364.0506244875
 20
312.2699820163
 11
363.71041651
 21
311.9206668483
  0
LINE
  5
4BB
100
AcDbEntity
  8
ALL_DETAIL_ITEM
100
AcDbLine
 62
7
  6
CONTINUOUS
 10
363.71041651
 20
311.9206668483
 11
362.726436762
 21
311.5729330343
  0
LINE
  5
4BC
100
AcDbEntity
  8
ALL_DETAIL_ITEM
100
AcDbLine
 62
7
  6
CONTINUOUS
 10
362.726436762
 20
311.5729330343
 11
361.1829191575
 21
311.2226866233
  0
LINE
  5
4BD
100
AcDbEntity
  8
ALL_DETAIL_ITEM
100
AcDbLine
 62
7
  6
CONTINUOUS
 10
361.1829191575
 20
311.2226866233
 11
359.258980909
 21
310.8770603903
  0
LINE
  5
4BE
100
AcDbEntity
  8
ALL_DETAIL_ITEM
100
AcDbLine
 62
7
  6
CONTINUOUS
 10
359.258980909
 20
310.8770603903
 11
354.8688658975
 21
310.1659425813
  0
LINE
  5
4BF
100
AcDbEntity
  8
ALL_DETAIL_ITEM
100
AcDbLine
 62
7
  6
CONTINUOUS
 10
350.0506244875
 20
305.5173348498
 11
350.392888556
 21
305.8684918063
  0
LINE
  5
4C0
100
AcDbEntity
  8
ALL_DETAIL_ITEM
100
AcDbLine
 62
7
  6
CONTINUOUS
 10
350.392888556
 20
305.8684918063
 11
351.386505921
 21
306.2170224313
  0
LINE
  5
4C1
100
AcDbEntity
  8
ALL_DETAIL_ITEM
100
AcDbLine
 62
7
  6
CONTINUOUS
 10
351.386505921
 20
306.2170224313
 11
352.9163583825
 21
306.5636620373
  0
LINE
  5
4C2
100
AcDbEntity
  8
ALL_DETAIL_ITEM
100
AcDbLine
 62
7
  6
CONTINUOUS
 10
352.9163583825
 20
306.5636620373
 11
354.859871266
 21
306.9133717888
  0
LINE
  5
4C3
100
AcDbEntity
  8
ALL_DETAIL_ITEM
100
AcDbLine
 62
7
  6
CONTINUOUS
 10
354.859871266
 20
306.9133717888
 11
359.279633695
 21
307.6289736143
  0
LINE
  5
4C4
100
AcDbEntity
  8
ALL_DETAIL_ITEM
100
AcDbLine
 62
7
  6
CONTINUOUS
 10
350.0506244875
 20
312.5176188893
 11
350.401602758
 21
312.8726535213
  0
LINE
  5
4C5
100
AcDbEntity
  8
ALL_DETAIL_ITEM
100
AcDbLine
 62
7
  6
CONTINUOUS
 10
350.401602758
 20
312.8726535213
 11
351.4539540125
 21
313.2352581213
  0
LINE
  5
4C6
100
AcDbEntity
  8
ALL_DETAIL_ITEM
100
AcDbLine
 62
7
  6
CONTINUOUS
 10
351.4539540125
 20
313.2352581213
 11
353.0505035985
 21
313.5902375828
  0
LINE
  5
4C7
100
AcDbEntity
  8
ALL_DETAIL_ITEM
100
AcDbLine
 62
7
  6
CONTINUOUS
 10
353.0505035985
 20
313.5902375828
 11
354.981713329
 21
313.9333119728
  0
LINE
  5
4C8
100
AcDbEntity
  8
ALL_DETAIL_ITEM
100
AcDbLine
 62
7
  6
CONTINUOUS
 10
354.981713329
 20
313.9333119728
 11
359.248760329
 21
314.6236624993
  0
LINE
  5
4C9
100
AcDbEntity
  8
ALL_DETAIL_ITEM
100
AcDbLine
 62
7
  6
CONTINUOUS
 10
350.0506244875
 20
291.5192722538
 11
350.400143619
 21
291.8707838968
  0
LINE
  5
4CA
100
AcDbEntity
  8
ALL_DETAIL_ITEM
100
AcDbLine
 62
7
  6
CONTINUOUS
 10
350.400143619
 20
291.8707838968
 11
351.453909429
 21
292.2351795828
  0
LINE
  5
4CB
100
AcDbEntity
  8
ALL_DETAIL_ITEM
100
AcDbLine
 62
7
  6
CONTINUOUS
 10
351.453909429
 20
292.2351795828
 11
353.0618137325
 21
292.5927064473
  0
LINE
  5
4CC
100
AcDbEntity
  8
ALL_DETAIL_ITEM
100
AcDbLine
 62
7
  6
CONTINUOUS
 10
353.0618137325
 20
292.5927064473
 11
354.98973324
 21
292.9343723298
  0
LINE
  5
4CD
100
AcDbEntity
  8
ALL_DETAIL_ITEM
100
AcDbLine
 62
7
  6
CONTINUOUS
 10
354.98973324
 20
292.9343723298
 11
359.3249994325
 21
293.6366551713
  0
LINE
  5
4CE
100
AcDbEntity
  8
ALL_DETAIL_ITEM
100
AcDbLine
 62
7
  6
CONTINUOUS
 10
347.461010649
 20
300.3143057328
 11
347.342717333
 21
300.2242248168
  0
LINE
  5
4CF
100
AcDbEntity
  8
ALL_DETAIL_ITEM
100
AcDbLine
 62
7
  6
CONTINUOUS
 10
347.342717333
 20
300.2242248168
 11
347.4687304655
 21
299.8846469418
  0
LINE
  5
4D0
100
AcDbEntity
  8
ALL_DETAIL_ITEM
100
AcDbLine
 62
7
  6
CONTINUOUS
 10
347.4566352105
 20
321.3129580538
 11
347.40079755
 21
321.2761373848
  0
LINE
  5
4D1
100
AcDbEntity
  8
ALL_DETAIL_ITEM
100
AcDbLine
 62
7
  6
CONTINUOUS
 10
347.40079755
 20
321.2761373848
 11
347.36159533
 21
320.9619297348
  0
LINE
  5
4D2
100
AcDbEntity
  8
ALL_DETAIL_ITEM
100
AcDbLine
 62
7
  6
CONTINUOUS
 10
347.36159533
 20
320.9619297348
 11
347.471064282
 21
320.8848674768
  0
LINE
  5
4D3
100
AcDbEntity
  8
ALL_DETAIL_ITEM
100
AcDbLine
 62
7
  6
CONTINUOUS
 10
350.5547465775
 20
323.2300534993
 11
349.9316040665
 21
322.8338880508
  0
LINE
  5
4D4
100
AcDbEntity
  8
ALL_DETAIL_ITEM
100
AcDbLine
 62
7
  6
CONTINUOUS
 10
349.9316040665
 20
322.8338880508
 11
348.6228966365
 21
322.0214889908
  0
LINE
  5
4D5
100
AcDbEntity
  8
ALL_DETAIL_ITEM
100
AcDbLine
 62
7
  6
CONTINUOUS
 10
348.6228966365
 20
322.0214889908
 11
347.4566352105
 21
321.3129580538
  0
LINE
  5
4D6
100
AcDbEntity
  8
ALL_DETAIL_ITEM
100
AcDbLine
 62
7
  6
CONTINUOUS
 10
350.2725575575
 20
309.0498818323
 11
349.8897860785
 21
308.8077136268
  0
LINE
  5
4D7
100
AcDbEntity
  8
ALL_DETAIL_ITEM
100
AcDbLine
 62
7
  6
CONTINUOUS
 10
349.8897860785
 20
308.8077136268
 11
348.5780306035
 21
307.9941841618
  0
LINE
  5
4D8
100
AcDbEntity
  8
ALL_DETAIL_ITEM
100
AcDbLine
 62
7
  6
CONTINUOUS
 10
348.5780306035
 20
307.9941841618
 11
347.4563849955
 21
307.3129902058
  0
LINE
  5
4D9
100
AcDbEntity
  8
ALL_DETAIL_ITEM
100
AcDbLine
 62
7
  6
CONTINUOUS
 10
350.271249299
 20
316.0493888063
 11
349.8883606565
 21
315.8072488468
  0
LINE
  5
4DA
100
AcDbEntity
  8
ALL_DETAIL_ITEM
100
AcDbLine
 62
7
  6
CONTINUOUS
 10
349.8883606565
 20
315.8072488468
 11
348.577027344
 21
314.9942194838
  0
LINE
  5
4DB
100
AcDbEntity
  8
ALL_DETAIL_ITEM
100
AcDbLine
 62
7
  6
CONTINUOUS
 10
348.577027344
 20
314.9942194838
 11
347.4556909755
 21
314.3132844883
  0
LINE
  5
4DC
100
AcDbEntity
  8
ALL_DETAIL_ITEM
100
AcDbLine
 62
7
  6
CONTINUOUS
 10
362.0881892925
 20
329.7948909408
 11
362.2588490365
 21
329.8969248053
  0
LINE
  5
4DD
100
AcDbEntity
  8
ALL_DETAIL_ITEM
100
AcDbLine
 62
7
  6
CONTINUOUS
 10
362.2588490365
 20
329.8969248053
 11
363.505198886
 21
330.6326734943
  0
LINE
  5
4DE
100
AcDbEntity
  8
ALL_DETAIL_ITEM
100
AcDbLine
 62
7
  6
CONTINUOUS
 10
363.505198886
 20
330.6326734943
 11
364.5135165955
 21
331.2191632618
  0
LINE
  5
4DF
100
AcDbEntity
  8
ALL_DETAIL_ITEM
100
AcDbLine
 62
7
  6
CONTINUOUS
 10
363.5586615425
 20
322.6167609228
 11
364.322168248
 21
323.0706322983
  0
LINE
  5
4E0
100
AcDbEntity
  8
ALL_DETAIL_ITEM
100
AcDbLine
 62
7
  6
CONTINUOUS
 10
364.322168248
 20
323.0706322983
 11
365.548016103
 21
323.7920349168
  0
LINE
  5
4E1
100
AcDbEntity
  8
ALL_DETAIL_ITEM
100
AcDbLine
 62
7
  6
CONTINUOUS
 10
365.548016103
 20
323.7920349168
 11
366.535231511
 21
324.3683809808
  0
LINE
  5
4E2
100
AcDbEntity
  8
ALL_DETAIL_ITEM
100
AcDbLine
 62
7
  6
CONTINUOUS
 10
363.7994533015
 20
315.7182260008
 11
365.676015618
 21
316.8256941758
  0
LINE
  5
4E3
100
AcDbEntity
  8
ALL_DETAIL_ITEM
100
AcDbLine
 62
7
  6
CONTINUOUS
 10
365.676015618
 20
316.8256941758
 11
366.630984224
 21
317.3833952673
  0
LINE
  5
4E4
100
AcDbEntity
  8
ALL_DETAIL_ITEM
100
AcDbLine
 62
7
  6
CONTINUOUS
 10
364.5135165955
 20
331.2191632618
 11
364.4231394255
 21
331.1711054523
  0
LINE
  5
4E5
100
AcDbEntity
  8
ALL_DETAIL_ITEM
100
AcDbLine
 62
7
  6
CONTINUOUS
 10
364.4231394255
 20
331.1711054523
 11
363.5065787265
 21
330.8658619523
  0
LINE
  5
4E6
100
AcDbEntity
  8
ALL_DETAIL_ITEM
100
AcDbLine
 62
7
  6
CONTINUOUS
 10
363.5065787265
 20
330.8658619523
 11
362.0447735845
 21
330.5600685108
  0
LINE
  5
4E7
100
AcDbEntity
  8
ALL_DETAIL_ITEM
100
AcDbLine
 62
7
  6
CONTINUOUS
 10
362.0447735845
 20
330.5600685108
 11
360.14873691
 21
330.2537996813
  0
LINE
  5
4E8
100
AcDbEntity
  8
ALL_DETAIL_ITEM
100
AcDbLine
 62
7
  6
CONTINUOUS
 10
360.14873691
 20
330.2537996813
 11
357.944962723
 21
329.9471243553
  0
LINE
  5
4E9
100
AcDbEntity
  8
ALL_DETAIL_ITEM
100
AcDbLine
 62
7
  6
CONTINUOUS
 10
357.944962723
 20
329.9471243553
 11
355.606936889
 21
329.6400941638
  0
LINE
  5
4EA
100
AcDbEntity
  8
ALL_DETAIL_ITEM
100
AcDbLine
 62
7
  6
CONTINUOUS
 10
355.606936889
 20
329.6400941638
 11
353.320036218
 21
329.3327550918
  0
LINE
  5
4EB
100
AcDbEntity
  8
ALL_DETAIL_ITEM
100
AcDbLine
 62
7
  6
CONTINUOUS
 10
353.320036218
 20
329.3327550918
 11
351.2644067615
 21
329.0251443638
  0
LINE
  5
4EC
100
AcDbEntity
  8
ALL_DETAIL_ITEM
100
AcDbLine
 62
7
  6
CONTINUOUS
 10
351.2644067615
 20
329.0251443638
 11
349.615511949
 21
328.7172945793
  0
LINE
  5
4ED
100
AcDbEntity
  8
ALL_DETAIL_ITEM
100
AcDbLine
 62
7
  6
CONTINUOUS
 10
349.615511949
 20
328.7172945793
 11
348.5098955215
 21
328.4092333403
  0
LINE
  5
4EE
100
AcDbEntity
  8
ALL_DETAIL_ITEM
100
AcDbLine
 62
7
  6
CONTINUOUS
 10
348.5098955215
 20
328.4092333403
 11
348.220857542
 21
328.2729909563
  0
LINE
  5
4EF
100
AcDbEntity
  8
ALL_DETAIL_ITEM
100
AcDbLine
 62
7
  6
CONTINUOUS
 10
363.11123751
 20
318.6842928818
 11
363.815995896
 21
318.9822635393
  0
LINE
  5
4F0
100
AcDbEntity
  8
ALL_DETAIL_ITEM
100
AcDbLine
 62
7
  6
CONTINUOUS
 10
363.815995896
 20
318.9822635393
 11
364.046013234
 21
319.2723598583
  0
LINE
  5
4F1
100
AcDbEntity
  8
ALL_DETAIL_ITEM
100
AcDbLine
 62
7
  6
CONTINUOUS
 10
363.5586507105
 20
322.6168340923
 11
362.6299221685
 21
322.2596972673
  0
LINE
  5
4F2
100
AcDbEntity
  8
ALL_DETAIL_ITEM
100
AcDbLine
 62
7
  6
CONTINUOUS
 10
362.6299221685
 20
322.2596972673
 11
361.21314529
 21
321.9286336618
  0
LINE
  5
4F3
100
AcDbEntity
  8
ALL_DETAIL_ITEM
100
AcDbLine
 62
7
  6
CONTINUOUS
 10
361.21314529
 20
321.9286336618
 11
359.393113878
 21
321.5951487373
  0
LINE
  5
4F4
100
AcDbEntity
  8
ALL_DETAIL_ITEM
100
AcDbLine
 62
7
  6
CONTINUOUS
 10
359.393113878
 20
321.5951487373
 11
357.280855074
 21
321.2558480338
  0
LINE
  5
4F5
100
AcDbEntity
  8
ALL_DETAIL_ITEM
100
AcDbLine
 62
7
  6
CONTINUOUS
 10
357.280855074
 20
321.2558480338
 11
355.162406265
 21
320.9216312998
  0
LINE
  5
4F6
100
AcDbEntity
  8
ALL_DETAIL_ITEM
100
AcDbLine
 62
7
  6
CONTINUOUS
 10
366.535231511
 20
324.3683809808
 11
365.736569127
 21
324.0823588393
  0
LINE
  5
4F7
100
AcDbEntity
  8
ALL_DETAIL_ITEM
100
AcDbLine
 62
7
  6
CONTINUOUS
 10
365.736569127
 20
324.0823588393
 11
364.223176293
 21
323.7726144718
  0
LINE
  5
4F8
100
AcDbEntity
  8
ALL_DETAIL_ITEM
100
AcDbLine
 62
7
  6
CONTINUOUS
 10
364.223176293
 20
323.7726144718
 11
362.1406474145
 21
323.4628016948
  0
LINE
  5
4F9
100
AcDbEntity
  8
ALL_DETAIL_ITEM
100
AcDbLine
 62
7
  6
CONTINUOUS
 10
362.1406474145
 20
323.4628016948
 11
359.661128246
 21
323.1529221658
  0
LINE
  5
4FA
100
AcDbEntity
  8
ALL_DETAIL_ITEM
100
AcDbLine
 62
7
  6
CONTINUOUS
 10
359.661128246
 20
323.1529221658
 11
354.2838672625
 21
322.5329679858
  0
LINE
  5
4FB
100
AcDbEntity
  8
ALL_DETAIL_ITEM
100
AcDbLine
 62
7
  6
CONTINUOUS
 10
361.1737865345
 20
325.7068481343
 11
362.054702276
 21
325.9669971633
  0
LINE
  5
4FC
100
AcDbEntity
  8
ALL_DETAIL_ITEM
100
AcDbLine
 62
7
  6
CONTINUOUS
 10
362.054702276
 20
325.9669971633
 11
362.707055406
 21
326.2276083023
  0
LINE
  5
4FD
100
AcDbEntity
  8
ALL_DETAIL_ITEM
100
AcDbLine
 62
7
  6
CONTINUOUS
 10
362.707055406
 20
326.2276083023
 11
363.093487441
 21
326.4936971673
  0
LINE
  5
4FE
100
AcDbEntity
  8
ALL_DETAIL_ITEM
100
AcDbLine
 62
7
  6
CONTINUOUS
 10
363.093487441
 20
326.4936971673
 11
363.1880251875
 21
326.7516430888
  0
LINE
  5
4FF
100
AcDbEntity
  8
ALL_DETAIL_ITEM
100
AcDbLine
 62
7
  6
CONTINUOUS
 10
369.5506244875
 20
513.6842928818
 11
344.5506244875
 21
513.6842928818
  0
LINE
  5
500
100
AcDbEntity
  8
ALL_DETAIL_ITEM
100
AcDbLine
 62
7
  6
CONTINUOUS
 10
357.0506244875
 20
520.9011712468
 11
369.5506244875
 21
513.6842928818
  0
LINE
  5
501
100
AcDbEntity
  8
ALL_DETAIL_ITEM
100
AcDbLine
 62
7
  6
CONTINUOUS
 10
350.0506244875
 20
270.5178827598
 11
350.3008223325
 21
270.8163481828
  0
LINE
  5
502
100
AcDbEntity
  8
ALL_DETAIL_ITEM
100
AcDbLine
 62
7
  6
CONTINUOUS
 10
350.3008223325
 20
270.8163481828
 11
351.2241444925
 21
271.1726213378
  0
LINE
  5
503
100
AcDbEntity
  8
ALL_DETAIL_ITEM
100
AcDbLine
 62
7
  6
CONTINUOUS
 10
351.2241444925
 20
271.1726213378
 11
352.736505511
 21
271.5280962443
  0
LINE
  5
504
100
AcDbEntity
  8
ALL_DETAIL_ITEM
100
AcDbLine
 62
7
  6
CONTINUOUS
 10
352.736505511
 20
271.5280962443
 11
354.6847462325
 21
271.8833253253
  0
LINE
  5
505
100
AcDbEntity
  8
ALL_DETAIL_ITEM
100
AcDbLine
 62
7
  6
CONTINUOUS
 10
354.6847462325
 20
271.8833253253
 11
356.871848724
 21
272.2406411443
  0
LINE
  5
506
100
AcDbEntity
  8
ALL_DETAIL_ITEM
100
AcDbLine
 62
7
  6
CONTINUOUS
 10
356.871848724
 20
272.2406411443
 11
359.077177045
 21
272.5948794138
  0
LINE
  5
507
100
AcDbEntity
  8
ALL_DETAIL_ITEM
100
AcDbLine
 62
7
  6
CONTINUOUS
 10
359.077177045
 20
272.5948794138
 11
361.0773601435
 21
272.9503978238
  0
LINE
  5
508
100
AcDbEntity
  8
ALL_DETAIL_ITEM
100
AcDbLine
 62
7
  6
CONTINUOUS
 10
361.0773601435
 20
272.9503978238
 11
362.671386103
 21
273.3063799968
  0
LINE
  5
509
100
AcDbEntity
  8
ALL_DETAIL_ITEM
100
AcDbLine
 62
7
  6
CONTINUOUS
 10
362.671386103
 20
273.3063799968
 11
363.697028991
 21
273.6619584413
  0
LINE
  5
50A
100
AcDbEntity
  8
ALL_DETAIL_ITEM
100
AcDbLine
 62
7
  6
CONTINUOUS
 10
363.697028991
 20
273.6619584413
 11
363.7976925975
 21
273.7171964328
  0
LINE
  5
50B
100
AcDbEntity
  8
ALL_DETAIL_ITEM
100
AcDbLine
 62
7
  6
CONTINUOUS
 10
364.0506244875
 20
284.2692854223
 11
363.7116631365
 21
283.9206619903
  0
LINE
  5
50C
100
AcDbEntity
  8
ALL_DETAIL_ITEM
100
AcDbLine
 62
7
  6
CONTINUOUS
 10
363.7116631365
 20
283.9206619903
 11
362.7315690755
 21
283.5743775533
  0
LINE
  5
50D
100
AcDbEntity
  8
ALL_DETAIL_ITEM
100
AcDbLine
 62
7
  6
CONTINUOUS
 10
362.7315690755
 20
283.5743775533
 11
361.193759106
 21
283.2254347753
  0
LINE
  5
50E
100
AcDbEntity
  8
ALL_DETAIL_ITEM
100
AcDbLine
 62
7
  6
CONTINUOUS
 10
361.193759106
 20
283.2254347753
 11
359.277229983
 21
282.8790641973
  0
LINE
  5
50F
100
AcDbEntity
  8
ALL_DETAIL_ITEM
100
AcDbLine
 62
7
  6
CONTINUOUS
 10
359.277229983
 20
282.8790641973
 11
354.8605225505
 21
282.1645015373
  0
LINE
  5
510
100
AcDbEntity
  8
ALL_DETAIL_ITEM
100
AcDbLine
 62
7
  6
CONTINUOUS
 10
350.0506244875
 20
277.5173274433
 11
350.3935155165
 21
277.8676927963
  0
LINE
  5
511
100
AcDbEntity
  8
ALL_DETAIL_ITEM
100
AcDbLine
 62
7
  6
CONTINUOUS
 10
350.3935155165
 20
277.8676927963
 11
351.392762738
 21
278.2197411308
  0
LINE
  5
512
100
AcDbEntity
  8
ALL_DETAIL_ITEM
100
AcDbLine
 62
7
  6
CONTINUOUS
 10
351.392762738
 20
278.2197411308
 11
352.91612628
 21
278.5635553473
  0
LINE
  5
513
100
AcDbEntity
  8
ALL_DETAIL_ITEM
100
AcDbLine
 62
7
  6
CONTINUOUS
 10
352.91612628
 20
278.5635553473
 11
354.85595457
 21
278.9129510063
  0
LINE
  5
514
100
AcDbEntity
  8
ALL_DETAIL_ITEM
100
AcDbLine
 62
7
  6
CONTINUOUS
 10
354.85595457
 20
278.9129510063
 11
359.2993174045
 21
279.6333908528
  0
LINE
  5
515
100
AcDbEntity
  8
ALL_DETAIL_ITEM
100
AcDbLine
 62
7
  6
CONTINUOUS
 10
364.0506244875
 20
298.2688960208
 11
363.7083587705
 21
297.9200400408
  0
LINE
  5
516
100
AcDbEntity
  8
ALL_DETAIL_ITEM
100
AcDbLine
 62
7
  6
CONTINUOUS
 10
363.7083587705
 20
297.9200400408
 11
362.7175397325
 21
297.5704153423
  0
LINE
  5
517
100
AcDbEntity
  8
ALL_DETAIL_ITEM
100
AcDbLine
 62
7
  6
CONTINUOUS
 10
362.7175397325
 20
297.5704153423
 11
361.182838722
 21
297.2231898293
  0
LINE
  5
518
100
AcDbEntity
  8
ALL_DETAIL_ITEM
100
AcDbLine
 62
7
  6
CONTINUOUS
 10
361.182838722
 20
297.2231898293
 11
359.238185451
 21
296.8730803298
  0
LINE
  5
519
100
AcDbEntity
  8
ALL_DETAIL_ITEM
100
AcDbLine
 62
7
  6
CONTINUOUS
 10
359.238185451
 20
296.8730803298
 11
354.830295007
 21
296.1603653183
  0
LINE
  5
51A
100
AcDbEntity
  8
ALL_DETAIL_ITEM
100
AcDbLine
 62
7
  6
CONTINUOUS
 10
350.0506244875
 20
284.5181597358
 11
350.3992681295
 21
284.8706123978
  0
LINE
  5
51B
100
AcDbEntity
  8
ALL_DETAIL_ITEM
100
AcDbLine
 62
7
  6
CONTINUOUS
 10
350.3992681295
 20
284.8706123978
 11
351.4367064735
 21
285.2305172068
  0
LINE
  5
51C
100
AcDbEntity
  8
ALL_DETAIL_ITEM
100
AcDbLine
 62
7
  6
CONTINUOUS
 10
351.4367064735
 20
285.2305172068
 11
353.00240203
 21
285.5811457628
  0
LINE
  5
51D
100
AcDbEntity
  8
ALL_DETAIL_ITEM
100
AcDbLine
 62
7
  6
CONTINUOUS
 10
353.00240203
 20
285.5811457628
 11
354.9251298445
 21
285.9237456988
  0
LINE
  5
51E
100
AcDbEntity
  8
ALL_DETAIL_ITEM
100
AcDbLine
 62
7
  6
CONTINUOUS
 10
354.9251298445
 20
285.9237456988
 11
359.19518799
 21
286.6152696613
  0
LINE
  5
51F
100
AcDbEntity
  8
ALL_DETAIL_ITEM
100
AcDbLine
 62
7
  6
CONTINUOUS
 10
350.2756638705
 20
302.0517189198
 11
349.580727293
 21
301.6134485363
  0
LINE
  5
520
100
AcDbEntity
  8
ALL_DETAIL_ITEM
100
AcDbLine
 62
7
  6
CONTINUOUS
 10
349.580727293
 20
301.6134485363
 11
348.4175902975
 21
300.8949831883
  0
LINE
  5
521
100
AcDbEntity
  8
ALL_DETAIL_ITEM
100
AcDbLine
 62
7
  6
CONTINUOUS
 10
348.4175902975
 20
300.8949831883
 11
347.461010649
 21
300.3143057328
  0
LINE
  5
522
100
AcDbEntity
  8
ALL_DETAIL_ITEM
100
AcDbLine
 62
7
  6
CONTINUOUS
 10
350.2735899995
 20
295.0520837553
 11
349.5776666045
 21
294.6135094663
  0
LINE
  5
523
100
AcDbEntity
  8
ALL_DETAIL_ITEM
100
AcDbLine
 62
7
  6
CONTINUOUS
 10
349.5776666045
 20
294.6135094663
 11
348.4171540595
 21
293.8967123428
  0
LINE
  5
524
100
AcDbEntity
  8
ALL_DETAIL_ITEM
100
AcDbLine
 62
7
  6
CONTINUOUS
 10
348.4171540595
 20
293.8967123428
 11
347.462857711
 21
293.3171513588
  0
LINE
  5
525
100
AcDbEntity
  8
ALL_DETAIL_ITEM
100
AcDbLine
 62
7
  6
CONTINUOUS
 10
350.272122972
 20
288.0508306903
 11
349.5760614425
 21
287.6123703663
  0
LINE
  5
526
100
AcDbEntity
  8
ALL_DETAIL_ITEM
100
AcDbLine
 62
7
  6
CONTINUOUS
 10
349.5760614425
 20
287.6123703663
 11
348.414114426
 21
286.8952156013
  0
LINE
  5
527
100
AcDbEntity
  8
ALL_DETAIL_ITEM
100
AcDbLine
 62
7
  6
CONTINUOUS
 10
348.414114426
 20
286.8952156013
 11
347.4583570105
 21
286.3152276988
  0
LINE
  5
528
100
AcDbEntity
  8
ALL_DETAIL_ITEM
100
AcDbLine
 62
7
  6
CONTINUOUS
 10
363.7995492895
 20
301.7182807643
 11
365.360132315
 21
302.6405131583
  0
LINE
  5
529
100
AcDbEntity
  8
ALL_DETAIL_ITEM
100
AcDbLine
 62
7
  6
CONTINUOUS
 10
363.795449174
 20
308.7160939938
 11
365.673823966
 21
309.8251847748
  0
LINE
  5
52A
100
AcDbEntity
  8
ALL_DETAIL_ITEM
100
AcDbLine
 62
7
  6
CONTINUOUS
 10
365.673823966
 20
309.8251847748
 11
366.6299059105
 21
310.3836360408
  0
LINE
  5
52B
100
AcDbEntity
  8
ALL_DETAIL_ITEM
100
AcDbLine
 62
7
  6
CONTINUOUS
 10
365.360132315
 20
302.6405131583
 11
366.463064844
 21
303.2855976078
  0
LINE
  5
52C
100
AcDbEntity
  8
ALL_DETAIL_ITEM
100
AcDbLine
 62
7
  6
CONTINUOUS
 10
350.2721322675
 20
288.0505968608
 11
350.396142339
 21
288.1211367098
  0
LINE
  5
52D
100
AcDbEntity
  8
ALL_DETAIL_ITEM
100
AcDbLine
 62
7
  6
CONTINUOUS
 10
350.396142339
 20
288.1211367098
 11
351.4178065965
 21
288.4781226078
  0
LINE
  5
52E
100
AcDbEntity
  8
ALL_DETAIL_ITEM
100
AcDbLine
 62
7
  6
CONTINUOUS
 10
351.4178065965
 20
288.4781226078
 11
352.957232689
 21
288.8233722383
  0
LINE
  5
52F
100
AcDbEntity
  8
ALL_DETAIL_ITEM
100
AcDbLine
 62
7
  6
CONTINUOUS
 10
352.957232689
 20
288.8233722383
 11
354.8721447415
 21
289.1670542038
  0
LINE
  5
530
100
AcDbEntity
  8
ALL_DETAIL_ITEM
100
AcDbLine
 62
7
  6
CONTINUOUS
 10
366.630386857
 20
303.3831080458
 11
366.6004313395
 21
303.3663013193
  0
LINE
  5
531
100
AcDbEntity
  8
ALL_DETAIL_ITEM
100
AcDbLine
 62
7
  6
CONTINUOUS
 10
366.6299059105
 20
310.3836360408
 11
366.40844907
 21
310.2788696253
  0
LINE
  5
532
100
AcDbEntity
  8
ALL_DETAIL_ITEM
100
AcDbLine
 62
7
  6
CONTINUOUS
 10
366.40844907
 20
310.2788696253
 11
365.2594152275
 21
309.9646619753
  0
LINE
  5
533
100
AcDbEntity
  8
ALL_DETAIL_ITEM
100
AcDbLine
 62
7
  6
CONTINUOUS
 10
365.2594152275
 20
309.9646619753
 11
363.460371095
 21
309.6504543248
  0
LINE
  5
534
100
AcDbEntity
  8
ALL_DETAIL_ITEM
100
AcDbLine
 62
7
  6
CONTINUOUS
 10
363.460371095
 20
309.6504543248
 11
361.157656704
 21
309.3362466743
  0
LINE
  5
535
100
AcDbEntity
  8
ALL_DETAIL_ITEM
100
AcDbLine
 62
7
  6
CONTINUOUS
 10
361.157656704
 20
309.3362466743
 11
358.527984196
 21
309.0220390243
  0
LINE
  5
536
100
AcDbEntity
  8
ALL_DETAIL_ITEM
100
AcDbLine
 62
7
  6
CONTINUOUS
 10
358.527984196
 20
309.0220390243
 11
355.782965367
 21
308.7078313738
  0
LINE
  5
537
100
AcDbEntity
  8
ALL_DETAIL_ITEM
100
AcDbLine
 62
7
  6
CONTINUOUS
 10
355.782965367
 20
308.7078313738
 11
353.1367943205
 21
308.3936237238
  0
LINE
  5
538
100
AcDbEntity
  8
ALL_DETAIL_ITEM
100
AcDbLine
 62
7
  6
CONTINUOUS
 10
353.1367943205
 20
308.3936237238
 11
350.80067168
 21
308.0794160733
  0
LINE
  5
539
100
AcDbEntity
  8
ALL_DETAIL_ITEM
100
AcDbLine
 62
7
  6
CONTINUOUS
 10
350.80067168
 20
308.0794160733
 11
348.9577429195
 21
307.7652084233
  0
LINE
  5
53A
100
AcDbEntity
  8
ALL_DETAIL_ITEM
100
AcDbLine
 62
7
  6
CONTINUOUS
 10
348.9577429195
 20
307.7652084233
 11
347.7575409715
 21
307.4510007728
  0
LINE
  5
53B
100
AcDbEntity
  8
ALL_DETAIL_ITEM
100
AcDbLine
 62
7
  6
CONTINUOUS
 10
347.7575409715
 20
307.4510007728
 11
347.4563849955
 21
307.3129902058
  0
LINE
  5
53C
100
AcDbEntity
  8
ALL_DETAIL_ITEM
100
AcDbLine
 62
7
  6
CONTINUOUS
 10
366.630984224
 20
317.3833952673
 11
366.158916819
 21
317.1914379313
  0
LINE
  5
53D
100
AcDbEntity
  8
ALL_DETAIL_ITEM
100
AcDbLine
 62
7
  6
CONTINUOUS
 10
366.158916819
 20
317.1914379313
 11
364.8168411705
 21
316.8772302813
  0
LINE
  5
53E
100
AcDbEntity
  8
ALL_DETAIL_ITEM
100
AcDbLine
 62
7
  6
CONTINUOUS
 10
364.8168411705
 20
316.8772302813
 11
362.864755056
 21
316.5630226308
  0
LINE
  5
53F
100
AcDbEntity
  8
ALL_DETAIL_ITEM
100
AcDbLine
 62
7
  6
CONTINUOUS
 10
362.864755056
 20
316.5630226308
 11
360.449176957
 21
316.2488149803
  0
LINE
  5
540
100
AcDbEntity
  8
ALL_DETAIL_ITEM
100
AcDbLine
 62
7
  6
CONTINUOUS
 10
360.449176957
 20
316.2488149803
 11
357.7670906775
 21
315.9346073303
  0
LINE
  5
541
100
AcDbEntity
  8
ALL_DETAIL_ITEM
100
AcDbLine
 62
7
  6
CONTINUOUS
 10
357.7670906775
 20
315.9346073303
 11
355.027061478
 21
315.6203996798
  0
LINE
  5
542
100
AcDbEntity
  8
ALL_DETAIL_ITEM
100
AcDbLine
 62
7
  6
CONTINUOUS
 10
355.027061478
 20
315.6203996798
 11
352.447541424
 21
315.3061920298
  0
LINE
  5
543
100
AcDbEntity
  8
ALL_DETAIL_ITEM
100
AcDbLine
 62
7
  6
CONTINUOUS
 10
352.447541424
 20
315.3061920298
 11
350.230990475
 21
314.9919843793
  0
LINE
  5
544
100
AcDbEntity
  8
ALL_DETAIL_ITEM
100
AcDbLine
 62
7
  6
CONTINUOUS
 10
350.230990475
 20
314.9919843793
 11
348.555683883
 21
314.6777767293
  0
LINE
  5
545
100
AcDbEntity
  8
ALL_DETAIL_ITEM
100
AcDbLine
 62
7
  6
CONTINUOUS
 10
348.555683883
 20
314.6777767293
 11
347.5488694285
 21
314.3635690788
  0
LINE
  5
546
100
AcDbEntity
  8
ALL_DETAIL_ITEM
100
AcDbLine
 62
7
  6
CONTINUOUS
 10
347.5488694285
 20
314.3635690788
 11
347.4556909755
 21
314.3132844883
  0
LINE
  5
547
100
AcDbEntity
  8
ALL_DETAIL_ITEM
100
AcDbLine
 62
7
  6
CONTINUOUS
 10
363.7899290075
 20
304.9650106568
 11
362.9695332745
 21
304.6404475923
  0
LINE
  5
548
100
AcDbEntity
  8
ALL_DETAIL_ITEM
100
AcDbLine
 62
7
  6
CONTINUOUS
 10
362.9695332745
 20
304.6404475923
 11
361.640377286
 21
304.3163653918
  0
LINE
  5
549
100
AcDbEntity
  8
ALL_DETAIL_ITEM
100
AcDbLine
 62
7
  6
CONTINUOUS
 10
361.640377286
 20
304.3163653918
 11
359.9667123915
 21
303.9973588183
  0
LINE
  5
54A
100
AcDbEntity
  8
ALL_DETAIL_ITEM
100
AcDbLine
 62
7
  6
CONTINUOUS
 10
359.9667123915
 20
303.9973588183
 11
358.0599625385
 21
303.6807739548
  0
LINE
  5
54B
100
AcDbEntity
  8
ALL_DETAIL_ITEM
100
AcDbLine
 62
7
  6
CONTINUOUS
 10
358.0599625385
 20
303.6807739548
 11
356.079984439
 21
303.3637440123
  0
LINE
  5
54C
100
AcDbEntity
  8
ALL_DETAIL_ITEM
100
AcDbLine
 62
7
  6
CONTINUOUS
 10
356.079984439
 20
303.3637440123
 11
354.157617091
 21
303.0444395523
  0
LINE
  5
54D
100
AcDbEntity
  8
ALL_DETAIL_ITEM
100
AcDbLine
 62
7
  6
CONTINUOUS
 10
354.157617091
 20
303.0444395523
 11
352.4847102825
 21
302.7278276613
  0
LINE
  5
54E
100
AcDbEntity
  8
ALL_DETAIL_ITEM
100
AcDbLine
 62
7
  6
CONTINUOUS
 10
352.4847102825
 20
302.7278276613
 11
351.156261698
 21
302.4044492883
  0
LINE
  5
54F
100
AcDbEntity
  8
ALL_DETAIL_ITEM
100
AcDbLine
 62
7
  6
CONTINUOUS
 10
351.156261698
 20
302.4044492883
 11
350.329814226
 21
302.0843952733
  0
LINE
  5
550
100
AcDbEntity
  8
ALL_DETAIL_ITEM
100
AcDbLine
 62
7
  6
CONTINUOUS
 10
350.329814226
 20
302.0843952733
 11
350.2756563845
 21
302.0519057693
  0
LINE
  5
551
100
AcDbEntity
  8
ALL_DETAIL_ITEM
100
AcDbLine
 62
7
  6
CONTINUOUS
 10
366.6004313395
 20
303.3663013193
 11
365.6456054275
 21
303.0520936693
  0
LINE
  5
552
100
AcDbEntity
  8
ALL_DETAIL_ITEM
100
AcDbLine
 62
7
  6
CONTINUOUS
 10
364.0506244875
 20
270.2695718153
 11
363.767430421
 21
269.9518387008
  0
LINE
  5
553
100
AcDbEntity
  8
ALL_DETAIL_ITEM
100
AcDbLine
 62
7
  6
CONTINUOUS
 10
363.767430421
 20
269.9518387008
 11
362.9349800755
 21
269.6314851783
  0
LINE
  5
554
100
AcDbEntity
  8
ALL_DETAIL_ITEM
100
AcDbLine
 62
7
  6
CONTINUOUS
 10
362.9349800755
 20
269.6314851783
 11
361.650374647
 21
269.3187081828
  0
LINE
  5
555
100
AcDbEntity
  8
ALL_DETAIL_ITEM
100
AcDbLine
 62
7
  6
CONTINUOUS
 10
361.650374647
 20
269.3187081828
 11
360.002816065
 21
269.0046053503
  0
LINE
  5
556
100
AcDbEntity
  8
ALL_DETAIL_ITEM
100
AcDbLine
 62
7
  6
CONTINUOUS
 10
360.002816065
 20
269.0046053503
 11
358.0805236925
 21
268.6842928818
  0
LINE
  5
557
100
AcDbEntity
  8
ALL_DETAIL_ITEM
100
AcDbLine
 62
7
  6
CONTINUOUS
 10
364.0506244875
 20
277.2693270013
 11
363.715390431
 21
276.9238189853
  0
LINE
  5
558
100
AcDbEntity
  8
ALL_DETAIL_ITEM
100
AcDbLine
 62
7
  6
CONTINUOUS
 10
363.715390431
 20
276.9238189853
 11
362.720420734
 21
276.5709455118
  0
LINE
  5
559
100
AcDbEntity
  8
ALL_DETAIL_ITEM
100
AcDbLine
 62
7
  6
CONTINUOUS
 10
362.720420734
 20
276.5709455118
 11
361.152681988
 21
276.2174236678
  0
LINE
  5
55A
100
AcDbEntity
  8
ALL_DETAIL_ITEM
100
AcDbLine
 62
7
  6
CONTINUOUS
 10
361.152681988
 20
276.2174236678
 11
359.215503661
 21
275.8704206953
  0
LINE
  5
55B
100
AcDbEntity
  8
ALL_DETAIL_ITEM
100
AcDbLine
 62
7
  6
CONTINUOUS
 10
359.215503661
 20
275.8704206953
 11
357.058107218
 21
275.5191384818
  0
LINE
  5
55C
100
AcDbEntity
  8
ALL_DETAIL_ITEM
100
AcDbLine
 62
7
  6
CONTINUOUS
 10
357.058107218
 20
275.5191384818
 11
354.909436116
 21
275.1736550298
  0
LINE
  5
55D
100
AcDbEntity
  8
ALL_DETAIL_ITEM
100
AcDbLine
 62
7
  6
CONTINUOUS
 10
354.909436116
 20
275.1736550298
 11
352.970743143
 21
274.8257985928
  0
LINE
  5
55E
100
AcDbEntity
  8
ALL_DETAIL_ITEM
100
AcDbLine
 62
7
  6
CONTINUOUS
 10
352.970743143
 20
274.8257985928
 11
351.3932849445
 21
274.4713451618
  0
LINE
  5
55F
100
AcDbEntity
  8
ALL_DETAIL_ITEM
100
AcDbLine
 62
7
  6
CONTINUOUS
 10
351.3932849445
 20
274.4713451618
 11
350.386567206
 21
274.1155764793
  0
LINE
  5
560
100
AcDbEntity
  8
ALL_DETAIL_ITEM
100
AcDbLine
 62
7
  6
CONTINUOUS
 10
350.386567206
 20
274.1155764793
 11
350.2706378995
 21
274.0490970343
  0
LINE
  5
561
100
AcDbEntity
  8
ALL_DETAIL_ITEM
100
AcDbLine
 62
7
  6
CONTINUOUS
 10
366.625456763
 20
282.3823431463
 11
366.809739863
 21
282.5611835763
  0
LINE
  5
562
100
AcDbEntity
  8
ALL_DETAIL_ITEM
100
AcDbLine
 62
7
  6
CONTINUOUS
 10
366.809739863
 20
282.5611835763
 11
366.644053813
 21
282.8145357298
  0
LINE
  5
563
100
AcDbEntity
  8
ALL_DETAIL_ITEM
100
AcDbLine
 62
7
  6
CONTINUOUS
 10
350.2745176675
 20
281.0522902998
 11
349.5776925065
 21
280.6130631448
  0
LINE
  5
564
100
AcDbEntity
  8
ALL_DETAIL_ITEM
100
AcDbLine
 62
7
  6
CONTINUOUS
 10
349.5776925065
 20
280.6130631448
 11
348.414877586
 21
279.8950674873
  0
LINE
  5
565
100
AcDbEntity
  8
ALL_DETAIL_ITEM
100
AcDbLine
 62
7
  6
CONTINUOUS
 10
348.414877586
 20
279.8950674873
 11
347.4586262355
 21
279.3147254988
  0
LINE
  5
566
100
AcDbEntity
  8
ALL_DETAIL_ITEM
100
AcDbLine
 62
7
  6
CONTINUOUS
 10
350.27062343
 20
274.0494627393
 11
349.614566198
 21
273.6361202743
  0
LINE
  5
567
100
AcDbEntity
  8
ALL_DETAIL_ITEM
100
AcDbLine
 62
7
  6
CONTINUOUS
 10
349.614566198
 20
273.6361202743
 11
348.4641199435
 21
272.9256515658
  0
LINE
  5
568
100
AcDbEntity
  8
ALL_DETAIL_ITEM
100
AcDbLine
 62
7
  6
CONTINUOUS
 10
348.4641199435
 20
272.9256515658
 11
347.4573237495
 21
272.3146188658
  0
LINE
  5
569
100
AcDbEntity
  8
ALL_DETAIL_ITEM
100
AcDbLine
 62
7
  6
CONTINUOUS
 10
363.793162301
 20
280.7152165798
 11
365.695025478
 21
281.8386407338
  0
LINE
  5
56A
100
AcDbEntity
  8
ALL_DETAIL_ITEM
100
AcDbLine
 62
7
  6
CONTINUOUS
 10
365.695025478
 20
281.8386407338
 11
366.625456763
 21
282.3823431463
  0
LINE
  5
56B
100
AcDbEntity
  8
ALL_DETAIL_ITEM
100
AcDbLine
 62
7
  6
CONTINUOUS
 10
363.794946737
 20
294.7153163123
 11
365.697107832
 21
295.8385347078
  0
LINE
  5
56C
100
AcDbEntity
  8
ALL_DETAIL_ITEM
100
AcDbLine
 62
7
  6
CONTINUOUS
 10
365.697107832
 20
295.8385347078
 11
366.626692663
 21
296.3816597683
  0
LINE
  5
56D
100
AcDbEntity
  8
ALL_DETAIL_ITEM
100
AcDbLine
 62
7
  6
CONTINUOUS
 10
363.7944362575
 20
287.7155335718
 11
365.697409868
 21
288.8392642498
  0
LINE
  5
56E
100
AcDbEntity
  8
ALL_DETAIL_ITEM
100
AcDbLine
 62
7
  6
CONTINUOUS
 10
365.697409868
 20
288.8392642498
 11
366.628057685
 21
289.3829332073
  0
LINE
  5
56F
100
AcDbEntity
  8
ALL_DETAIL_ITEM
100
AcDbLine
 62
7
  6
CONTINUOUS
 10
347.050624509
 20
267.3592928943
 11
349.345591824
 21
268.6842928913
  0
LINE
  5
570
100
AcDbEntity
  8
ALL_DETAIL_ITEM
100
AcDbLine
 62
7
  6
CONTINUOUS
 10
347.4573237495
 20
272.3146188658
 11
347.642218801
 21
272.4062955013
  0
LINE
  5
571
100
AcDbEntity
  8
ALL_DETAIL_ITEM
100
AcDbLine
 62
7
  6
CONTINUOUS
 10
347.642218801
 20
272.4062955013
 11
348.811232883
 21
272.7343313818
  0
LINE
  5
572
100
AcDbEntity
  8
ALL_DETAIL_ITEM
100
AcDbLine
 62
7
  6
CONTINUOUS
 10
348.811232883
 20
272.7343313818
 11
350.685987951
 21
273.0623077323
  0
LINE
  5
573
100
AcDbEntity
  8
ALL_DETAIL_ITEM
100
AcDbLine
 62
7
  6
CONTINUOUS
 10
350.685987951
 20
273.0623077323
 11
353.1072007285
 21
273.3898079298
  0
LINE
  5
574
100
AcDbEntity
  8
ALL_DETAIL_ITEM
100
AcDbLine
 62
7
  6
CONTINUOUS
 10
353.1072007285
 20
273.3898079298
 11
355.8667267315
 21
273.7175821798
  0
LINE
  5
575
100
AcDbEntity
  8
ALL_DETAIL_ITEM
100
AcDbLine
 62
7
  6
CONTINUOUS
 10
355.8667267315
 20
273.7175821798
 11
358.7353832015
 21
274.0459896598
  0
LINE
  5
576
100
AcDbEntity
  8
ALL_DETAIL_ITEM
100
AcDbLine
 62
7
  6
CONTINUOUS
 10
358.7353832015
 20
274.0459896598
 11
361.4450649525
 21
274.3727178093
  0
LINE
  5
577
100
AcDbEntity
  8
ALL_DETAIL_ITEM
100
AcDbLine
 62
7
  6
CONTINUOUS
 10
361.4450649525
 20
274.3727178093
 11
363.779853526
 21
274.6994069573
  0
LINE
  5
578
100
AcDbEntity
  8
ALL_DETAIL_ITEM
100
AcDbLine
 62
7
  6
CONTINUOUS
 10
363.779853526
 20
274.6994069573
 11
365.546065823
 21
275.0280059128
  0
LINE
  5
579
100
AcDbEntity
  8
ALL_DETAIL_ITEM
100
AcDbLine
 62
7
  6
CONTINUOUS
 10
365.546065823
 20
275.0280059128
 11
366.6294785205
 21
275.3826570083
  0
LINE
  5
57A
100
AcDbEntity
  8
ALL_DETAIL_ITEM
100
AcDbLine
 62
7
  6
CONTINUOUS
 10
366.628057685
 20
289.3829332073
 11
366.268326071
 21
289.2269570573
  0
LINE
  5
57B
100
AcDbEntity
  8
ALL_DETAIL_ITEM
100
AcDbLine
 62
7
  6
CONTINUOUS
 10
366.268326071
 20
289.2269570573
 11
365.0040263565
 21
288.9127494068
  0
LINE
  5
57C
100
AcDbEntity
  8
ALL_DETAIL_ITEM
100
AcDbLine
 62
7
  6
CONTINUOUS
 10
365.0040263565
 20
288.9127494068
 11
363.111906909
 21
288.5985417563
  0
LINE
  5
57D
100
AcDbEntity
  8
ALL_DETAIL_ITEM
100
AcDbLine
 62
7
  6
CONTINUOUS
 10
363.111906909
 20
288.5985417563
 11
360.7387658595
 21
288.2843341063
  0
LINE
  5
57E
100
AcDbEntity
  8
ALL_DETAIL_ITEM
100
AcDbLine
 62
7
  6
CONTINUOUS
 10
360.7387658595
 20
288.2843341063
 11
358.0770742085
 21
287.9701264558
  0
LINE
  5
57F
100
AcDbEntity
  8
ALL_DETAIL_ITEM
100
AcDbLine
 62
7
  6
CONTINUOUS
 10
358.0770742085
 20
287.9701264558
 11
355.332855892
 21
287.6559188058
  0
LINE
  5
580
100
AcDbEntity
  8
ALL_DETAIL_ITEM
100
AcDbLine
 62
7
  6
CONTINUOUS
 10
355.332855892
 20
287.6559188058
 11
352.724428297
 21
287.3417111553
  0
LINE
  5
581
100
AcDbEntity
  8
ALL_DETAIL_ITEM
100
AcDbLine
 62
7
  6
CONTINUOUS
 10
352.724428297
 20
287.3417111553
 11
350.4582282885
 21
287.0275035053
  0
LINE
  5
582
100
AcDbEntity
  8
ALL_DETAIL_ITEM
100
AcDbLine
 62
7
  6
CONTINUOUS
 10
350.4582282885
 20
287.0275035053
 11
348.712072713
 21
286.7132958548
  0
LINE
  5
583
100
AcDbEntity
  8
ALL_DETAIL_ITEM
100
AcDbLine
 62
7
  6
CONTINUOUS
 10
348.712072713
 20
286.7132958548
 11
347.6248061205
 21
286.3990882048
  0
LINE
  5
584
100
AcDbEntity
  8
ALL_DETAIL_ITEM
100
AcDbLine
 62
7
  6
CONTINUOUS
 10
347.6248061205
 20
286.3990882048
 11
347.4583570105
 21
286.3152276988
  0
LINE
  5
585
100
AcDbEntity
  8
ALL_DETAIL_ITEM
100
AcDbLine
 62
7
  6
CONTINUOUS
 10
366.626692663
 20
296.3816597683
 11
365.986631943
 21
296.1395253633
  0
LINE
  5
586
100
AcDbEntity
  8
ALL_DETAIL_ITEM
100
AcDbLine
 62
7
  6
CONTINUOUS
 10
365.986631943
 20
296.1395253633
 11
364.5348950745
 21
295.8253177128
  0
LINE
  5
587
100
AcDbEntity
  8
ALL_DETAIL_ITEM
100
AcDbLine
 62
7
  6
CONTINUOUS
 10
364.5348950745
 20
295.8253177128
 11
362.4916677515
 21
295.5111100623
  0
LINE
  5
588
100
AcDbEntity
  8
ALL_DETAIL_ITEM
100
AcDbLine
 62
7
  6
CONTINUOUS
 10
362.4916677515
 20
295.5111100623
 11
360.018882298
 21
295.1969024123
  0
LINE
  5
589
100
AcDbEntity
  8
ALL_DETAIL_ITEM
100
AcDbLine
 62
7
  6
CONTINUOUS
 10
347.4586262355
 20
279.3147254988
 11
348.2858977515
 21
279.6124932278
  0
LINE
  5
58A
100
AcDbEntity
  8
ALL_DETAIL_ITEM
100
AcDbLine
 62
7
  6
CONTINUOUS
 10
348.2858977515
 20
279.6124932278
 11
349.9144236435
 21
279.9400179938
  0
LINE
  5
58B
100
AcDbEntity
  8
ALL_DETAIL_ITEM
100
AcDbLine
 62
7
  6
CONTINUOUS
 10
349.9144236435
 20
279.9400179938
 11
352.148300391
 21
280.2672142188
  0
LINE
  5
58C
100
AcDbEntity
  8
ALL_DETAIL_ITEM
100
AcDbLine
 62
7
  6
CONTINUOUS
 10
352.148300391
 20
280.2672142188
 11
354.8028960725
 21
280.5941116698
  0
LINE
  5
58D
100
AcDbEntity
  8
ALL_DETAIL_ITEM
100
AcDbLine
 62
7
  6
CONTINUOUS
 10
354.8028960725
 20
280.5941116698
 11
357.6460735345
 21
280.9208795273
  0
LINE
  5
58E
100
AcDbEntity
  8
ALL_DETAIL_ITEM
100
AcDbLine
 62
7
  6
CONTINUOUS
 10
357.6460735345
 20
280.9208795273
 11
360.448610899
 21
281.2487717588
  0
LINE
  5
58F
100
AcDbEntity
  8
ALL_DETAIL_ITEM
100
AcDbLine
 62
7
  6
CONTINUOUS
 10
360.448610899
 20
281.2487717588
 11
362.9631132275
 21
281.5771205558
  0
LINE
  5
590
100
AcDbEntity
  8
ALL_DETAIL_ITEM
100
AcDbLine
 62
7
  6
CONTINUOUS
 10
362.9631132275
 20
281.5771205558
 11
364.961874052
 21
281.9046092723
  0
LINE
  5
591
100
AcDbEntity
  8
ALL_DETAIL_ITEM
100
AcDbLine
 62
7
  6
CONTINUOUS
 10
364.961874052
 20
281.9046092723
 11
366.283307331
 21
282.2324087593
  0
LINE
  5
592
100
AcDbEntity
  8
ALL_DETAIL_ITEM
100
AcDbLine
 62
7
  6
CONTINUOUS
 10
366.283307331
 20
282.2324087593
 11
366.625456763
 21
282.3823431463
  0
LINE
  5
593
100
AcDbEntity
  8
ALL_DETAIL_ITEM
100
AcDbLine
 62
7
  6
CONTINUOUS
 10
366.6282361615
 20
268.3823087228
 11
366.7564696475
 21
268.4773762993
  0
LINE
  5
594
100
AcDbEntity
  8
ALL_DETAIL_ITEM
100
AcDbLine
 62
7
  6
CONTINUOUS
 10
366.7564696475
 20
268.4773762993
 11
366.643797175
 21
268.8147014533
  0
LINE
  5
595
100
AcDbEntity
  8
ALL_DETAIL_ITEM
100
AcDbLine
 62
7
  6
CONTINUOUS
 10
363.7977019225
 20
273.7169765968
 11
365.699755224
 21
274.8396371948
  0
LINE
  5
596
100
AcDbEntity
  8
ALL_DETAIL_ITEM
100
AcDbLine
 62
7
  6
CONTINUOUS
 10
365.699755224
 20
274.8396371948
 11
366.6294785205
 21
275.3826570083
  0
LINE
  5
597
100
AcDbEntity
  8
ALL_DETAIL_ITEM
100
AcDbLine
 62
7
  6
CONTINUOUS
 10
365.8551743925
 20
267.9309228293
 11
366.6282361615
 21
268.3823087228
  0
LINE
  5
598
100
AcDbEntity
  8
ALL_DETAIL_ITEM
100
AcDbLine
 62
7
  6
CONTINUOUS
 10
365.855340076
 20
267.9308278998
 11
365.812541086
 21
267.9097954933
  0
LINE
  5
599
100
AcDbEntity
  8
ALL_DETAIL_ITEM
100
AcDbLine
 62
7
  6
CONTINUOUS
 10
365.812541086
 20
267.9097954933
 11
365.1856327685
 21
267.7688110243
  0
LINE
  5
59A
100
AcDbEntity
  8
ALL_DETAIL_ITEM
100
AcDbLine
 62
7
  6
CONTINUOUS
 10
365.1856327685
 20
267.7688110243
 11
364.016489442
 21
267.6301610383
  0
LINE
  5
59B
100
AcDbEntity
  8
ALL_DETAIL_ITEM
100
AcDbLine
 62
7
  6
CONTINUOUS
 10
364.016489442
 20
267.6301610383
 11
362.359827254
 21
267.4930171138
  0
LINE
  5
59C
100
AcDbEntity
  8
ALL_DETAIL_ITEM
100
AcDbLine
 62
7
  6
CONTINUOUS
 10
366.872464609
 20
244.5933837913
 11
367.2112673615
 21
244.6906356123
  0
LINE
  5
59D
100
AcDbEntity
  8
ALL_DETAIL_ITEM
100
AcDbLine
 62
7
  6
CONTINUOUS
 10
367.2112673615
 20
244.6906356123
 11
367.551439072
 21
244.7924705318
  0
LINE
  5
59E
100
AcDbEntity
  8
ALL_DETAIL_ITEM
100
AcDbLine
 62
7
  6
CONTINUOUS
 10
367.551439072
 20
244.7924705318
 11
367.8928872795
 21
244.8989556708
  0
LINE
  5
59F
100
AcDbEntity
  8
ALL_DETAIL_ITEM
100
AcDbLine
 62
7
  6
CONTINUOUS
 10
449.6489940945
 20
643.6842928818
 11
194.8380231995
 21
643.6842928818
  0
ARC
  5
5A0
100
AcDbEntity
  8
ALL_DETAIL_ITEM
100
AcDbCircle
 62
7
  6
CONTINUOUS
 10
387.5506244875
 20
318.6842928818
 40
37.5
100
AcDbArc
 50
169.2066012783
 51
173.2711946084
  0
ARC
  5
5A1
100
AcDbEntity
  8
ALL_DETAIL_ITEM
100
AcDbCircle
 62
7
  6
CONTINUOUS
 10
326.5506244875
 20
318.6842928818
 40
37.5
100
AcDbArc
 50
0.8985369855
 51
6.2616935353
  0
ARC
  5
5A2
100
AcDbEntity
  8
ALL_DETAIL_ITEM
100
AcDbCircle
 62
7
  6
CONTINUOUS
 10
355.5979026855
 20
274.3202408613
 40
30.931246271
100
AcDbArc
 50
235.1135572862
 51
252.0235228496
  0
ARC
  5
5A3
100
AcDbEntity
  8
ALL_DETAIL_ITEM
100
AcDbCircle
 62
7
  6
CONTINUOUS
 10
358.5033462895
 20
274.3202408613
 40
30.931246271
100
AcDbArc
 50
287.9764771504
 51
304.8864427138
  0
ARC
  5
5A4
100
AcDbEntity
  8
ALL_DETAIL_ITEM
100
AcDbCircle
 62
7
  6
CONTINUOUS
 10
375.0506244875
 20
250.5883088913
 40
2.0
100
AcDbArc
 50
304.8864426761
 51
360.0
  0
ARC
  5
5A5
100
AcDbEntity
  8
ALL_DETAIL_ITEM
100
AcDbCircle
 62
7
  6
CONTINUOUS
 10
339.0506244875
 20
250.5883088913
 40
2.0
100
AcDbArc
 50
180.0
 51
235.1135573239
  0
ARC
  5
5A6
100
AcDbEntity
  8
ALL_DETAIL_ITEM
100
AcDbCircle
 62
7
  6
CONTINUOUS
 10
346.0506244875
 20
259.6842928818
 40
1.0
100
AcDbArc
 50
270.0
 51
360.0
  0
ARC
  5
5A7
100
AcDbEntity
  8
ALL_DETAIL_ITEM
100
AcDbCircle
 62
7
  6
CONTINUOUS
 10
368.0506244875
 20
259.6842928818
 40
1.0
100
AcDbArc
 50
180.0
 51
270.0
  0
ARC
  5
5A8
100
AcDbEntity
  8
ALL_DETAIL_ITEM
100
AcDbCircle
 62
7
  6
CONTINUOUS
 10
299.2131999185
 20
438.6842928818
 40
1.0
100
AcDbArc
 50
89.9999999999
 51
176.0
  0
CIRCLE
  5
5A9
100
AcDbEntity
  8
ALL_DETAIL_ITEM
100
AcDbCircle
 62
2
  6
CONTINUOUS
 10
214.486676652
 20
698.8995766163
 40
23.2719072505
  0
LINE
  5
5AA
100
AcDbEntity
  8
ALL_DETAIL_ITEM
100
AcDbLine
 62
2
  6
CONTINUOUS
 10
296.2415369049
 20
612.7277464438
 11
229.5582484431
 21
681.1671771848
  0
CIRCLE
  5
5AB
100
AcDbEntity
  8
ALL_DETAIL_ITEM
100
AcDbCircle
 62
2
  6
CONTINUOUS
 10
296.2414467953
 20
612.7336405667
 40
1.9328519331
  0
ENDBLK
  5
5AC
100
AcDbEntity
  8
0
  6
BYBLOCK
 62
0
100
AcDbBlockEnd
  0
BLOCK
  5
5AD
100
AcDbEntity
  8
ALL_DETAIL_ITEM
100
AcDbBlockBegin
 62
2
  6
CONTINUOUS
  2
B2B_NASLOV_RISBE_BL0
 70
64
 10
714.4524375378
 20
181.2968548075
  3
B2B_NASLOV_RISBE_BL0
  1

  0
TEXT
  5
5AE
100
AcDbEntity
  8
ALL_DETAIL_ITEM
100
AcDbText
 62
7
  6
CONTINUOUS
 10
616.291922176
 20
261.0239293002
  7
STANDARD
 40
25.0
  1
Cut-out VARIANT 40
 41
0.7658730159
 72
0
100
AcDbText
  0
TEXT
  5
5AF
100
AcDbEntity
  8
ALL_DETAIL_ITEM
100
AcDbText
 62
7
  6
CONTINUOUS
 10
701.658218752
 20
229.9426213536
  7
STANDARD
 40
17.5
  1
1:5
 41
0.6111111111
 72
0
100
AcDbText
  0
TEXT
  5
5B0
100
AcDbEntity
  8
ALL_DETAIL_ITEM
100
AcDbText
 62
7
  6
CONTINUOUS
 10
701.4345225386
 20
199.6773029536
  7
STANDARD
 40
17.5
  1
A4
 41
0.9166666667
 72
0
100
AcDbText
  0
TEXT
  5
5B1
100
AcDbEntity
  8
ALL_DETAIL_ITEM
100
AcDbText
 62
7
  6
CONTINUOUS
 10
616.5568846227
 20
154.9580297211
  7
STANDARD
 40
12.5
  1
1135108_01
 41
0.7047619048
 72
0
100
AcDbText
  0
TEXT
  5
5B2
100
AcDbEntity
  8
ALL_DETAIL_ITEM
100
AcDbText
 62
7
  6
CONTINUOUS
 10
616.4524781368
 20
175.9417004022
  7
STANDARD
 40
12.5
  1
21.04.2020
 41
0.7404761905
 72
0
100
AcDbText
  0
TEXT
  5
5B3
100
AcDbEntity
  8
ALL_DETAIL_ITEM
100
AcDbText
 62
5
  6
CONTINUOUS
 10
616.2509357226
 20
230.2921466869
  7
STANDARD
 40
17.5
  1
Scale:
 41
0.6507936508
 72
0
100
AcDbText
  0
TEXT
  5
5B4
100
AcDbEntity
  8
ALL_DETAIL_ITEM
100
AcDbText
 62
5
  6
CONTINUOUS
 10
616.1111255893
 20
199.9848852469
  7
STANDARD
 40
17.5
  1
Format:
 41
0.6904761905
 72
0
100
AcDbText
  0
TEXT
  5
5B5
100
AcDbEntity
  8
ALL_DETAIL_ITEM
100
AcDbText
 62
5
  6
CONTINUOUS
 10
467.9700957568
 20
76.5697803149
  7
STANDARD
 40
10.0
  1
Subject to modifications. Latest version is on the internet.
 41
0.676984127
 72
0
100
AcDbText
  0
LINE
  5
5B6
100
AcDbEntity
  8
ALL_DETAIL_ITEM
100
AcDbLine
 62
4
  6
CONTINUOUS
 10
638.0952262998
 20
135.4447658251
 11
620.01823471
 21
104.9055235036
  0
LINE
  5
5B7
100
AcDbEntity
  8
ALL_DETAIL_ITEM
100
AcDbLine
 62
4
  6
CONTINUOUS
 10
639.3860404473
 20
131.7359317471
 11
622.5998630043
 21
103.3773888998
  0
LINE
  5
5B8
100
AcDbEntity
  8
ALL_DETAIL_ITEM
100
AcDbLine
 62
4
  6
CONTINUOUS
 10
639.3860404473
 20
131.7359317471
 11
656.1722178895
 21
103.3773888998
  0
LINE
  5
5B9
100
AcDbEntity
  8
ALL_DETAIL_ITEM
100
AcDbLine
 62
4
  6
CONTINUOUS
 10
668.4383857818
 20
134.3840871263
 11
668.4383857818
 21
104.5372748176
  0
LINE
  5
5BA
100
AcDbEntity
  8
ALL_DETAIL_ITEM
100
AcDbLine
 62
4
  6
CONTINUOUS
 10
640.6768545948
 20
135.4447658251
 11
658.7538461845
 21
104.9055235036
  0
LINE
  5
5BB
100
AcDbEntity
  8
ALL_DETAIL_ITEM
100
AcDbLine
 62
4
  6
CONTINUOUS
 10
671.4383857848
 20
134.3840871263
 11
671.4383857848
 21
106.0372748198
  0
LINE
  5
5BC
100
AcDbEntity
  8
ALL_DETAIL_ITEM
100
AcDbLine
 62
4
  6
CONTINUOUS
 10
712.7422737933
 20
103.2633055148
 11
694.6161295795
 21
133.6962405788
  0
LINE
  5
5BD
100
AcDbEntity
  8
ALL_DETAIL_ITEM
100
AcDbLine
 62
4
  6
CONTINUOUS
 10
714.0310027225
 20
106.9621784671
 11
697.1935874388
 21
135.2313988786
  0
LINE
  5
5BE
100
AcDbEntity
  8
ALL_DETAIL_ITEM
100
AcDbLine
 62
4
  6
CONTINUOUS
 10
714.0310027225
 20
106.9621784671
 11
730.8684180063
 21
135.2313988786
  0
LINE
  5
5BF
100
AcDbEntity
  8
ALL_DETAIL_ITEM
100
AcDbLine
 62
4
  6
CONTINUOUS
 10
715.3197316518
 20
103.2633055148
 11
733.4458758655
 21
133.6962405788
  0
LINE
  5
5C0
100
AcDbEntity
  8
ALL_DETAIL_ITEM
100
AcDbLine
 62
4
  6
CONTINUOUS
 10
669.9383857833
 20
103.0372748161
 11
696.816386017
 21
103.0372748161
  0
LINE
  5
5C1
100
AcDbEntity
  8
ALL_DETAIL_ITEM
100
AcDbLine
 62
4
  6
CONTINUOUS
 10
861.0240282715
 20
103.0379085593
 11
832.9072289605
 21
103.0379085593
  0
LINE
  5
5C2
100
AcDbEntity
  8
ALL_DETAIL_ITEM
100
AcDbLine
 62
4
  6
CONTINUOUS
 10
743.614339321
 20
103.0408816658
 11
773.7106792353
 21
103.0436995936
  0
LINE
  5
5C3
100
AcDbEntity
  8
ALL_DETAIL_ITEM
100
AcDbLine
 62
4
  6
CONTINUOUS
 10
792.093799762
 20
103.0478927791
 11
813.4958044068
 21
103.0478927791
  0
LINE
  5
5C4
100
AcDbEntity
  8
ALL_DETAIL_ITEM
100
AcDbLine
 62
4
  6
CONTINUOUS
 10
696.816386017
 20
106.0372748198
 11
671.4383857848
 21
106.0372748198
  0
LINE
  5
5C5
100
AcDbEntity
  8
ALL_DETAIL_ITEM
100
AcDbLine
 62
4
  6
CONTINUOUS
 10
861.0240282715
 20
106.0379085631
 11
832.9072289605
 21
106.0379085631
  0
LINE
  5
5C6
100
AcDbEntity
  8
ALL_DETAIL_ITEM
100
AcDbLine
 62
4
  6
CONTINUOUS
 10
745.1141988745
 20
106.0410221146
 11
773.7103983445
 21
106.0436995838
  0
LINE
  5
5C7
100
AcDbEntity
  8
ALL_DETAIL_ITEM
100
AcDbLine
 62
4
  6
CONTINUOUS
 10
813.4958044068
 20
106.0478927828
 11
792.093799762
 21
106.0478927828
  0
LINE
  5
5C8
100
AcDbEntity
  8
ALL_DETAIL_ITEM
100
AcDbLine
 62
4
  6
CONTINUOUS
 10
742.1141988745
 20
133.9528599008
 11
742.1141988745
 21
104.5408816613
  0
LINE
  5
5C9
100
AcDbEntity
  8
ALL_DETAIL_ITEM
100
AcDbLine
 62
4
  6
CONTINUOUS
 10
745.1141988745
 20
132.4528110886
 11
745.1141988745
 21
120.7459021223
  0
LINE
  5
5CA
100
AcDbEntity
  8
ALL_DETAIL_ITEM
100
AcDbLine
 62
4
  6
CONTINUOUS
 10
745.1141988745
 20
117.7459021193
 11
745.1141988745
 21
106.0410221146
  0
LINE
  5
5CB
100
AcDbEntity
  8
ALL_DETAIL_ITEM
100
AcDbLine
 62
4
  6
CONTINUOUS
 10
839.26769638
 20
117.7448642476
 11
861.0240282715
 21
117.7459048111
  0
LINE
  5
5CC
100
AcDbEntity
  8
ALL_DETAIL_ITEM
100
AcDbLine
 62
4
  6
CONTINUOUS
 10
745.1141988745
 20
117.7459021193
 11
772.2700243368
 21
117.7459021193
  0
LINE
  5
5CD
100
AcDbEntity
  8
ALL_DETAIL_ITEM
100
AcDbLine
 62
4
  6
CONTINUOUS
 10
861.0240282715
 20
120.7459048141
 11
839.26769638
 21
120.7448642506
  0
LINE
  5
5CE
100
AcDbEntity
  8
ALL_DETAIL_ITEM
100
AcDbLine
 62
4
  6
CONTINUOUS
 10
745.1141988745
 20
120.7459021223
 11
772.2700243368
 21
120.7459021223
  0
LINE
  5
5CF
100
AcDbEntity
  8
ALL_DETAIL_ITEM
100
AcDbLine
 62
4
  6
CONTINUOUS
 10
745.1141988745
 20
132.4528110886
 11
773.7122986548
 21
132.4518805088
  0
LINE
  5
5D0
100
AcDbEntity
  8
ALL_DETAIL_ITEM
100
AcDbLine
 62
4
  6
CONTINUOUS
 10
839.26769638
 20
132.4528604918
 11
865.9449365943
 21
132.4528604918
  0
LINE
  5
5D1
100
AcDbEntity
  8
ALL_DETAIL_ITEM
100
AcDbLine
 62
4
  6
CONTINUOUS
 10
743.614247686
 20
135.4528599016
 11
773.7123962748
 21
135.4518805111
  0
LINE
  5
5D2
100
AcDbEntity
  8
ALL_DETAIL_ITEM
100
AcDbLine
 62
4
  6
CONTINUOUS
 10
839.26769638
 20
135.4528604956
 11
865.9449365943
 21
135.4528604956
  0
LINE
  5
5D3
100
AcDbEntity
  8
ALL_DETAIL_ITEM
100
AcDbLine
 62
4
  6
CONTINUOUS
 10
783.8437969143
 20
109.6513526866
 11
783.8431916343
 21
134.4105860168
  0
LINE
  5
5D4
100
AcDbEntity
  8
ALL_DETAIL_ITEM
100
AcDbLine
 62
4
  6
CONTINUOUS
 10
786.8437969165
 20
109.6514260268
 11
786.8431916373
 21
134.4105860168
  0
LINE
  5
5D5
100
AcDbEntity
  8
ALL_DETAIL_ITEM
100
AcDbLine
 62
4
  6
CONTINUOUS
 10
818.7464125353
 20
134.4105860168
 11
818.7458072523
 21
109.6514260261
  0
LINE
  5
5D6
100
AcDbEntity
  8
ALL_DETAIL_ITEM
100
AcDbLine
 62
4
  6
CONTINUOUS
 10
821.7464125383
 20
134.4105860168
 11
821.7458072545
 21
109.6513526858
  0
LINE
  5
5D7
100
AcDbEntity
  8
ALL_DETAIL_ITEM
100
AcDbLine
 62
4
  6
CONTINUOUS
 10
831.0177084333
 20
124.3477429726
 11
831.0177084333
 21
128.8499817698
  0
LINE
  5
5D8
100
AcDbEntity
  8
ALL_DETAIL_ITEM
100
AcDbLine
 62
4
  6
CONTINUOUS
 10
834.017708437
 20
124.3477429726
 11
834.017708437
 21
128.8499817698
  0
LINE
  5
5D9
100
AcDbEntity
  8
ALL_DETAIL_ITEM
100
AcDbLine
 62
4
  6
CONTINUOUS
 10
866.2740162205
 20
114.1430260853
 11
866.2740162205
 21
109.6407872881
  0
LINE
  5
5DA
100
AcDbEntity
  8
ALL_DETAIL_ITEM
100
AcDbLine
 62
4
  6
CONTINUOUS
 10
869.2740162243
 20
114.1430260853
 11
869.2740162243
 21
109.6407872881
  0
ARC
  5
5DB
100
AcDbEntity
  8
ALL_DETAIL_ITEM
100
AcDbCircle
 62
4
  6
CONTINUOUS
 10
743.614198876
 20
104.5408816613
 40
1.5000000015
100
AcDbArc
 50
180.0
 51
270.0053646182
  0
ARC
  5
5DC
100
AcDbEntity
  8
ALL_DETAIL_ITEM
100
AcDbCircle
 62
4
  6
CONTINUOUS
 10
669.9383857833
 20
104.5372748176
 40
1.5000000015
100
AcDbArc
 50
180.0
 51
270.0
  0
ARC
  5
5DD
100
AcDbEntity
  8
ALL_DETAIL_ITEM
100
AcDbCircle
 62
4
  6
CONTINUOUS
 10
696.816386017
 20
104.5372748176
 40
1.5000000015
100
AcDbArc
 50
270.0
 51
90.0
  0
ARC
  5
5DE
100
AcDbEntity
  8
ALL_DETAIL_ITEM
100
AcDbCircle
 62
4
  6
CONTINUOUS
 10
714.0310027225
 20
104.0308846643
 40
1.5000000015
100
AcDbArc
 50
210.7784283087
 51
329.2215716913
  0
ARC
  5
5DF
100
AcDbEntity
  8
ALL_DETAIL_ITEM
100
AcDbCircle
 62
4
  6
CONTINUOUS
 10
621.3090488568
 20
104.1414562013
 40
1.5000000015
100
AcDbArc
 50
149.3775791193
 51
329.3775791193
  0
ARC
  5
5E0
100
AcDbEntity
  8
ALL_DETAIL_ITEM
100
AcDbCircle
 62
4
  6
CONTINUOUS
 10
657.463032037
 20
104.1414562013
 40
1.5000000015
100
AcDbArc
 50
210.6224208807
 51
30.6224208807
  0
ARC
  5
5E1
100
AcDbEntity
  8
ALL_DETAIL_ITEM
100
AcDbCircle
 62
4
  6
CONTINUOUS
 10
743.614198876
 20
133.9528599008
 40
1.5000000015
100
AcDbArc
 50
89.9981356008
 51
180.0
  0
ARC
  5
5E2
100
AcDbEntity
  8
ALL_DETAIL_ITEM
100
AcDbCircle
 62
4
  6
CONTINUOUS
 10
669.9383857833
 20
134.3840871263
 40
1.5000000015
100
AcDbArc
 50
0.0
 51
180.0
  0
ARC
  5
5E3
100
AcDbEntity
  8
ALL_DETAIL_ITEM
100
AcDbCircle
 62
4
  6
CONTINUOUS
 10
732.1571469363
 20
134.4638197283
 40
1.5000000015
100
AcDbArc
 50
329.2215716913
 51
149.2215716913
  0
ARC
  5
5E4
100
AcDbEntity
  8
ALL_DETAIL_ITEM
100
AcDbCircle
 62
4
  6
CONTINUOUS
 10
695.9048585088
 20
134.4638197283
 40
1.5000000015
100
AcDbArc
 50
30.7784283087
 51
210.7784283087
  0
ARC
  5
5E5
100
AcDbEntity
  8
ALL_DETAIL_ITEM
100
AcDbCircle
 62
4
  6
CONTINUOUS
 10
639.3860404473
 20
134.6806985228
 40
1.5000000015
100
AcDbArc
 50
30.6224208807
 51
149.3775791193
  0
ARC
  5
5E6
100
AcDbEntity
  8
ALL_DETAIL_ITEM
100
AcDbCircle
 62
4
  6
CONTINUOUS
 10
861.0240282715
 20
113.5379085631
 40
10.5000000038
100
AcDbArc
 50
270.0
 51
299.9998228245
  0
ARC
  5
5E7
100
AcDbEntity
  8
ALL_DETAIL_ITEM
100
AcDbCircle
 62
4
  6
CONTINUOUS
 10
861.0240282715
 20
110.2459048111
 40
10.5000000038
100
AcDbArc
 50
60.0001771755
 51
90.0000000001
  0
ARC
  5
5E8
100
AcDbEntity
  8
ALL_DETAIL_ITEM
100
AcDbCircle
 62
4
  6
CONTINUOUS
 10
792.093799762
 20
113.5432494083
 40
10.4953566293
100
AcDbArc
 50
239.9657832688
 51
270.0
  0
ARC
  5
5E9
100
AcDbEntity
  8
ALL_DETAIL_ITEM
100
AcDbCircle
 62
4
  6
CONTINUOUS
 10
813.4958044068
 20
113.5432494083
 40
10.4953566293
100
AcDbArc
 50
270.0
 51
300.0342167312
  0
ARC
  5
5EA
100
AcDbEntity
  8
ALL_DETAIL_ITEM
100
AcDbCircle
 62
4
  6
CONTINUOUS
 10
861.0240282715
 20
110.2459048111
 40
7.5
100
AcDbArc
 50
60.0001771755
 51
89.9999999999
  0
ARC
  5
5EB
100
AcDbEntity
  8
ALL_DETAIL_ITEM
100
AcDbCircle
 62
4
  6
CONTINUOUS
 10
861.0240282715
 20
113.5379085631
 40
7.5
100
AcDbArc
 50
270.0
 51
299.9998228245
  0
ARC
  5
5EC
100
AcDbEntity
  8
ALL_DETAIL_ITEM
100
AcDbCircle
 62
4
  6
CONTINUOUS
 10
813.4958044068
 20
113.5432494083
 40
7.4953566255
100
AcDbArc
 50
270.0
 51
300.0342167312
  0
ARC
  5
5ED
100
AcDbEntity
  8
ALL_DETAIL_ITEM
100
AcDbCircle
 62
4
  6
CONTINUOUS
 10
792.093799762
 20
113.5432494083
 40
7.4953566255
100
AcDbArc
 50
239.9657832688
 51
270.0
  0
ARC
  5
5EE
100
AcDbEntity
  8
ALL_DETAIL_ITEM
100
AcDbCircle
 62
4
  6
CONTINUOUS
 10
789.8437969158
 20
109.6514993671
 40
6.0000000038
100
AcDbArc
 50
180.0014006897
 51
239.9657832688
  0
ARC
  5
5EF
100
AcDbEntity
  8
ALL_DETAIL_ITEM
100
AcDbCircle
 62
4
  6
CONTINUOUS
 10
815.745807253
 20
109.6514993671
 40
6.0000000038
100
AcDbArc
 50
300.0342167312
 51
359.9985993027
  0
ARC
  5
5F0
100
AcDbEntity
  8
ALL_DETAIL_ITEM
100
AcDbCircle
 62
4
  6
CONTINUOUS
 10
863.2740162205
 20
109.6407872881
 40
6.0000000038
100
AcDbArc
 50
299.9998228245
 51
360.0
  0
ARC
  5
5F1
100
AcDbEntity
  8
ALL_DETAIL_ITEM
100
AcDbCircle
 62
4
  6
CONTINUOUS
 10
863.2740162205
 20
114.1430260853
 40
6.0000000038
100
AcDbArc
 50
0.0
 51
60.0001771755
  0
ARC
  5
5F2
100
AcDbEntity
  8
ALL_DETAIL_ITEM
100
AcDbCircle
 62
4
  6
CONTINUOUS
 10
815.745807253
 20
109.6514993671
 40
3.0
100
AcDbArc
 50
300.0342167312
 51
359.9985993006
  0
ARC
  5
5F3
100
AcDbEntity
  8
ALL_DETAIL_ITEM
100
AcDbCircle
 62
4
  6
CONTINUOUS
 10
789.8437969158
 20
109.6514993671
 40
3.0
100
AcDbArc
 50
180.0014006917
 51
239.9657832688
  0
ARC
  5
5F4
100
AcDbEntity
  8
ALL_DETAIL_ITEM
100
AcDbCircle
 62
4
  6
CONTINUOUS
 10
863.2740162205
 20
114.1430260853
 40
3.0
100
AcDbArc
 50
0.0
 51
60.0001771755
  0
ARC
  5
5F5
100
AcDbEntity
  8
ALL_DETAIL_ITEM
100
AcDbCircle
 62
4
  6
CONTINUOUS
 10
863.2740162205
 20
109.6407872881
 40
3.0
100
AcDbArc
 50
299.9998228245
 51
360.0
  0
ARC
  5
5F6
100
AcDbEntity
  8
ALL_DETAIL_ITEM
100
AcDbCircle
 62
4
  6
CONTINUOUS
 10
832.9072289605
 20
104.5379085616
 40
1.5000000015
100
AcDbArc
 50
90.0
 51
270.0
  0
ARC
  5
5F7
100
AcDbEntity
  8
ALL_DETAIL_ITEM
100
AcDbCircle
 62
4
  6
CONTINUOUS
 10
773.7105387903
 20
104.5436995891
 40
1.5000000015
100
AcDbArc
 50
270.0053646182
 51
90.0053646182
  0
ARC
  5
5F8
100
AcDbEntity
  8
ALL_DETAIL_ITEM
100
AcDbCircle
 62
4
  6
CONTINUOUS
 10
772.2700243368
 20
119.2459021208
 40
1.5000000015
100
AcDbArc
 50
270.0
 51
90.0
  0
ARC
  5
5F9
100
AcDbEntity
  8
ALL_DETAIL_ITEM
100
AcDbCircle
 62
4
  6
CONTINUOUS
 10
839.26769638
 20
124.9528604918
 40
10.5000000038
100
AcDbArc
 50
90.0
 51
119.9998227404
  0
ARC
  5
5FA
100
AcDbEntity
  8
ALL_DETAIL_ITEM
100
AcDbCircle
 62
4
  6
CONTINUOUS
 10
839.26769638
 20
128.2448642506
 40
10.5000000038
100
AcDbArc
 50
240.0001772596
 51
269.9999999996
  0
ARC
  5
5FB
100
AcDbEntity
  8
ALL_DETAIL_ITEM
100
AcDbCircle
 62
4
  6
CONTINUOUS
 10
839.26769638
 20
128.2448642506
 40
7.5
100
AcDbArc
 50
240.0001772596
 51
269.9999999998
  0
ARC
  5
5FC
100
AcDbEntity
  8
ALL_DETAIL_ITEM
100
AcDbCircle
 62
4
  6
CONTINUOUS
 10
839.26769638
 20
124.9528604918
 40
7.5
100
AcDbArc
 50
90.0
 51
119.9998227404
  0
ARC
  5
5FD
100
AcDbEntity
  8
ALL_DETAIL_ITEM
100
AcDbCircle
 62
4
  6
CONTINUOUS
 10
837.017708437
 20
128.8499817698
 40
6.0000000038
100
AcDbArc
 50
119.9998227404
 51
180.0
  0
ARC
  5
5FE
100
AcDbEntity
  8
ALL_DETAIL_ITEM
100
AcDbCircle
 62
4
  6
CONTINUOUS
 10
837.017708437
 20
124.3477429726
 40
6.0000000038
100
AcDbArc
 50
180.0
 51
240.0001772596
  0
ARC
  5
5FF
100
AcDbEntity
  8
ALL_DETAIL_ITEM
100
AcDbCircle
 62
4
  6
CONTINUOUS
 10
837.017708437
 20
124.3477429726
 40
3.0
100
AcDbArc
 50
180.0
 51
240.0001772596
  0
ARC
  5
600
100
AcDbEntity
  8
ALL_DETAIL_ITEM
100
AcDbCircle
 62
4
  6
CONTINUOUS
 10
837.017708437
 20
128.8499817698
 40
3.0
100
AcDbArc
 50
119.9998227404
 51
180.0
  0
ARC
  5
601
100
AcDbEntity
  8
ALL_DETAIL_ITEM
100
AcDbCircle
 62
4
  6
CONTINUOUS
 10
820.2464125368
 20
134.4105860168
 40
1.5000000015
100
AcDbArc
 50
0.0
 51
180.0
  0
ARC
  5
602
100
AcDbEntity
  8
ALL_DETAIL_ITEM
100
AcDbCircle
 62
4
  6
CONTINUOUS
 10
785.3431916358
 20
134.4105860168
 40
1.5000000015
100
AcDbArc
 50
0.0
 51
180.0
  0
ARC
  5
603
100
AcDbEntity
  8
ALL_DETAIL_ITEM
100
AcDbCircle
 62
4
  6
CONTINUOUS
 10
865.9449365943
 20
133.9528604941
 40
1.5000000015
100
AcDbArc
 50
270.0
 51
90.0
  0
ARC
  5
604
100
AcDbEntity
  8
ALL_DETAIL_ITEM
100
AcDbCircle
 62
4
  6
CONTINUOUS
 10
773.7123474648
 20
133.9518805096
 40
1.5000000015
100
AcDbArc
 50
269.9981356008
 51
89.9981356008
  0
LWPOLYLINE
  5
605
100
AcDbEntity
  8
ALL_DETAIL_ITEM
100
AcDbPolyline
 62
4
  6
CONTINUOUS
 90
21
 70
0
 10
639.3860404473
 20
136.1806985243
 10
639.5583813856
 20
136.1707745181
 10
639.7284397585
 20
136.1410953823
 10
639.893963232
 20
136.0921012533
 10
640.0527595344
 20
136.0243978278
 10
640.2027254921
 20
135.9388936508
 10
640.3418748845
 20
135.8367328159
 10
640.4683647508
 20
135.7192276659
 10
640.5805197991
 20
135.5880270417
 10
640.6768545948
 20
135.4447461343
 10
620.01823471
 20
104.9055210661
 10
638.0952263001
 20
135.4447461343
 10
638.1915610955
 20
135.5880270417
 10
638.3037161438
 20
135.7192276659
 10
638.4302060101
 20
135.8367328159
 10
638.5693554025
 20
135.9388936508
 10
638.7193213601
 20
136.0243978278
 10
638.8781176626
 20
136.0921012533
 10
639.0436411361
 20
136.1410953823
 10
639.213699509
 20
136.1707745181
 10
639.3860404473
 20
136.1806985243
  0
HATCH
  5
606
100
AcDbEntity
  8
ALL_DETAIL_ITEM
100
AcDbHatch
 62
4
  6
CONTINUOUS
 10
0.0
 20
0.0
 30
0.0
210
0.0
220
0.0
230
1.0
  2
SOLID
 70
1
 71
1
 91
1
 92
1
 93
20
 72
1
 10
639.3860404473
 20
136.1806985243
 11
639.5583813856
 21
136.1707745181
 72
1
 10
639.5583813856
 20
136.1707745181
 11
639.7284397585
 21
136.1410953823
 72
1
 10
639.7284397585
 20
136.1410953823
 11
639.893963232
 21
136.0921012533
 72
1
 10
639.893963232
 20
136.0921012533
 11
640.0527595344
 21
136.0243978278
 72
1
 10
640.0527595344
 20
136.0243978278
 11
640.2027254921
 21
135.9388936508
 72
1
 10
640.2027254921
 20
135.9388936508
 11
640.3418748845
 21
135.8367328159
 72
1
 10
640.3418748845
 20
135.8367328159
 11
640.4683647508
 21
135.7192276659
 72
1
 10
640.4683647508
 20
135.7192276659
 11
640.5805197991
 21
135.5880270417
 72
1
 10
640.5805197991
 20
135.5880270417
 11
640.6768545948
 21
135.4447461343
 72
1
 10
640.6768545948
 20
135.4447461343
 11
620.01823471
 21
104.9055210661
 72
1
 10
620.01823471
 20
104.9055210661
 11
638.0952263001
 21
135.4447461343
 72
1
 10
638.0952263001
 20
135.4447461343
 11
638.1915610955
 21
135.5880270417
 72
1
 10
638.1915610955
 20
135.5880270417
 11
638.3037161438
 21
135.7192276659
 72
1
 10
638.3037161438
 20
135.7192276659
 11
638.4302060101
 21
135.8367328159
 72
1
 10
638.4302060101
 20
135.8367328159
 11
638.5693554025
 21
135.9388936508
 72
1
 10
638.5693554025
 20
135.9388936508
 11
638.7193213601
 21
136.0243978278
 72
1
 10
638.7193213601
 20
136.0243978278
 11
638.8781176626
 21
136.0921012533
 72
1
 10
638.8781176626
 20
136.0921012533
 11
639.0436411361
 21
136.1410953823
 72
1
 10
639.0436411361
 20
136.1410953823
 11
639.213699509
 21
136.1707745181
 72
1
 10
639.213699509
 20
136.1707745181
 11
639.3860404473
 21
136.1806985243
 97
1
330
605
 75
0
 76
1
 98
1
 10
0.0
 20
0.0
  0
LWPOLYLINE
  5
607
100
AcDbEntity
  8
ALL_DETAIL_ITEM
100
AcDbPolyline
 62
4
  6
CONTINUOUS
 90
46
 70
0
 10
695.6131677153
 20
135.9351921713
 10
695.8162354512
 20
135.9612034774
 10
696.0209540669
 20
135.9593190878
 10
696.2235100421
 20
135.9295726524
 10
696.4201301421
 20
135.8725362179
 10
696.6071517065
 20
135.7892529286
 10
696.7810908775
 20
135.6812706759
 10
696.9387074973
 20
135.5506420985
 10
697.0770654665
 20
135.3997226833
 10
697.1935874381
 20
135.2314063144
 10
714.0310027225
 20
106.9621784671
 10
733.4458758656
 20
133.6962345064
 10
715.3197316518
 20
103.2633092002
 10
715.2232826007
 20
103.1206676393
 10
715.1111252059
 20
102.9900390619
 10
714.9847371466
 20
102.8731396085
 10
714.8457835913
 20
102.7714835208
 10
714.6960952597
 20
102.6863831416
 10
714.5376443026
 20
102.619049864
 10
714.3725183188
 20
102.5702912838
 10
714.2028928509
 20
102.540780397
 10
714.0310027225
 20
102.5308846628
 10
713.8591125941
 20
102.540780397
 10
713.6894871263
 20
102.5702912838
 10
713.5243611425
 20
102.619049864
 10
713.3659101854
 20
102.6863831416
 10
713.2162218537
 20
102.7714835208
 10
713.0772682985
 20
102.8731396085
 10
712.9508802391
 20
102.9900390619
 10
712.8387228444
 20
103.1206676393
 10
712.7422737932
 20
103.2633092002
 10
694.6161295795
 20
133.6962345064
 10
694.5236141895
 20
133.878885696
 10
694.4568287678
 20
134.0724057756
 10
694.4170174004
 20
134.2732278647
 10
694.4049216977
 20
134.4775831843
 10
694.4207669799
 20
134.6817029551
 10
694.4642580792
 20
134.8817510985
 10
694.5345848388
 20
135.074026135
 10
694.6304372042
 20
135.2549275343
 10
694.7500296272
 20
135.4210903151
 10
694.8911343273
 20
135.5694186946
 10
695.0511227908
 20
135.697153388
 10
695.2270147354
 20
135.8019389084
 10
695.415533627
 20
135.8817562669
 10
695.6131677153
 20
135.9351921713
  0
HATCH
  5
608
100
AcDbEntity
  8
ALL_DETAIL_ITEM
100
AcDbHatch
 62
4
  6
CONTINUOUS
 10
0.0
 20
0.0
 30
0.0
210
0.0
220
0.0
230
1.0
  2
SOLID
 70
1
 71
1
 91
1
 92
1
 93
45
 72
1
 10
695.6131677153
 20
135.9351921713
 11
695.8162354512
 21
135.9612034774
 72
1
 10
695.8162354512
 20
135.9612034774
 11
696.0209540669
 21
135.9593190878
 72
1
 10
696.0209540669
 20
135.9593190878
 11
696.2235100421
 21
135.9295726524
 72
1
 10
696.2235100421
 20
135.9295726524
 11
696.4201301421
 21
135.8725362179
 72
1
 10
696.4201301421
 20
135.8725362179
 11
696.6071517065
 21
135.7892529286
 72
1
 10
696.6071517065
 20
135.7892529286
 11
696.7810908775
 21
135.6812706759
 72
1
 10
696.7810908775
 20
135.6812706759
 11
696.9387074973
 21
135.5506420985
 72
1
 10
696.9387074973
 20
135.5506420985
 11
697.0770654665
 21
135.3997226833
 72
1
 10
697.0770654665
 20
135.3997226833
 11
697.1935874381
 21
135.2314063144
 72
1
 10
697.1935874381
 20
135.2314063144
 11
714.0310027225
 21
106.9621784671
 72
1
 10
714.0310027225
 20
106.9621784671
 11
733.4458758656
 21
133.6962345064
 72
1
 10
733.4458758656
 20
133.6962345064
 11
715.3197316518
 21
103.2633092002
 72
1
 10
715.3197316518
 20
103.2633092002
 11
715.2232826007
 21
103.1206676393
 72
1
 10
715.2232826007
 20
103.1206676393
 11
715.1111252059
 21
102.9900390619
 72
1
 10
715.1111252059
 20
102.9900390619
 11
714.9847371466
 21
102.8731396085
 72
1
 10
714.9847371466
 20
102.8731396085
 11
714.8457835913
 21
102.7714835208
 72
1
 10
714.8457835913
 20
102.7714835208
 11
714.6960952597
 21
102.6863831416
 72
1
 10
714.6960952597
 20
102.6863831416
 11
714.5376443026
 21
102.619049864
 72
1
 10
714.5376443026
 20
102.619049864
 11
714.3725183188
 21
102.5702912838
 72
1
 10
714.3725183188
 20
102.5702912838
 11
714.2028928509
 21
102.540780397
 72
1
 10
714.2028928509
 20
102.540780397
 11
714.0310027225
 21
102.5308846628
 72
1
 10
714.0310027225
 20
102.5308846628
 11
713.8591125941
 21
102.540780397
 72
1
 10
713.8591125941
 20
102.540780397
 11
713.6894871263
 21
102.5702912838
 72
1
 10
713.6894871263
 20
102.5702912838
 11
713.5243611425
 21
102.619049864
 72
1
 10
713.5243611425
 20
102.619049864
 11
713.3659101854
 21
102.6863831416
 72
1
 10
713.3659101854
 20
102.6863831416
 11
713.2162218537
 21
102.7714835208
 72
1
 10
713.2162218537
 20
102.7714835208
 11
713.0772682985
 21
102.8731396085
 72
1
 10
713.0772682985
 20
102.8731396085
 11
712.9508802391
 21
102.9900390619
 72
1
 10
712.9508802391
 20
102.9900390619
 11
712.8387228444
 21
103.1206676393
 72
1
 10
712.8387228444
 20
103.1206676393
 11
712.7422737932
 21
103.2633092002
 72
1
 10
712.7422737932
 20
103.2633092002
 11
694.6161295795
 21
133.6962345064
 72
1
 10
694.6161295795
 20
133.6962345064
 11
694.5236141895
 21
133.878885696
 72
1
 10
694.5236141895
 20
133.878885696
 11
694.4568287678
 21
134.0724057756
 72
1
 10
694.4568287678
 20
134.0724057756
 11
694.4170174004
 21
134.2732278647
 72
1
 10
694.4170174004
 20
134.2732278647
 11
694.4049216977
 21
134.4775831843
 72
1
 10
694.4049216977
 20
134.4775831843
 11
694.4207669799
 21
134.6817029551
 72
1
 10
694.4207669799
 20
134.6817029551
 11
694.4642580792
 21
134.8817510985
 72
1
 10
694.4642580792
 20
134.8817510985
 11
694.5345848388
 21
135.074026135
 72
1
 10
694.5345848388
 20
135.074026135
 11
694.6304372042
 21
135.2549275343
 72
1
 10
694.6304372042
 20
135.2549275343
 11
694.7500296272
 21
135.4210903151
 72
1
 10
694.7500296272
 20
135.4210903151
 11
694.8911343273
 21
135.5694186946
 72
1
 10
694.8911343273
 20
135.5694186946
 11
695.0511227908
 21
135.697153388
 72
1
 10
695.0511227908
 20
135.697153388
 11
695.2270147354
 21
135.8019389084
 72
1
 10
695.2270147354
 20
135.8019389084
 11
695.415533627
 21
135.8817562669
 72
1
 10
695.415533627
 20
135.8817562669
 11
695.6131677153
 21
135.9351921713
 97
1
330
607
 75
0
 76
1
 98
1
 10
0.0
 20
0.0
  0
LWPOLYLINE
  5
609
100
AcDbEntity
  8
ALL_DETAIL_ITEM
100
AcDbPolyline
 62
4
  6
CONTINUOUS
 90
19
 70
0
 10
732.2457699939
 20
135.9612034774
 10
732.4488377298
 20
135.9351921713
 10
732.6464718181
 20
135.8817562669
 10
732.8349907097
 20
135.8019389084
 10
733.0108826543
 20
135.697153388
 10
733.1708711178
 20
135.5694186946
 10
733.3119758179
 20
135.4210903151
 10
733.4315682409
 20
135.2549275343
 10
733.5274206063
 20
135.074026135
 10
714.0310027225
 20
106.9621784671
 10
730.868418007
 20
135.2314063144
 10
730.9849399785
 20
135.3997226833
 10
731.1232979478
 20
135.5506420985
 10
731.2809145676
 20
135.6812706759
 10
731.4548537385
 20
135.7892529286
 10
731.641875303
 20
135.8725362179
 10
731.838495403
 20
135.9295726524
 10
732.0410513782
 20
135.9593190878
 10
732.2457699939
 20
135.9612034774
  0
HATCH
  5
60A
100
AcDbEntity
  8
ALL_DETAIL_ITEM
100
AcDbHatch
 62
4
  6
CONTINUOUS
 10
0.0
 20
0.0
 30
0.0
210
0.0
220
0.0
230
1.0
  2
SOLID
 70
1
 71
1
 91
1
 92
1
 93
18
 72
1
 10
732.2457699939
 20
135.9612034774
 11
732.4488377298
 21
135.9351921713
 72
1
 10
732.4488377298
 20
135.9351921713
 11
732.6464718181
 21
135.8817562669
 72
1
 10
732.6464718181
 20
135.8817562669
 11
732.8349907097
 21
135.8019389084
 72
1
 10
732.8349907097
 20
135.8019389084
 11
733.0108826543
 21
135.697153388
 72
1
 10
733.0108826543
 20
135.697153388
 11
733.1708711178
 21
135.5694186946
 72
1
 10
733.1708711178
 20
135.5694186946
 11
733.3119758179
 21
135.4210903151
 72
1
 10
733.3119758179
 20
135.4210903151
 11
733.4315682409
 21
135.2549275343
 72
1
 10
733.4315682409
 20
135.2549275343
 11
733.5274206063
 21
135.074026135
 72
1
 10
733.5274206063
 20
135.074026135
 11
714.0310027225
 21
106.9621784671
 72
1
 10
714.0310027225
 20
106.9621784671
 11
730.868418007
 21
135.2314063144
 72
1
 10
730.868418007
 20
135.2314063144
 11
730.9849399785
 21
135.3997226833
 72
1
 10
730.9849399785
 20
135.3997226833
 11
731.1232979478
 21
135.5506420985
 72
1
 10
731.1232979478
 20
135.5506420985
 11
731.2809145676
 21
135.6812706759
 72
1
 10
731.2809145676
 20
135.6812706759
 11
731.4548537385
 21
135.7892529286
 72
1
 10
731.4548537385
 20
135.7892529286
 11
731.641875303
 21
135.8725362179
 72
1
 10
731.641875303
 20
135.8725362179
 11
731.838495403
 21
135.9295726524
 72
1
 10
731.838495403
 20
135.9295726524
 11
732.0410513782
 21
135.9593190878
 72
1
 10
732.0410513782
 20
135.9593190878
 11
732.2457699939
 21
135.9612034774
 97
1
330
609
 75
0
 76
1
 98
1
 10
0.0
 20
0.0
  0
LWPOLYLINE
  5
60B
100
AcDbEntity
  8
ALL_DETAIL_ITEM
100
AcDbPolyline
 62
4
  6
CONTINUOUS
 90
27
 70
0
 10
785.3431916358
 20
135.9105941574
 10
785.5389809243
 20
135.8977399285
 10
785.7314202038
 20
135.8594800901
 10
785.9172167849
 20
135.7964203389
 10
786.0931916365
 20
135.709637469
 10
786.2563337802
 20
135.6006120721
 10
786.4038518086
 20
135.4712621876
 10
786.5332216474
 20
135.3237414036
 10
786.6422297428
 20
135.1605734562
 10
786.7290109359
 20
134.9846185795
 10
786.7920803767
 20
134.7988043074
 10
786.8303589293
 20
134.6063610219
 10
786.8431916373
 20
134.4105864049
 10
783.8437969143
 20
109.6513562139
 10
783.8431916343
 20
134.4105864049
 10
783.8560243422
 20
134.6063610219
 10
783.8943028949
 20
134.7988043074
 10
783.9573723356
 20
134.9846185795
 10
784.0441535288
 20
135.1605734562
 10
784.1531616242
 20
135.3237414036
 10
784.2825314629
 20
135.4712621876
 10
784.4300494914
 20
135.6006120721
 10
784.593191635
 20
135.709637469
 10
784.7691664867
 20
135.7964203389
 10
784.9549630677
 20
135.8594800901
 10
785.1474023473
 20
135.8977399285
 10
785.3431916358
 20
135.9105941574
  0
HATCH
  5
60C
100
AcDbEntity
  8
ALL_DETAIL_ITEM
100
AcDbHatch
 62
4
  6
CONTINUOUS
 10
0.0
 20
0.0
 30
0.0
210
0.0
220
0.0
230
1.0
  2
SOLID
 70
1
 71
1
 91
1
 92
1
 93
26
 72
1
 10
785.3431916358
 20
135.9105941574
 11
785.5389809243
 21
135.8977399285
 72
1
 10
785.5389809243
 20
135.8977399285
 11
785.7314202038
 21
135.8594800901
 72
1
 10
785.7314202038
 20
135.8594800901
 11
785.9172167849
 21
135.7964203389
 72
1
 10
785.9172167849
 20
135.7964203389
 11
786.0931916365
 21
135.709637469
 72
1
 10
786.0931916365
 20
135.709637469
 11
786.2563337802
 21
135.6006120721
 72
1
 10
786.2563337802
 20
135.6006120721
 11
786.4038518086
 21
135.4712621876
 72
1
 10
786.4038518086
 20
135.4712621876
 11
786.5332216474
 21
135.3237414036
 72
1
 10
786.5332216474
 20
135.3237414036
 11
786.6422297428
 21
135.1605734562
 72
1
 10
786.6422297428
 20
135.1605734562
 11
786.7290109359
 21
134.9846185795
 72
1
 10
786.7290109359
 20
134.9846185795
 11
786.7920803767
 21
134.7988043074
 72
1
 10
786.7920803767
 20
134.7988043074
 11
786.8303589293
 21
134.6063610219
 72
1
 10
786.8303589293
 20
134.6063610219
 11
786.8431916373
 21
134.4105864049
 72
1
 10
786.8431916373
 20
134.4105864049
 11
783.8437969143
 21
109.6513562139
 72
1
 10
783.8437969143
 20
109.6513562139
 11
783.8431916343
 21
134.4105864049
 72
1
 10
783.8431916343
 20
134.4105864049
 11
783.8560243422
 21
134.6063610219
 72
1
 10
783.8560243422
 20
134.6063610219
 11
783.8943028949
 21
134.7988043074
 72
1
 10
783.8943028949
 20
134.7988043074
 11
783.9573723356
 21
134.9846185795
 72
1
 10
783.9573723356
 20
134.9846185795
 11
784.0441535288
 21
135.1605734562
 72
1
 10
784.0441535288
 20
135.1605734562
 11
784.1531616242
 21
135.3237414036
 72
1
 10
784.1531616242
 20
135.3237414036
 11
784.2825314629
 21
135.4712621876
 72
1
 10
784.2825314629
 20
135.4712621876
 11
784.4300494914
 21
135.6006120721
 72
1
 10
784.4300494914
 20
135.6006120721
 11
784.593191635
 21
135.709637469
 72
1
 10
784.593191635
 20
135.709637469
 11
784.7691664867
 21
135.7964203389
 72
1
 10
784.7691664867
 20
135.7964203389
 11
784.9549630677
 21
135.8594800901
 72
1
 10
784.9549630677
 20
135.8594800901
 11
785.1474023473
 21
135.8977399285
 72
1
 10
785.1474023473
 20
135.8977399285
 11
785.3431916358
 21
135.9105941574
 97
1
330
60B
 75
0
 76
1
 98
1
 10
0.0
 20
0.0
  0
LWPOLYLINE
  5
60D
100
AcDbEntity
  8
ALL_DETAIL_ITEM
100
AcDbPolyline
 62
4
  6
CONTINUOUS
 90
50
 70
0
 10
820.2464125368
 20
135.9105941574
 10
820.4422018253
 20
135.8977399285
 10
820.6346411048
 20
135.8594800901
 10
820.8204376859
 20
135.7964203389
 10
820.9964125375
 20
135.709637469
 10
821.1595546812
 20
135.6006120721
 10
821.3070727096
 20
135.4712621876
 10
821.4364425484
 20
135.3237414036
 10
821.5454506438
 20
135.1605734562
 10
821.6322318369
 20
134.9846185795
 10
821.6953012777
 20
134.7988043074
 10
821.7335798303
 20
134.6063610219
 10
821.7464125383
 20
134.4105864049
 10
821.745807255
 20
109.6513562139
 10
821.7229897488
 20
109.1287409548
 10
821.6547362324
 20
108.6100627239
 10
821.5415655399
 20
108.099359499
 10
821.3843379471
 20
107.600400059
 10
821.1842486316
 20
107.1170541327
 10
820.9428185877
 20
106.6529895498
 10
815.6478790989
 20
106.3635002011
 10
816.0621713106
 20
106.5009260409
 10
816.4677599347
 20
106.6622768984
 10
816.8632694562
 20
106.8469470769
 10
817.2473585426
 20
107.0543308797
 10
817.467876581
 20
107.1949871016
 10
817.6753041775
 20
107.3543189703
 10
817.8680645555
 20
107.5311150923
 10
818.0446924321
 20
107.7240294752
 10
818.2038451571
 20
107.9316151769
 10
818.3443129187
 20
108.1522570064
 10
818.4650279406
 20
108.3842724729
 10
818.5650725983
 20
108.6259454361
 10
818.6436863946
 20
108.8754251561
 10
818.7002717408
 20
109.1307935935
 10
818.7343984991
 20
109.3900990591
 10
818.7458072523
 20
109.6514235135
 10
818.7464125353
 20
134.4105864049
 10
818.7592452432
 20
134.6063610219
 10
818.7975237959
 20
134.7988043074
 10
818.8605932366
 20
134.9846185795
 10
818.9473744298
 20
135.1605734562
 10
819.0563825252
 20
135.3237414036
 10
819.1857523639
 20
135.4712621876
 10
819.3332703924
 20
135.6006120721
 10
819.496412536
 20
135.709637469
 10
819.6723873877
 20
135.7964203389
 10
819.8581839687
 20
135.8594800901
 10
820.0506232483
 20
135.8977399285
 10
820.2464125368
 20
135.9105941574
  0
HATCH
  5
60E
100
AcDbEntity
  8
ALL_DETAIL_ITEM
100
AcDbHatch
 62
4
  6
CONTINUOUS
 10
0.0
 20
0.0
 30
0.0
210
0.0
220
0.0
230
1.0
  2
SOLID
 70
1
 71
1
 91
1
 92
1
 93
49
 72
1
 10
820.2464125368
 20
135.9105941574
 11
820.4422018253
 21
135.8977399285
 72
1
 10
820.4422018253
 20
135.8977399285
 11
820.6346411048
 21
135.8594800901
 72
1
 10
820.6346411048
 20
135.8594800901
 11
820.8204376859
 21
135.7964203389
 72
1
 10
820.8204376859
 20
135.7964203389
 11
820.9964125375
 21
135.709637469
 72
1
 10
820.9964125375
 20
135.709637469
 11
821.1595546812
 21
135.6006120721
 72
1
 10
821.1595546812
 20
135.6006120721
 11
821.3070727096
 21
135.4712621876
 72
1
 10
821.3070727096
 20
135.4712621876
 11
821.4364425484
 21
135.3237414036
 72
1
 10
821.4364425484
 20
135.3237414036
 11
821.5454506438
 21
135.1605734562
 72
1
 10
821.5454506438
 20
135.1605734562
 11
821.6322318369
 21
134.9846185795
 72
1
 10
821.6322318369
 20
134.9846185795
 11
821.6953012777
 21
134.7988043074
 72
1
 10
821.6953012777
 20
134.7988043074
 11
821.7335798303
 21
134.6063610219
 72
1
 10
821.7335798303
 20
134.6063610219
 11
821.7464125383
 21
134.4105864049
 72
1
 10
821.7464125383
 20
134.4105864049
 11
821.745807255
 21
109.6513562139
 72
1
 10
821.745807255
 20
109.6513562139
 11
821.7229897488
 21
109.1287409548
 72
1
 10
821.7229897488
 20
109.1287409548
 11
821.6547362324
 21
108.6100627239
 72
1
 10
821.6547362324
 20
108.6100627239
 11
821.5415655399
 21
108.099359499
 72
1
 10
821.5415655399
 20
108.099359499
 11
821.3843379471
 21
107.600400059
 72
1
 10
821.3843379471
 20
107.600400059
 11
821.1842486316
 21
107.1170541327
 72
1
 10
821.1842486316
 20
107.1170541327
 11
820.9428185877
 21
106.6529895498
 72
1
 10
820.9428185877
 20
106.6529895498
 11
815.6478790989
 21
106.3635002011
 72
1
 10
815.6478790989
 20
106.3635002011
 11
816.0621713106
 21
106.5009260409
 72
1
 10
816.0621713106
 20
106.5009260409
 11
816.4677599347
 21
106.6622768984
 72
1
 10
816.4677599347
 20
106.6622768984
 11
816.8632694562
 21
106.8469470769
 72
1
 10
816.8632694562
 20
106.8469470769
 11
817.2473585426
 21
107.0543308797
 72
1
 10
817.2473585426
 20
107.0543308797
 11
817.467876581
 21
107.1949871016
 72
1
 10
817.467876581
 20
107.1949871016
 11
817.6753041775
 21
107.3543189703
 72
1
 10
817.6753041775
 20
107.3543189703
 11
817.8680645555
 21
107.5311150923
 72
1
 10
817.8680645555
 20
107.5311150923
 11
818.0446924321
 21
107.7240294752
 72
1
 10
818.0446924321
 20
107.7240294752
 11
818.2038451571
 21
107.9316151769
 72
1
 10
818.2038451571
 20
107.9316151769
 11
818.3443129187
 21
108.1522570064
 72
1
 10
818.3443129187
 20
108.1522570064
 11
818.4650279406
 21
108.3842724729
 72
1
 10
818.4650279406
 20
108.3842724729
 11
818.5650725983
 21
108.6259454361
 72
1
 10
818.5650725983
 20
108.6259454361
 11
818.6436863946
 21
108.8754251561
 72
1
 10
818.6436863946
 20
108.8754251561
 11
818.7002717408
 21
109.1307935935
 72
1
 10
818.7002717408
 20
109.1307935935
 11
818.7343984991
 21
109.3900990591
 72
1
 10
818.7343984991
 20
109.3900990591
 11
818.7458072523
 21
109.6514235135
 72
1
 10
818.7458072523
 20
109.6514235135
 11
818.7464125353
 21
134.4105864049
 72
1
 10
818.7464125353
 20
134.4105864049
 11
818.7592452432
 21
134.6063610219
 72
1
 10
818.7592452432
 20
134.6063610219
 11
818.7975237959
 21
134.7988043074
 72
1
 10
818.7975237959
 20
134.7988043074
 11
818.8605932366
 21
134.9846185795
 72
1
 10
818.8605932366
 20
134.9846185795
 11
818.9473744298
 21
135.1605734562
 72
1
 10
818.9473744298
 20
135.1605734562
 11
819.0563825252
 21
135.3237414036
 72
1
 10
819.0563825252
 20
135.3237414036
 11
819.1857523639
 21
135.4712621876
 72
1
 10
819.1857523639
 20
135.4712621876
 11
819.3332703924
 21
135.6006120721
 72
1
 10
819.3332703924
 20
135.6006120721
 11
819.496412536
 21
135.709637469
 72
1
 10
819.496412536
 20
135.709637469
 11
819.6723873877
 21
135.7964203389
 72
1
 10
819.6723873877
 20
135.7964203389
 11
819.8581839687
 21
135.8594800901
 72
1
 10
819.8581839687
 20
135.8594800901
 11
820.0506232483
 21
135.8977399285
 72
1
 10
820.0506232483
 20
135.8977399285
 11
820.2464125368
 21
135.9105941574
 97
1
330
60D
 75
0
 76
1
 98
1
 10
0.0
 20
0.0
  0
LWPOLYLINE
  5
60F
100
AcDbEntity
  8
ALL_DETAIL_ITEM
100
AcDbPolyline
 62
4
  6
CONTINUOUS
 90
27
 70
0
 10
669.9383857833
 20
135.8840871278
 10
670.1341750718
 20
135.871257525
 10
670.3266143513
 20
135.8329640368
 10
670.5124109324
 20
135.7699042856
 10
670.688385784
 20
135.6831214157
 10
670.8515279277
 20
135.5741296686
 10
670.9990459561
 20
135.4447461343
 10
671.1284157949
 20
135.2972253503
 10
671.2374238903
 20
135.1340910527
 10
671.3242050834
 20
134.9581025262
 10
671.3872745242
 20
134.7723219039
 10
671.4255530768
 20
134.5798786184
 10
671.4383857848
 20
134.3840703515
 10
668.4383857818
 20
104.537291153
 10
668.4383857818
 20
134.3840703515
 10
668.4512184897
 20
134.5798786184
 10
668.4894970424
 20
134.7723219039
 10
668.5525664831
 20
134.9581025262
 10
668.6393476763
 20
135.1340910527
 10
668.7483557717
 20
135.2972253503
 10
668.8777256104
 20
135.4447461343
 10
669.0252436389
 20
135.5741296686
 10
669.1883857825
 20
135.6831214157
 10
669.3643606342
 20
135.7699042856
 10
669.5501572152
 20
135.8329640368
 10
669.7425964948
 20
135.871257525
 10
669.9383857833
 20
135.8840871278
  0
HATCH
  5
610
100
AcDbEntity
  8
ALL_DETAIL_ITEM
100
AcDbHatch
 62
4
  6
CONTINUOUS
 10
0.0
 20
0.0
 30
0.0
210
0.0
220
0.0
230
1.0
  2
SOLID
 70
1
 71
1
 91
1
 92
1
 93
26
 72
1
 10
669.9383857833
 20
135.8840871278
 11
670.1341750718
 21
135.871257525
 72
1
 10
670.1341750718
 20
135.871257525
 11
670.3266143513
 21
135.8329640368
 72
1
 10
670.3266143513
 20
135.8329640368
 11
670.5124109324
 21
135.7699042856
 72
1
 10
670.5124109324
 20
135.7699042856
 11
670.688385784
 21
135.6831214157
 72
1
 10
670.688385784
 20
135.6831214157
 11
670.8515279277
 21
135.5741296686
 72
1
 10
670.8515279277
 20
135.5741296686
 11
670.9990459561
 21
135.4447461343
 72
1
 10
670.9990459561
 20
135.4447461343
 11
671.1284157949
 21
135.2972253503
 72
1
 10
671.1284157949
 20
135.2972253503
 11
671.2374238903
 21
135.1340910527
 72
1
 10
671.2374238903
 20
135.1340910527
 11
671.3242050834
 21
134.9581025262
 72
1
 10
671.3242050834
 20
134.9581025262
 11
671.3872745242
 21
134.7723219039
 72
1
 10
671.3872745242
 20
134.7723219039
 11
671.4255530768
 21
134.5798786184
 72
1
 10
671.4255530768
 20
134.5798786184
 11
671.4383857848
 21
134.3840703515
 72
1
 10
671.4383857848
 20
134.3840703515
 11
668.4383857818
 21
104.537291153
 72
1
 10
668.4383857818
 20
104.537291153
 11
668.4383857818
 21
134.3840703515
 72
1
 10
668.4383857818
 20
134.3840703515
 11
668.4512184897
 21
134.5798786184
 72
1
 10
668.4512184897
 20
134.5798786184
 11
668.4894970424
 21
134.7723219039
 72
1
 10
668.4894970424
 20
134.7723219039
 11
668.5525664831
 21
134.9581025262
 72
1
 10
668.5525664831
 20
134.9581025262
 11
668.6393476763
 21
135.1340910527
 72
1
 10
668.6393476763
 20
135.1340910527
 11
668.7483557717
 21
135.2972253503
 72
1
 10
668.7483557717
 20
135.2972253503
 11
668.8777256104
 21
135.4447461343
 72
1
 10
668.8777256104
 20
135.4447461343
 11
669.0252436389
 21
135.5741296686
 72
1
 10
669.0252436389
 20
135.5741296686
 11
669.1883857825
 21
135.6831214157
 72
1
 10
669.1883857825
 20
135.6831214157
 11
669.3643606342
 21
135.7699042856
 72
1
 10
669.3643606342
 20
135.7699042856
 11
669.5501572152
 21
135.8329640368
 72
1
 10
669.5501572152
 20
135.8329640368
 11
669.7425964948
 21
135.871257525
 72
1
 10
669.7425964948
 20
135.871257525
 11
669.9383857833
 21
135.8840871278
 97
1
330
60F
 75
0
 76
1
 98
1
 10
0.0
 20
0.0
  0
LWPOLYLINE
  5
611
100
AcDbEntity
  8
ALL_DETAIL_ITEM
100
AcDbPolyline
 62
4
  6
CONTINUOUS
 90
32
 70
0
 10
743.4574514874
 20
135.4446475066
 10
743.614247686
 20
135.4528557394
 10
773.7123962746
 20
135.4518805103
 10
773.9081851455
 20
135.4390414314
 10
774.1006231793
 20
135.4007566168
 10
774.286417708
 20
135.3376811303
 10
774.4623897357
 20
135.2508942109
 10
774.6255283322
 20
135.141880807
 10
774.7730421508
 20
135.0125061681
 10
774.9024071893
 20
134.86498393
 10
775.011409976
 20
134.7018382393
 10
775.0981854429
 20
134.525860564
 10
775.1612488378
 20
134.3400619307
 10
775.1995211285
 20
134.1476214057
 10
775.2123474655
 20
133.9518316997
 10
745.1141988745
 20
132.4528110886
 10
742.1141988745
 20
104.5408816613
 10
742.1141988745
 20
133.9528479869
 10
742.1224163716
 20
134.109655832
 10
742.1469788266
 20
134.2647338031
 10
742.1876171168
 20
134.416394677
 10
742.2438859823
 20
134.5629767567
 10
742.3151689041
 20
134.7028686881
 10
742.4006848592
 20
134.8345535753
 10
742.4994968782
 20
134.9565727385
 10
742.6105223111
 20
135.0675945587
 10
742.7325446897
 20
135.1664026072
 10
742.8642270558
 20
135.251899051
 10
743.0041266103
 20
135.3231926469
 10
743.1507105209
 20
135.3794567427
 10
743.3023727171
 20
135.4200900979
 10
743.4574514874
 20
135.4446475066
  0
HATCH
  5
612
100
AcDbEntity
  8
ALL_DETAIL_ITEM
100
AcDbHatch
 62
4
  6
CONTINUOUS
 10
0.0
 20
0.0
 30
0.0
210
0.0
220
0.0
230
1.0
  2
SOLID
 70
1
 71
1
 91
1
 92
1
 93
31
 72
1
 10
743.4574514874
 20
135.4446475066
 11
743.614247686
 21
135.4528557394
 72
1
 10
743.614247686
 20
135.4528557394
 11
773.7123962746
 21
135.4518805103
 72
1
 10
773.7123962746
 20
135.4518805103
 11
773.9081851455
 21
135.4390414314
 72
1
 10
773.9081851455
 20
135.4390414314
 11
774.1006231793
 21
135.4007566168
 72
1
 10
774.1006231793
 20
135.4007566168
 11
774.286417708
 21
135.3376811303
 72
1
 10
774.286417708
 20
135.3376811303
 11
774.4623897357
 21
135.2508942109
 72
1
 10
774.4623897357
 20
135.2508942109
 11
774.6255283322
 21
135.141880807
 72
1
 10
774.6255283322
 20
135.141880807
 11
774.7730421508
 21
135.0125061681
 72
1
 10
774.7730421508
 20
135.0125061681
 11
774.9024071893
 21
134.86498393
 72
1
 10
774.9024071893
 20
134.86498393
 11
775.011409976
 21
134.7018382393
 72
1
 10
775.011409976
 20
134.7018382393
 11
775.0981854429
 21
134.525860564
 72
1
 10
775.0981854429
 20
134.525860564
 11
775.1612488378
 21
134.3400619307
 72
1
 10
775.1612488378
 20
134.3400619307
 11
775.1995211285
 21
134.1476214057
 72
1
 10
775.1995211285
 20
134.1476214057
 11
775.2123474655
 21
133.9518316997
 72
1
 10
775.2123474655
 20
133.9518316997
 11
745.1141988745
 21
132.4528110886
 72
1
 10
745.1141988745
 20
132.4528110886
 11
742.1141988745
 21
104.5408816613
 72
1
 10
742.1141988745
 20
104.5408816613
 11
742.1141988745
 21
133.9528479869
 72
1
 10
742.1141988745
 20
133.9528479869
 11
742.1224163716
 21
134.109655832
 72
1
 10
742.1224163716
 20
134.109655832
 11
742.1469788266
 21
134.2647338031
 72
1
 10
742.1469788266
 20
134.2647338031
 11
742.1876171168
 21
134.416394677
 72
1
 10
742.1876171168
 20
134.416394677
 11
742.2438859823
 21
134.5629767567
 72
1
 10
742.2438859823
 20
134.5629767567
 11
742.3151689041
 21
134.7028686881
 72
1
 10
742.3151689041
 20
134.7028686881
 11
742.4006848592
 21
134.8345535753
 72
1
 10
742.4006848592
 20
134.8345535753
 11
742.4994968782
 21
134.9565727385
 72
1
 10
742.4994968782
 20
134.9565727385
 11
742.6105223111
 21
135.0675945587
 72
1
 10
742.6105223111
 20
135.0675945587
 11
742.7325446897
 21
135.1664026072
 72
1
 10
742.7325446897
 20
135.1664026072
 11
742.8642270558
 21
135.251899051
 72
1
 10
742.8642270558
 20
135.251899051
 11
743.0041266103
 21
135.3231926469
 72
1
 10
743.0041266103
 20
135.3231926469
 11
743.1507105209
 21
135.3794567427
 72
1
 10
743.1507105209
 20
135.3794567427
 11
743.3023727171
 21
135.4200900979
 72
1
 10
743.3023727171
 20
135.4200900979
 11
743.4574514874
 21
135.4446475066
 97
1
330
611
 75
0
 76
1
 98
1
 10
0.0
 20
0.0
  0
LWPOLYLINE
  5
613
100
AcDbEntity
  8
ALL_DETAIL_ITEM
100
AcDbPolyline
 62
4
  6
CONTINUOUS
 90
13
 70
0
 10
866.1407258828
 20
135.4400277876
 10
866.3331651623
 20
135.4017492349
 10
866.5189617434
 20
135.3386797942
 10
866.694936595
 20
135.251899051
 10
866.8580787387
 20
135.1428905057
 10
836.2562797243
 20
135.0117555506
 10
836.8462437848
 20
135.1698349661
 10
837.4444011776
 20
135.2933437824
 10
838.0487279513
 20
135.3818640899
 10
838.6571792795
 20
135.4350963673
 10
839.26769638
 20
135.4528557394
 10
865.9449365943
 20
135.4528557394
 10
866.1407258828
 20
135.4400277876
  0
HATCH
  5
614
100
AcDbEntity
  8
ALL_DETAIL_ITEM
100
AcDbHatch
 62
4
  6
CONTINUOUS
 10
0.0
 20
0.0
 30
0.0
210
0.0
220
0.0
230
1.0
  2
SOLID
 70
1
 71
1
 91
1
 92
1
 93
12
 72
1
 10
866.1407258828
 20
135.4400277876
 11
866.3331651623
 21
135.4017492349
 72
1
 10
866.3331651623
 20
135.4017492349
 11
866.5189617434
 21
135.3386797942
 72
1
 10
866.5189617434
 20
135.3386797942
 11
866.694936595
 21
135.251899051
 72
1
 10
866.694936595
 20
135.251899051
 11
866.8580787387
 21
135.1428905057
 72
1
 10
866.8580787387
 20
135.1428905057
 11
836.2562797243
 21
135.0117555506
 72
1
 10
836.2562797243
 20
135.0117555506
 11
836.8462437848
 21
135.1698349661
 72
1
 10
836.8462437848
 20
135.1698349661
 11
837.4444011776
 21
135.2933437824
 72
1
 10
837.4444011776
 20
135.2933437824
 11
838.0487279513
 21
135.3818640899
 72
1
 10
838.0487279513
 20
135.3818640899
 11
838.6571792795
 21
135.4350963673
 72
1
 10
838.6571792795
 20
135.4350963673
 11
839.26769638
 21
135.4528557394
 72
1
 10
839.26769638
 20
135.4528557394
 11
865.9449365943
 21
135.4528557394
 72
1
 10
865.9449365943
 20
135.4528557394
 11
866.1407258828
 21
135.4400277876
 97
1
330
613
 75
0
 76
1
 98
1
 10
0.0
 20
0.0
  0
LWPOLYLINE
  5
615
100
AcDbEntity
  8
ALL_DETAIL_ITEM
100
AcDbPolyline
 62
4
  6
CONTINUOUS
 90
10
 70
0
 10
867.0055967671
 20
135.0135206669
 10
867.1349666059
 20
134.8660026385
 10
867.2439747013
 20
134.7028686881
 10
867.3307558944
 20
134.5268856432
 10
834.55533079
 20
134.3360161777
 10
835.1088820346
 20
134.5941396247
 10
835.6765052242
 20
134.8196404205
 10
836.2562797243
 20
135.0117555506
 10
866.8580787387
 20
135.1428905057
 10
867.0055967671
 20
135.0135206669
  0
HATCH
  5
616
100
AcDbEntity
  8
ALL_DETAIL_ITEM
100
AcDbHatch
 62
4
  6
CONTINUOUS
 10
0.0
 20
0.0
 30
0.0
210
0.0
220
0.0
230
1.0
  2
SOLID
 70
1
 71
1
 91
1
 92
1
 93
9
 72
1
 10
867.0055967671
 20
135.0135206669
 11
867.1349666059
 21
134.8660026385
 72
1
 10
867.1349666059
 20
134.8660026385
 11
867.2439747013
 21
134.7028686881
 72
1
 10
867.2439747013
 20
134.7028686881
 11
867.3307558944
 21
134.5268856432
 72
1
 10
867.3307558944
 20
134.5268856432
 11
834.55533079
 21
134.3360161777
 72
1
 10
834.55533079
 20
134.3360161777
 11
835.1088820346
 21
134.5941396247
 72
1
 10
835.1088820346
 20
134.5941396247
 11
835.6765052242
 21
134.8196404205
 72
1
 10
835.6765052242
 20
134.8196404205
 11
836.2562797243
 21
135.0117555506
 72
1
 10
836.2562797243
 20
135.0117555506
 11
866.8580787387
 21
135.1428905057
 72
1
 10
866.8580787387
 20
135.1428905057
 11
867.0055967671
 21
135.0135206669
 97
1
330
615
 75
0
 76
1
 98
1
 10
0.0
 20
0.0
  0
LWPOLYLINE
  5
617
100
AcDbEntity
  8
ALL_DETAIL_ITEM
100
AcDbPolyline
 62
4
  6
CONTINUOUS
 90
10
 70
0
 10
867.3938253352
 20
134.3410890621
 10
867.4321038878
 20
134.1486497826
 10
867.4449365958
 20
133.9528479869
 10
867.4321038878
 20
133.7570712055
 10
833.1609946263
 20
133.4462583745
 10
833.5762637552
 20
133.7649037984
 10
834.0177245108
 20
134.046143477
 10
834.55533079
 20
134.3360161777
 10
867.3307558944
 20
134.5268856432
 10
867.3938253352
 20
134.3410890621
  0
HATCH
  5
618
100
AcDbEntity
  8
ALL_DETAIL_ITEM
100
AcDbHatch
 62
4
  6
CONTINUOUS
 10
0.0
 20
0.0
 30
0.0
210
0.0
220
0.0
230
1.0
  2
SOLID
 70
1
 71
1
 91
1
 92
1
 93
9
 72
1
 10
867.3938253352
 20
134.3410890621
 11
867.4321038878
 21
134.1486497826
 72
1
 10
867.4321038878
 20
134.1486497826
 11
867.4449365958
 21
133.9528479869
 72
1
 10
867.4449365958
 20
133.9528479869
 11
867.4321038878
 21
133.7570712055
 72
1
 10
867.4321038878
 20
133.7570712055
 11
833.1609946263
 21
133.4462583745
 72
1
 10
833.1609946263
 20
133.4462583745
 11
833.5762637552
 21
133.7649037984
 72
1
 10
833.5762637552
 20
133.7649037984
 11
834.0177245108
 21
134.046143477
 72
1
 10
834.0177245108
 20
134.046143477
 11
834.55533079
 21
134.3360161777
 72
1
 10
834.55533079
 20
134.3360161777
 11
867.3307558944
 21
134.5268856432
 72
1
 10
867.3307558944
 20
134.5268856432
 11
867.3938253352
 21
134.3410890621
 97
1
330
617
 75
0
 76
1
 98
1
 10
0.0
 20
0.0
  0
LWPOLYLINE
  5
619
100
AcDbEntity
  8
ALL_DETAIL_ITEM
100
AcDbPolyline
 62
4
  6
CONTINUOUS
 90
6
 70
0
 10
867.3938253352
 20
133.564631926
 10
867.3307558944
 20
133.3788353449
 10
832.7750775916
 20
133.0926323039
 10
833.1609946263
 20
133.4462583745
 10
867.4321038878
 20
133.7570712055
 10
867.3938253352
 20
133.564631926
  0
HATCH
  5
61A
100
AcDbEntity
  8
ALL_DETAIL_ITEM
100
AcDbHatch
 62
4
  6
CONTINUOUS
 10
0.0
 20
0.0
 30
0.0
210
0.0
220
0.0
230
1.0
  2
SOLID
 70
1
 71
1
 91
1
 92
1
 93
5
 72
1
 10
867.3938253352
 20
133.564631926
 11
867.3307558944
 21
133.3788353449
 72
1
 10
867.3307558944
 20
133.3788353449
 11
832.7750775916
 21
133.0926323039
 72
1
 10
832.7750775916
 20
133.0926323039
 11
833.1609946263
 21
133.4462583745
 72
1
 10
833.1609946263
 20
133.4462583745
 11
867.4321038878
 21
133.7570712055
 72
1
 10
867.4321038878
 20
133.7570712055
 11
867.3938253352
 21
133.564631926
 97
1
330
619
 75
0
 76
1
 98
1
 10
0.0
 20
0.0
  0
LWPOLYLINE
  5
61B
100
AcDbEntity
  8
ALL_DETAIL_ITEM
100
AcDbPolyline
 62
4
  6
CONTINUOUS
 90
6
 70
0
 10
867.2439747013
 20
133.2028604933
 10
867.1349666059
 20
133.0397183496
 10
832.42144973
 20
132.7067169102
 10
832.7750775916
 20
133.0926323039
 10
867.3307558944
 20
133.3788353449
 10
867.2439747013
 20
133.2028604933
  0
HATCH
  5
61C
100
AcDbEntity
  8
ALL_DETAIL_ITEM
100
AcDbHatch
 62
4
  6
CONTINUOUS
 10
0.0
 20
0.0
 30
0.0
210
0.0
220
0.0
230
1.0
  2
SOLID
 70
1
 71
1
 91
1
 92
1
 93
5
 72
1
 10
867.2439747013
 20
133.2028604933
 11
867.1349666059
 21
133.0397183496
 72
1
 10
867.1349666059
 20
133.0397183496
 11
832.42144973
 21
132.7067169102
 72
1
 10
832.42144973
 20
132.7067169102
 11
832.7750775916
 21
133.0926323039
 72
1
 10
832.7750775916
 20
133.0926323039
 11
867.3307558944
 21
133.3788353449
 72
1
 10
867.3307558944
 20
133.3788353449
 11
867.2439747013
 21
133.2028604933
 97
1
330
61B
 75
0
 76
1
 98
1
 10
0.0
 20
0.0
  0
LWPOLYLINE
  5
61D
100
AcDbEntity
  8
ALL_DETAIL_ITEM
100
AcDbPolyline
 62
4
  6
CONTINUOUS
 90
8
 70
0
 10
866.8580787387
 20
132.7628304824
 10
866.694936595
 20
132.6538223871
 10
839.26769638
 20
132.4528738842
 10
832.102802379
 20
132.29144926
 10
832.42144973
 20
132.7067169102
 10
867.1349666059
 20
133.0397183496
 10
867.0055967671
 20
132.8922003212
 10
866.8580787387
 20
132.7628304824
  0
HATCH
  5
61E
100
AcDbEntity
  8
ALL_DETAIL_ITEM
100
AcDbHatch
 62
4
  6
CONTINUOUS
 10
0.0
 20
0.0
 30
0.0
210
0.0
220
0.0
230
1.0
  2
SOLID
 70
1
 71
1
 91
1
 92
1
 93
7
 72
1
 10
866.8580787387
 20
132.7628304824
 11
866.694936595
 21
132.6538223871
 72
1
 10
866.694936595
 20
132.6538223871
 11
839.26769638
 21
132.4528738842
 72
1
 10
839.26769638
 20
132.4528738842
 11
832.102802379
 21
132.29144926
 72
1
 10
832.102802379
 20
132.29144926
 11
832.42144973
 21
132.7067169102
 72
1
 10
832.42144973
 20
132.7067169102
 11
867.1349666059
 21
133.0397183496
 72
1
 10
867.1349666059
 20
133.0397183496
 11
867.0055967671
 21
132.8922003212
 72
1
 10
867.0055967671
 20
132.8922003212
 11
866.8580787387
 21
132.7628304824
 97
1
330
61D
 75
0
 76
1
 98
1
 10
0.0
 20
0.0
  0
LWPOLYLINE
  5
61F
100
AcDbEntity
  8
ALL_DETAIL_ITEM
100
AcDbPolyline
 62
4
  6
CONTINUOUS
 90
7
 70
0
 10
866.1407258828
 20
132.4656932005
 10
865.9449365943
 20
132.4528738842
 10
839.26769638
 20
132.4528738842
 10
866.694936595
 20
132.6538223871
 10
866.5189617434
 20
132.5670411939
 10
866.3331651623
 20
132.5039717532
 10
866.1407258828
 20
132.4656932005
  0
HATCH
  5
620
100
AcDbEntity
  8
ALL_DETAIL_ITEM
100
AcDbHatch
 62
4
  6
CONTINUOUS
 10
0.0
 20
0.0
 30
0.0
210
0.0
220
0.0
230
1.0
  2
SOLID
 70
1
 71
1
 91
1
 92
1
 93
6
 72
1
 10
866.1407258828
 20
132.4656932005
 11
865.9449365943
 21
132.4528738842
 72
1
 10
865.9449365943
 20
132.4528738842
 11
839.26769638
 21
132.4528738842
 72
1
 10
839.26769638
 20
132.4528738842
 11
866.694936595
 21
132.6538223871
 72
1
 10
866.694936595
 20
132.6538223871
 11
866.5189617434
 21
132.5670411939
 72
1
 10
866.5189617434
 20
132.5670411939
 11
866.3331651623
 21
132.5039717532
 72
1
 10
866.3331651623
 20
132.5039717532
 11
866.1407258828
 21
132.4656932005
 97
1
330
61F
 75
0
 76
1
 98
1
 10
0.0
 20
0.0
  0
LWPOLYLINE
  5
621
100
AcDbEntity
  8
ALL_DETAIL_ITEM
100
AcDbPolyline
 62
4
  6
CONTINUOUS
 90
15
 70
0
 10
773.9080883609
 20
132.4647068458
 10
773.7122986549
 20
132.4518805089
 10
745.1141988745
 20
132.4528110886
 10
775.2123474655
 20
133.9518316997
 10
775.1995083866
 20
133.7560428289
 10
775.161223572
 20
133.563604795
 10
775.0981480855
 20
133.3778102663
 10
775.0113611661
 20
133.2018382386
 10
774.9023477622
 20
133.0386996422
 10
774.7729731233
 20
132.8911858235
 10
774.6254508853
 20
132.761820785
 10
774.4623051946
 20
132.6528179983
 10
774.2863275192
 20
132.5660425314
 10
774.1005288859
 20
132.5029791365
 10
773.9080883609
 20
132.4647068458
  0
HATCH
  5
622
100
AcDbEntity
  8
ALL_DETAIL_ITEM
100
AcDbHatch
 62
4
  6
CONTINUOUS
 10
0.0
 20
0.0
 30
0.0
210
0.0
220
0.0
230
1.0
  2
SOLID
 70
1
 71
1
 91
1
 92
1
 93
14
 72
1
 10
773.9080883609
 20
132.4647068458
 11
773.7122986549
 21
132.4518805089
 72
1
 10
773.7122986549
 20
132.4518805089
 11
745.1141988745
 21
132.4528110886
 72
1
 10
745.1141988745
 20
132.4528110886
 11
775.2123474655
 21
133.9518316997
 72
1
 10
775.2123474655
 20
133.9518316997
 11
775.1995083866
 21
133.7560428289
 72
1
 10
775.1995083866
 20
133.7560428289
 11
775.161223572
 21
133.563604795
 72
1
 10
775.161223572
 20
133.563604795
 11
775.0981480855
 21
133.3778102663
 72
1
 10
775.0981480855
 20
133.3778102663
 11
775.0113611661
 21
133.2018382386
 72
1
 10
775.0113611661
 20
133.2018382386
 11
774.9023477622
 21
133.0386996422
 72
1
 10
774.9023477622
 20
133.0386996422
 11
774.7729731233
 21
132.8911858235
 72
1
 10
774.7729731233
 20
132.8911858235
 11
774.6254508853
 21
132.761820785
 72
1
 10
774.6254508853
 20
132.761820785
 11
774.4623051946
 21
132.6528179983
 72
1
 10
774.4623051946
 20
132.6528179983
 11
774.2863275192
 21
132.5660425314
 72
1
 10
774.2863275192
 20
132.5660425314
 11
774.1005288859
 21
132.5029791365
 72
1
 10
774.1005288859
 20
132.5029791365
 11
773.9080883609
 21
132.4647068458
 97
1
330
621
 75
0
 76
1
 98
1
 10
0.0
 20
0.0
  0
LWPOLYLINE
  5
623
100
AcDbEntity
  8
ALL_DETAIL_ITEM
100
AcDbPolyline
 62
4
  6
CONTINUOUS
 90
8
 70
0
 10
837.9653426644
 20
132.3389199825
 10
837.538087384
 20
132.2506993994
 10
831.8215606517
 20
131.8499898095
 10
832.102802379
 20
132.29144926
 10
839.26769638
 20
132.4528738842
 10
838.831612737
 20
132.4401718288
 10
838.3970046455
 20
132.4021487735
 10
837.9653426644
 20
132.3389199825
  0
HATCH
  5
624
100
AcDbEntity
  8
ALL_DETAIL_ITEM
100
AcDbHatch
 62
4
  6
CONTINUOUS
 10
0.0
 20
0.0
 30
0.0
210
0.0
220
0.0
230
1.0
  2
SOLID
 70
1
 71
1
 91
1
 92
1
 93
7
 72
1
 10
837.9653426644
 20
132.3389199825
 11
837.538087384
 21
132.2506993994
 72
1
 10
837.538087384
 20
132.2506993994
 11
831.8215606517
 21
131.8499898095
 72
1
 10
831.8215606517
 20
131.8499898095
 11
832.102802379
 21
132.29144926
 72
1
 10
832.102802379
 20
132.29144926
 11
839.26769638
 21
132.4528738842
 72
1
 10
839.26769638
 20
132.4528738842
 11
838.831612737
 21
132.4401718288
 72
1
 10
838.831612737
 20
132.4401718288
 11
838.3970046455
 21
132.4021487735
 72
1
 10
838.3970046455
 20
132.4021487735
 11
837.9653426644
 21
132.3389199825
 97
1
330
623
 75
0
 76
1
 98
1
 10
0.0
 20
0.0
  0
LWPOLYLINE
  5
625
100
AcDbEntity
  8
ALL_DETAIL_ITEM
100
AcDbPolyline
 62
4
  6
CONTINUOUS
 90
7
 70
0
 10
836.702559841
 20
132.0005604383
 10
836.2971147058
 20
131.8394884414
 10
831.5798649801
 20
131.3856983516
 10
831.8215606517
 20
131.8499898095
 10
837.538087384
 20
132.2506993994
 10
837.1166844838
 20
132.1377855313
 10
836.702559841
 20
132.0005604383
  0
HATCH
  5
626
100
AcDbEntity
  8
ALL_DETAIL_ITEM
100
AcDbHatch
 62
4
  6
CONTINUOUS
 10
0.0
 20
0.0
 30
0.0
210
0.0
220
0.0
230
1.0
  2
SOLID
 70
1
 71
1
 91
1
 92
1
 93
6
 72
1
 10
836.702559841
 20
132.0005604383
 11
836.2971147058
 21
131.8394884414
 72
1
 10
836.2971147058
 20
131.8394884414
 11
831.5798649801
 21
131.3856983516
 72
1
 10
831.5798649801
 20
131.3856983516
 11
831.8215606517
 21
131.8499898095
 72
1
 10
831.8215606517
 20
131.8499898095
 11
837.538087384
 21
132.2506993994
 72
1
 10
837.538087384
 20
132.2506993994
 11
837.1166844838
 21
132.1377855313
 72
1
 10
837.1166844838
 20
132.1377855313
 11
836.702559841
 21
132.0005604383
 97
1
330
625
 75
0
 76
1
 98
1
 10
0.0
 20
0.0
  0
LWPOLYLINE
  5
627
100
AcDbEntity
  8
ALL_DETAIL_ITEM
100
AcDbPolyline
 62
4
  6
CONTINUOUS
 90
7
 70
0
 10
835.5177164746
 20
131.4480626218
 10
835.2969860972
 20
131.3074427826
 10
831.3795548251
 20
130.9021084454
 10
831.5798649801
 20
131.3856983516
 10
836.2971147058
 20
131.8394884414
 10
835.9017209598
 20
131.6551145507
 10
835.5177164746
 20
131.4480626218
  0
HATCH
  5
628
100
AcDbEntity
  8
ALL_DETAIL_ITEM
100
AcDbHatch
 62
4
  6
CONTINUOUS
 10
0.0
 20
0.0
 30
0.0
210
0.0
220
0.0
230
1.0
  2
SOLID
 70
1
 71
1
 91
1
 92
1
 93
6
 72
1
 10
835.5177164746
 20
131.4480626218
 11
835.2969860972
 21
131.3074427826
 72
1
 10
835.2969860972
 20
131.3074427826
 11
831.3795548251
 21
130.9021084454
 72
1
 10
831.3795548251
 20
130.9021084454
 11
831.5798649801
 21
131.3856983516
 72
1
 10
831.5798649801
 20
131.3856983516
 11
836.2971147058
 21
131.8394884414
 72
1
 10
836.2971147058
 20
131.8394884414
 11
835.9017209598
 21
131.6551145507
 72
1
 10
835.9017209598
 20
131.6551145507
 11
835.5177164746
 21
131.4480626218
 97
1
330
627
 75
0
 76
1
 98
1
 10
0.0
 20
0.0
  0
LWPOLYLINE
  5
629
100
AcDbEntity
  8
ALL_DETAIL_ITEM
100
AcDbPolyline
 62
4
  6
CONTINUOUS
 90
7
 70
0
 10
834.8963930156
 20
130.9713070355
 10
834.719579085
 20
130.7783493388
 10
831.2221546768
 20
130.4029005239
 10
831.3795548251
 20
130.9021084454
 10
835.2969860972
 20
131.3074427826
 10
835.0893515329
 20
131.1481200707
 10
834.8963930156
 20
130.9713070355
  0
HATCH
  5
62A
100
AcDbEntity
  8
ALL_DETAIL_ITEM
100
AcDbHatch
 62
4
  6
CONTINUOUS
 10
0.0
 20
0.0
 30
0.0
210
0.0
220
0.0
230
1.0
  2
SOLID
 70
1
 71
1
 91
1
 92
1
 93
6
 72
1
 10
834.8963930156
 20
130.9713070355
 11
834.719579085
 21
130.7783493388
 72
1
 10
834.719579085
 20
130.7783493388
 11
831.2221546768
 21
130.4029005239
 72
1
 10
831.2221546768
 20
130.4029005239
 11
831.3795548251
 21
130.9021084454
 72
1
 10
831.3795548251
 20
130.9021084454
 11
835.2969860972
 21
131.3074427826
 72
1
 10
835.2969860972
 20
131.3074427826
 11
835.0893515329
 21
131.1481200707
 72
1
 10
835.0893515329
 20
131.1481200707
 11
834.8963930156
 21
130.9713070355
 97
1
330
629
 75
0
 76
1
 98
1
 10
0.0
 20
0.0
  0
LWPOLYLINE
  5
62B
100
AcDbEntity
  8
ALL_DETAIL_ITEM
100
AcDbPolyline
 62
4
  6
CONTINUOUS
 90
6
 70
0
 10
834.5602554096
 20
130.5707155138
 10
834.419634546
 20
130.3499857887
 10
831.1088624525
 20
129.8918738832
 10
831.2221546768
 20
130.4029005239
 10
834.719579085
 20
130.7783493388
 10
834.5602554096
 20
130.5707155138
  0
HATCH
  5
62C
100
AcDbEntity
  8
ALL_DETAIL_ITEM
100
AcDbHatch
 62
4
  6
CONTINUOUS
 10
0.0
 20
0.0
 30
0.0
210
0.0
220
0.0
230
1.0
  2
SOLID
 70
1
 71
1
 91
1
 92
1
 93
5
 72
1
 10
834.5602554096
 20
130.5707155138
 11
834.419634546
 21
130.3499857887
 72
1
 10
834.419634546
 20
130.3499857887
 11
831.1088624525
 21
129.8918738832
 72
1
 10
831.1088624525
 20
129.8918738832
 11
831.2221546768
 21
130.4029005239
 72
1
 10
831.2221546768
 20
130.4029005239
 11
834.719579085
 21
130.7783493388
 72
1
 10
834.719579085
 20
130.7783493388
 11
834.5602554096
 21
130.5707155138
 97
1
330
62B
 75
0
 76
1
 98
1
 10
0.0
 20
0.0
  0
LWPOLYLINE
  5
62D
100
AcDbEntity
  8
ALL_DETAIL_ITEM
100
AcDbPolyline
 62
4
  6
CONTINUOUS
 90
6
 70
0
 10
834.2987867103
 20
130.1178400599
 10
834.1986316328
 20
129.876045107
 10
831.0405403796
 20
129.3729177676
 10
831.1088624525
 20
129.8918738832
 10
834.419634546
 20
130.3499857887
 10
834.2987867103
 20
130.1178400599
  0
HATCH
  5
62E
100
AcDbEntity
  8
ALL_DETAIL_ITEM
100
AcDbHatch
 62
4
  6
CONTINUOUS
 10
0.0
 20
0.0
 30
0.0
210
0.0
220
0.0
230
1.0
  2
SOLID
 70
1
 71
1
 91
1
 92
1
 93
5
 72
1
 10
834.2987867103
 20
130.1178400599
 11
834.1986316328
 21
129.876045107
 72
1
 10
834.1986316328
 20
129.876045107
 11
831.0405403796
 21
129.3729177676
 72
1
 10
831.0405403796
 20
129.3729177676
 11
831.1088624525
 21
129.8918738832
 72
1
 10
831.1088624525
 20
129.8918738832
 11
834.419634546
 21
130.3499857887
 72
1
 10
834.419634546
 20
130.3499857887
 11
834.2987867103
 21
130.1178400599
 97
1
330
62D
 75
0
 76
1
 98
1
 10
0.0
 20
0.0
  0
LWPOLYLINE
  5
62F
100
AcDbEntity
  8
ALL_DETAIL_ITEM
100
AcDbPolyline
 62
4
  6
CONTINUOUS
 90
6
 70
0
 10
834.1199315587
 20
129.6264411464
 10
834.0632854466
 20
129.3709278262
 10
831.0177084333
 20
128.8499883141
 10
831.0405403796
 20
129.3729177676
 10
834.1986316328
 20
129.876045107
 10
834.1199315587
 20
129.6264411464
  0
HATCH
  5
630
100
AcDbEntity
  8
ALL_DETAIL_ITEM
100
AcDbHatch
 62
4
  6
CONTINUOUS
 10
0.0
 20
0.0
 30
0.0
210
0.0
220
0.0
230
1.0
  2
SOLID
 70
1
 71
1
 91
1
 92
1
 93
5
 72
1
 10
834.1199315587
 20
129.6264411464
 11
834.0632854466
 21
129.3709278262
 72
1
 10
834.0632854466
 20
129.3709278262
 11
831.0177084333
 21
128.8499883141
 72
1
 10
831.0177084333
 20
128.8499883141
 11
831.0405403796
 21
129.3729177676
 72
1
 10
831.0405403796
 20
129.3729177676
 11
834.1986316328
 21
129.876045107
 72
1
 10
834.1986316328
 20
129.876045107
 11
834.1199315587
 21
129.6264411464
 97
1
330
62F
 75
0
 76
1
 98
1
 10
0.0
 20
0.0
  0
LWPOLYLINE
  5
631
100
AcDbEntity
  8
ALL_DETAIL_ITEM
100
AcDbPolyline
 62
4
  6
CONTINUOUS
 90
8
 70
0
 10
834.0291244102
 20
129.1114497686
 10
834.017708437
 20
128.8499883141
 10
834.017708437
 20
124.3477441688
 10
831.0405403796
 20
123.8248069748
 10
831.0177084333
 20
124.3477441688
 10
831.0177084333
 20
128.8499883141
 10
834.0632854466
 20
129.3709278262
 10
834.0291244102
 20
129.1114497686
  0
HATCH
  5
632
100
AcDbEntity
  8
ALL_DETAIL_ITEM
100
AcDbHatch
 62
4
  6
CONTINUOUS
 10
0.0
 20
0.0
 30
0.0
210
0.0
220
0.0
230
1.0
  2
SOLID
 70
1
 71
1
 91
1
 92
1
 93
7
 72
1
 10
834.0291244102
 20
129.1114497686
 11
834.017708437
 21
128.8499883141
 72
1
 10
834.017708437
 20
128.8499883141
 11
834.017708437
 21
124.3477441688
 72
1
 10
834.017708437
 20
124.3477441688
 11
831.0405403796
 21
123.8248069748
 72
1
 10
831.0405403796
 20
123.8248069748
 11
831.0177084333
 21
124.3477441688
 72
1
 10
831.0177084333
 20
124.3477441688
 11
831.0177084333
 21
128.8499883141
 72
1
 10
831.0177084333
 20
128.8499883141
 11
834.0632854466
 21
129.3709278262
 72
1
 10
834.0632854466
 20
129.3709278262
 11
834.0291244102
 21
129.1114497686
 97
1
330
631
 75
0
 76
1
 98
1
 10
0.0
 20
0.0
  0
LWPOLYLINE
  5
633
100
AcDbEntity
  8
ALL_DETAIL_ITEM
100
AcDbPolyline
 62
4
  6
CONTINUOUS
 90
7
 70
0
 10
834.0632854466
 20
123.8267969162
 10
834.1199315587
 20
123.571283596
 10
831.1088624525
 20
123.3058508591
 10
831.0405403796
 20
123.8248069748
 10
834.017708437
 20
124.3477441688
 10
834.0291244102
 20
124.0862749738
 10
834.0632854466
 20
123.8267969162
  0
HATCH
  5
634
100
AcDbEntity
  8
ALL_DETAIL_ITEM
100
AcDbHatch
 62
4
  6
CONTINUOUS
 10
0.0
 20
0.0
 30
0.0
210
0.0
220
0.0
230
1.0
  2
SOLID
 70
1
 71
1
 91
1
 92
1
 93
6
 72
1
 10
834.0632854466
 20
123.8267969162
 11
834.1199315587
 21
123.571283596
 72
1
 10
834.1199315587
 20
123.571283596
 11
831.1088624525
 21
123.3058508591
 72
1
 10
831.1088624525
 20
123.3058508591
 11
831.0405403796
 21
123.8248069748
 72
1
 10
831.0405403796
 20
123.8248069748
 11
834.017708437
 21
124.3477441688
 72
1
 10
834.017708437
 20
124.3477441688
 11
834.0291244102
 21
124.0862749738
 72
1
 10
834.0291244102
 20
124.0862749738
 11
834.0632854466
 21
123.8267969162
 97
1
330
633
 75
0
 76
1
 98
1
 10
0.0
 20
0.0
  0
LWPOLYLINE
  5
635
100
AcDbEntity
  8
ALL_DETAIL_ITEM
100
AcDbPolyline
 62
4
  6
CONTINUOUS
 90
6
 70
0
 10
834.1986316328
 20
123.3216796354
 10
834.2987867103
 20
123.0798846825
 10
831.2221546768
 20
122.7948242185
 10
831.1088624525
 20
123.3058508591
 10
834.1199315587
 20
123.571283596
 10
834.1986316328
 20
123.3216796354
  0
HATCH
  5
636
100
AcDbEntity
  8
ALL_DETAIL_ITEM
100
AcDbHatch
 62
4
  6
CONTINUOUS
 10
0.0
 20
0.0
 30
0.0
210
0.0
220
0.0
230
1.0
  2
SOLID
 70
1
 71
1
 91
1
 92
1
 93
5
 72
1
 10
834.1986316328
 20
123.3216796354
 11
834.2987867103
 21
123.0798846825
 72
1
 10
834.2987867103
 20
123.0798846825
 11
831.2221546768
 21
122.7948242185
 72
1
 10
831.2221546768
 20
122.7948242185
 11
831.1088624525
 21
123.3058508591
 72
1
 10
831.1088624525
 20
123.3058508591
 11
834.1199315587
 21
123.571283596
 72
1
 10
834.1199315587
 20
123.571283596
 11
834.1986316328
 21
123.3216796354
 97
1
330
635
 75
0
 76
1
 98
1
 10
0.0
 20
0.0
  0
LWPOLYLINE
  5
637
100
AcDbEntity
  8
ALL_DETAIL_ITEM
100
AcDbPolyline
 62
4
  6
CONTINUOUS
 90
6
 70
0
 10
834.419634546
 20
122.8477389536
 10
834.5602554096
 20
122.6270092286
 10
831.3795548251
 20
122.295616297
 10
831.2221546768
 20
122.7948242185
 10
834.2987867103
 20
123.0798846825
 10
834.419634546
 20
122.8477389536
  0
HATCH
  5
638
100
AcDbEntity
  8
ALL_DETAIL_ITEM
100
AcDbHatch
 62
4
  6
CONTINUOUS
 10
0.0
 20
0.0
 30
0.0
210
0.0
220
0.0
230
1.0
  2
SOLID
 70
1
 71
1
 91
1
 92
1
 93
5
 72
1
 10
834.419634546
 20
122.8477389536
 11
834.5602554096
 21
122.6270092286
 72
1
 10
834.5602554096
 20
122.6270092286
 11
831.3795548251
 21
122.295616297
 72
1
 10
831.3795548251
 20
122.295616297
 11
831.2221546768
 21
122.7948242185
 72
1
 10
831.2221546768
 20
122.7948242185
 11
834.2987867103
 21
123.0798846825
 72
1
 10
834.2987867103
 20
123.0798846825
 11
834.419634546
 21
122.8477389536
 97
1
330
637
 75
0
 76
1
 98
1
 10
0.0
 20
0.0
  0
LWPOLYLINE
  5
639
100
AcDbEntity
  8
ALL_DETAIL_ITEM
100
AcDbPolyline
 62
4
  6
CONTINUOUS
 90
6
 70
0
 10
834.719579085
 20
122.4193754036
 10
834.8963930156
 20
122.2264177069
 10
831.5798649801
 20
121.8120263908
 10
831.3795548251
 20
122.295616297
 10
834.5602554096
 20
122.6270092286
 10
834.719579085
 20
122.4193754036
  0
HATCH
  5
63A
100
AcDbEntity
  8
ALL_DETAIL_ITEM
100
AcDbHatch
 62
4
  6
CONTINUOUS
 10
0.0
 20
0.0
 30
0.0
210
0.0
220
0.0
230
1.0
  2
SOLID
 70
1
 71
1
 91
1
 92
1
 93
5
 72
1
 10
834.719579085
 20
122.4193754036
 11
834.8963930156
 21
122.2264177069
 72
1
 10
834.8963930156
 20
122.2264177069
 11
831.5798649801
 21
121.8120263908
 72
1
 10
831.5798649801
 20
121.8120263908
 11
831.3795548251
 21
122.295616297
 72
1
 10
831.3795548251
 20
122.295616297
 11
834.5602554096
 21
122.6270092286
 72
1
 10
834.5602554096
 20
122.6270092286
 11
834.719579085
 21
122.4193754036
 97
1
330
639
 75
0
 76
1
 98
1
 10
0.0
 20
0.0
  0
LWPOLYLINE
  5
63B
100
AcDbEntity
  8
ALL_DETAIL_ITEM
100
AcDbPolyline
 62
4
  6
CONTINUOUS
 90
7
 70
0
 10
835.2969860972
 20
121.8902819598
 10
835.5177164749
 20
121.7496621206
 10
831.8215606517
 20
121.3477349329
 10
831.5798649801
 20
121.8120263908
 10
834.8963930156
 20
122.2264177069
 10
835.0893515329
 20
122.0496046716
 10
835.2969860972
 20
121.8902819598
  0
HATCH
  5
63C
100
AcDbEntity
  8
ALL_DETAIL_ITEM
100
AcDbHatch
 62
4
  6
CONTINUOUS
 10
0.0
 20
0.0
 30
0.0
210
0.0
220
0.0
230
1.0
  2
SOLID
 70
1
 71
1
 91
1
 92
1
 93
6
 72
1
 10
835.2969860972
 20
121.8902819598
 11
835.5177164749
 21
121.7496621206
 72
1
 10
835.5177164749
 20
121.7496621206
 11
831.8215606517
 21
121.3477349329
 72
1
 10
831.8215606517
 20
121.3477349329
 11
831.5798649801
 21
121.8120263908
 72
1
 10
831.5798649801
 20
121.8120263908
 11
834.8963930156
 21
122.2264177069
 72
1
 10
834.8963930156
 20
122.2264177069
 11
835.0893515329
 21
122.0496046716
 72
1
 10
835.0893515329
 20
122.0496046716
 11
835.2969860972
 21
121.8902819598
 97
1
330
63B
 75
0
 76
1
 98
1
 10
0.0
 20
0.0
  0
LWPOLYLINE
  5
63D
100
AcDbEntity
  8
ALL_DETAIL_ITEM
100
AcDbPolyline
 62
4
  6
CONTINUOUS
 90
7
 70
0
 10
836.2971147058
 20
121.358236301
 10
836.702559841
 20
121.197164304
 10
832.102802379
 20
120.9062754824
 10
831.8215606517
 20
121.3477349329
 10
835.5177164749
 20
121.7496621206
 10
835.9017209598
 20
121.5426101916
 10
836.2971147058
 20
121.358236301
  0
HATCH
  5
63E
100
AcDbEntity
  8
ALL_DETAIL_ITEM
100
AcDbHatch
 62
4
  6
CONTINUOUS
 10
0.0
 20
0.0
 30
0.0
210
0.0
220
0.0
230
1.0
  2
SOLID
 70
1
 71
1
 91
1
 92
1
 93
6
 72
1
 10
836.2971147058
 20
121.358236301
 11
836.702559841
 21
121.197164304
 72
1
 10
836.702559841
 20
121.197164304
 11
832.102802379
 21
120.9062754824
 72
1
 10
832.102802379
 20
120.9062754824
 11
831.8215606517
 21
121.3477349329
 72
1
 10
831.8215606517
 20
121.3477349329
 11
835.5177164749
 21
121.7496621206
 72
1
 10
835.5177164749
 20
121.7496621206
 11
835.9017209598
 21
121.5426101916
 72
1
 10
835.9017209598
 20
121.5426101916
 11
836.2971147058
 21
121.358236301
 97
1
330
63D
 75
0
 76
1
 98
1
 10
0.0
 20
0.0
  0
LWPOLYLINE
  5
63F
100
AcDbEntity
  8
ALL_DETAIL_ITEM
100
AcDbPolyline
 62
4
  6
CONTINUOUS
 90
7
 70
0
 10
837.538087384
 20
120.947025343
 10
837.9653426644
 20
120.8588047599
 10
832.42144973
 20
120.4910078322
 10
832.102802379
 20
120.9062754824
 10
836.702559841
 20
121.197164304
 10
837.1166844838
 20
121.0599392111
 10
837.538087384
 20
120.947025343
  0
HATCH
  5
640
100
AcDbEntity
  8
ALL_DETAIL_ITEM
100
AcDbHatch
 62
4
  6
CONTINUOUS
 10
0.0
 20
0.0
 30
0.0
210
0.0
220
0.0
230
1.0
  2
SOLID
 70
1
 71
1
 91
1
 92
1
 93
6
 72
1
 10
837.538087384
 20
120.947025343
 11
837.9653426644
 21
120.8588047599
 72
1
 10
837.9653426644
 20
120.8588047599
 11
832.42144973
 21
120.4910078322
 72
1
 10
832.42144973
 20
120.4910078322
 11
832.102802379
 21
120.9062754824
 72
1
 10
832.102802379
 20
120.9062754824
 11
836.702559841
 21
121.197164304
 72
1
 10
836.702559841
 20
121.197164304
 11
837.1166844838
 21
121.0599392111
 72
1
 10
837.1166844838
 20
121.0599392111
 11
837.538087384
 21
120.947025343
 97
1
330
63F
 75
0
 76
1
 98
1
 10
0.0
 20
0.0
  0
LWPOLYLINE
  5
641
100
AcDbEntity
  8
ALL_DETAIL_ITEM
100
AcDbPolyline
 62
4
  6
CONTINUOUS
 90
8
 70
0
 10
861.0240282715
 20
120.7459017429
 10
861.6345453737
 20
120.7281406864
 10
832.42144973
 20
120.4910078322
 10
837.9653426644
 20
120.8588047599
 10
838.3970046455
 20
120.7955759689
 10
838.831612737
 20
120.7575529136
 10
839.26769638
 20
120.7448642506
 10
861.0240282715
 20
120.7459017429
  0
HATCH
  5
642
100
AcDbEntity
  8
ALL_DETAIL_ITEM
100
AcDbHatch
 62
4
  6
CONTINUOUS
 10
0.0
 20
0.0
 30
0.0
210
0.0
220
0.0
230
1.0
  2
SOLID
 70
1
 71
1
 91
1
 92
1
 93
7
 72
1
 10
861.0240282715
 20
120.7459017429
 11
861.6345453737
 21
120.7281406864
 72
1
 10
861.6345453737
 20
120.7281406864
 11
832.42144973
 21
120.4910078322
 72
1
 10
832.42144973
 20
120.4910078322
 11
837.9653426644
 21
120.8588047599
 72
1
 10
837.9653426644
 20
120.8588047599
 11
838.3970046455
 21
120.7955759689
 72
1
 10
838.3970046455
 20
120.7955759689
 11
838.831612737
 21
120.7575529136
 72
1
 10
838.831612737
 20
120.7575529136
 11
839.26769638
 21
120.7448642506
 72
1
 10
839.26769638
 20
120.7448642506
 11
861.0240282715
 21
120.7459017429
 97
1
330
641
 75
0
 76
1
 98
1
 10
0.0
 20
0.0
  0
LWPOLYLINE
  5
643
100
AcDbEntity
  8
ALL_DETAIL_ITEM
100
AcDbPolyline
 62
4
  6
CONTINUOUS
 90
7
 70
0
 10
862.8473234791
 20
120.5863881008
 10
863.4454808735
 20
120.4628792837
 10
832.7750775916
 20
120.1050924385
 10
832.42144973
 20
120.4910078322
 10
861.6345453737
 20
120.7281406864
 10
862.2429967037
 20
120.6749084087
 10
862.8473234791
 20
120.5863881008
  0
HATCH
  5
644
100
AcDbEntity
  8
ALL_DETAIL_ITEM
100
AcDbHatch
 62
4
  6
CONTINUOUS
 10
0.0
 20
0.0
 30
0.0
210
0.0
220
0.0
230
1.0
  2
SOLID
 70
1
 71
1
 91
1
 92
1
 93
6
 72
1
 10
862.8473234791
 20
120.5863881008
 11
863.4454808735
 21
120.4628792837
 72
1
 10
863.4454808735
 20
120.4628792837
 11
832.7750775916
 21
120.1050924385
 72
1
 10
832.7750775916
 20
120.1050924385
 11
832.42144973
 21
120.4910078322
 72
1
 10
832.42144973
 20
120.4910078322
 11
861.6345453737
 21
120.7281406864
 72
1
 10
861.6345453737
 20
120.7281406864
 11
862.2429967037
 21
120.6749084087
 72
1
 10
862.2429967037
 20
120.6749084087
 11
862.8473234791
 21
120.5863881008
 97
1
330
643
 75
0
 76
1
 98
1
 10
0.0
 20
0.0
  0
LWPOLYLINE
  5
645
100
AcDbEntity
  8
ALL_DETAIL_ITEM
100
AcDbPolyline
 62
4
  6
CONTINUOUS
 90
50
 70
0
 10
864.6152194371
 20
120.1126847362
 10
865.182842628
 20
119.8871839392
 10
865.7363938738
 20
119.6290604908
 10
866.2740001543
 20
119.3391877886
 10
866.7154609089
 20
119.0579481093
 10
867.1307300369
 20
118.7393026853
 10
867.5166470707
 20
118.3856766147
 10
867.8702749314
 20
117.9997612212
 10
868.1889222815
 20
117.5844935713
 10
868.470164008
 20
117.1430341212
 10
868.711859679
 20
116.6787426638
 10
868.9121698335
 20
116.1951527582
 10
869.0695699814
 20
115.6959448373
 10
869.1828622053
 20
115.1849181973
 10
869.2511842781
 20
114.6659620824
 10
866.2284392111
 20
114.663972141
 10
866.1717930991
 20
114.9194854608
 10
866.0930930253
 20
115.1690894211
 10
865.9929379481
 20
115.4108843737
 10
865.8720901127
 20
115.6430301023
 10
865.7314692495
 20
115.8637598272
 10
865.5721455745
 20
116.071393652
 10
865.3953316443
 20
116.2643513487
 10
865.2023731275
 20
116.4411643839
 10
864.9947385637
 20
116.6004870958
 10
864.7740081865
 20
116.7411069351
 10
864.3900037005
 20
116.9481588656
 10
863.9946099537
 20
117.1325327573
 10
863.5891648174
 20
117.2936047551
 10
863.1750401736
 20
117.4308298488
 10
862.7536372723
 20
117.5437437175
 10
862.3263819908
 20
117.6319643011
 10
861.8947200085
 20
117.6951930924
 10
861.4601119158
 20
117.7332161479
 10
861.0240282716
 20
117.7458862379
 10
838.6571792795
 20
117.7626283751
 10
838.0487279512
 20
117.8158606525
 10
837.4444011775
 20
117.90438096
 10
836.8462437847
 20
118.0278897763
 10
836.2562797243
 20
118.1859691918
 10
835.6765052241
 20
118.3780843219
 10
835.1088820345
 20
118.6035851177
 10
834.55533079
 20
118.8617085647
 10
834.0177245106
 20
119.1515812654
 10
833.5762637552
 20
119.432820944
 10
833.1609946263
 20
119.7514663678
 10
832.7750775916
 20
120.1050924385
 10
863.4454808735
 20
120.4628792837
 10
864.0354449355
 20
120.3047998674
 10
864.6152194371
 20
120.1126847362
  0
HATCH
  5
646
100
AcDbEntity
  8
ALL_DETAIL_ITEM
100
AcDbHatch
 62
4
  6
CONTINUOUS
 10
0.0
 20
0.0
 30
0.0
210
0.0
220
0.0
230
1.0
  2
SOLID
 70
1
 71
1
 91
1
 92
1
 93
49
 72
1
 10
864.6152194371
 20
120.1126847362
 11
865.182842628
 21
119.8871839392
 72
1
 10
865.182842628
 20
119.8871839392
 11
865.7363938738
 21
119.6290604908
 72
1
 10
865.7363938738
 20
119.6290604908
 11
866.2740001543
 21
119.3391877886
 72
1
 10
866.2740001543
 20
119.3391877886
 11
866.7154609089
 21
119.0579481093
 72
1
 10
866.7154609089
 20
119.0579481093
 11
867.1307300369
 21
118.7393026853
 72
1
 10
867.1307300369
 20
118.7393026853
 11
867.5166470707
 21
118.3856766147
 72
1
 10
867.5166470707
 20
118.3856766147
 11
867.8702749314
 21
117.9997612212
 72
1
 10
867.8702749314
 20
117.9997612212
 11
868.1889222815
 21
117.5844935713
 72
1
 10
868.1889222815
 20
117.5844935713
 11
868.470164008
 21
117.1430341212
 72
1
 10
868.470164008
 20
117.1430341212
 11
868.711859679
 21
116.6787426638
 72
1
 10
868.711859679
 20
116.6787426638
 11
868.9121698335
 21
116.1951527582
 72
1
 10
868.9121698335
 20
116.1951527582
 11
869.0695699814
 21
115.6959448373
 72
1
 10
869.0695699814
 20
115.6959448373
 11
869.1828622053
 21
115.1849181973
 72
1
 10
869.1828622053
 20
115.1849181973
 11
869.2511842781
 21
114.6659620824
 72
1
 10
869.2511842781
 20
114.6659620824
 11
866.2284392111
 21
114.663972141
 72
1
 10
866.2284392111
 20
114.663972141
 11
866.1717930991
 21
114.9194854608
 72
1
 10
866.1717930991
 20
114.9194854608
 11
866.0930930253
 21
115.1690894211
 72
1
 10
866.0930930253
 20
115.1690894211
 11
865.9929379481
 21
115.4108843737
 72
1
 10
865.9929379481
 20
115.4108843737
 11
865.8720901127
 21
115.6430301023
 72
1
 10
865.8720901127
 20
115.6430301023
 11
865.7314692495
 21
115.8637598272
 72
1
 10
865.7314692495
 20
115.8637598272
 11
865.5721455745
 21
116.071393652
 72
1
 10
865.5721455745
 20
116.071393652
 11
865.3953316443
 21
116.2643513487
 72
1
 10
865.3953316443
 20
116.2643513487
 11
865.2023731275
 21
116.4411643839
 72
1
 10
865.2023731275
 20
116.4411643839
 11
864.9947385637
 21
116.6004870958
 72
1
 10
864.9947385637
 20
116.6004870958
 11
864.7740081865
 21
116.7411069351
 72
1
 10
864.7740081865
 20
116.7411069351
 11
864.3900037005
 21
116.9481588656
 72
1
 10
864.3900037005
 20
116.9481588656
 11
863.9946099537
 21
117.1325327573
 72
1
 10
863.9946099537
 20
117.1325327573
 11
863.5891648174
 21
117.2936047551
 72
1
 10
863.5891648174
 20
117.2936047551
 11
863.1750401736
 21
117.4308298488
 72
1
 10
863.1750401736
 20
117.4308298488
 11
862.7536372723
 21
117.5437437175
 72
1
 10
862.7536372723
 20
117.5437437175
 11
862.3263819908
 21
117.6319643011
 72
1
 10
862.3263819908
 20
117.6319643011
 11
861.8947200085
 21
117.6951930924
 72
1
 10
861.8947200085
 20
117.6951930924
 11
861.4601119158
 21
117.7332161479
 72
1
 10
861.4601119158
 20
117.7332161479
 11
861.0240282716
 21
117.7458862379
 72
1
 10
861.0240282716
 20
117.7458862379
 11
838.6571792795
 21
117.7626283751
 72
1
 10
838.6571792795
 20
117.7626283751
 11
838.0487279512
 21
117.8158606525
 72
1
 10
838.0487279512
 20
117.8158606525
 11
837.4444011775
 21
117.90438096
 72
1
 10
837.4444011775
 20
117.90438096
 11
836.8462437847
 21
118.0278897763
 72
1
 10
836.8462437847
 20
118.0278897763
 11
836.2562797243
 21
118.1859691918
 72
1
 10
836.2562797243
 20
118.1859691918
 11
835.6765052241
 21
118.3780843219
 72
1
 10
835.6765052241
 20
118.3780843219
 11
835.1088820345
 21
118.6035851177
 72
1
 10
835.1088820345
 20
118.6035851177
 11
834.55533079
 21
118.8617085647
 72
1
 10
834.55533079
 20
118.8617085647
 11
834.0177245106
 21
119.1515812654
 72
1
 10
834.0177245106
 20
119.1515812654
 11
833.5762637552
 21
119.432820944
 72
1
 10
833.5762637552
 20
119.432820944
 11
833.1609946263
 21
119.7514663678
 72
1
 10
833.1609946263
 20
119.7514663678
 11
832.7750775916
 21
120.1050924385
 72
1
 10
832.7750775916
 20
120.1050924385
 11
863.4454808735
 21
120.4628792837
 72
1
 10
863.4454808735
 20
120.4628792837
 11
864.0354449355
 21
120.3047998674
 72
1
 10
864.0354449355
 20
120.3047998674
 11
864.6152194371
 21
120.1126847362
 97
1
330
645
 75
0
 76
1
 98
1
 10
0.0
 20
0.0
  0
LWPOLYLINE
  5
647
100
AcDbEntity
  8
ALL_DETAIL_ITEM
100
AcDbPolyline
 62
4
  6
CONTINUOUS
 90
30
 70
0
 10
772.4658136253
 20
117.7587348273
 10
772.2700243368
 20
117.7458862379
 10
745.1141988745
 20
117.7458862379
 10
742.1141988745
 20
104.5408816613
 10
745.1141988745
 20
132.4528110886
 10
745.1141988745
 20
120.7459017429
 10
772.2700243368
 20
120.7459017429
 10
772.4658136253
 20
120.7330694144
 10
772.6582529048
 20
120.6947908617
 10
772.8440494859
 20
120.631721421
 10
773.0200243375
 20
120.5449402278
 10
773.1831664812
 20
120.4359321324
 10
773.3306845096
 20
120.3065622937
 10
773.4600543484
 20
120.1590442652
 10
773.5690624438
 20
119.9959021216
 10
773.6558436369
 20
119.8199272699
 10
773.7189130777
 20
119.6341306889
 10
773.7571916303
 20
119.4416914093
 10
773.7700243383
 20
119.2459021208
 10
773.7571916303
 20
119.0501128323
 10
773.7189130777
 20
118.8576735528
 10
773.6558436369
 20
118.6718769717
 10
773.5690624438
 20
118.4959021201
 10
773.4600543484
 20
118.3327599764
 10
773.3306845096
 20
118.185241948
 10
773.1831664812
 20
118.0558721092
 10
773.0200243375
 20
117.9468640138
 10
772.8440494859
 20
117.8600828207
 10
772.6582529048
 20
117.7970133799
 10
772.4658136253
 20
117.7587348273
  0
HATCH
  5
648
100
AcDbEntity
  8
ALL_DETAIL_ITEM
100
AcDbHatch
 62
4
  6
CONTINUOUS
 10
0.0
 20
0.0
 30
0.0
210
0.0
220
0.0
230
1.0
  2
SOLID
 70
1
 71
1
 91
1
 92
1
 93
29
 72
1
 10
772.4658136253
 20
117.7587348273
 11
772.2700243368
 21
117.7458862379
 72
1
 10
772.2700243368
 20
117.7458862379
 11
745.1141988745
 21
117.7458862379
 72
1
 10
745.1141988745
 20
117.7458862379
 11
742.1141988745
 21
104.5408816613
 72
1
 10
742.1141988745
 20
104.5408816613
 11
745.1141988745
 21
132.4528110886
 72
1
 10
745.1141988745
 20
132.4528110886
 11
745.1141988745
 21
120.7459017429
 72
1
 10
745.1141988745
 20
120.7459017429
 11
772.2700243368
 21
120.7459017429
 72
1
 10
772.2700243368
 20
120.7459017429
 11
772.4658136253
 21
120.7330694144
 72
1
 10
772.4658136253
 20
120.7330694144
 11
772.6582529048
 21
120.6947908617
 72
1
 10
772.6582529048
 20
120.6947908617
 11
772.8440494859
 21
120.631721421
 72
1
 10
772.8440494859
 20
120.631721421
 11
773.0200243375
 21
120.5449402278
 72
1
 10
773.0200243375
 20
120.5449402278
 11
773.1831664812
 21
120.4359321324
 72
1
 10
773.1831664812
 20
120.4359321324
 11
773.3306845096
 21
120.3065622937
 72
1
 10
773.3306845096
 20
120.3065622937
 11
773.4600543484
 21
120.1590442652
 72
1
 10
773.4600543484
 20
120.1590442652
 11
773.5690624438
 21
119.9959021216
 72
1
 10
773.5690624438
 20
119.9959021216
 11
773.6558436369
 21
119.8199272699
 72
1
 10
773.6558436369
 20
119.8199272699
 11
773.7189130777
 21
119.6341306889
 72
1
 10
773.7189130777
 20
119.6341306889
 11
773.7571916303
 21
119.4416914093
 72
1
 10
773.7571916303
 20
119.4416914093
 11
773.7700243383
 21
119.2459021208
 72
1
 10
773.7700243383
 20
119.2459021208
 11
773.7571916303
 21
119.0501128323
 72
1
 10
773.7571916303
 20
119.0501128323
 11
773.7189130777
 21
118.8576735528
 72
1
 10
773.7189130777
 20
118.8576735528
 11
773.6558436369
 21
118.6718769717
 72
1
 10
773.6558436369
 20
118.6718769717
 11
773.5690624438
 21
118.4959021201
 72
1
 10
773.5690624438
 20
118.4959021201
 11
773.4600543484
 21
118.3327599764
 72
1
 10
773.4600543484
 20
118.3327599764
 11
773.3306845096
 21
118.185241948
 72
1
 10
773.3306845096
 20
118.185241948
 11
773.1831664812
 21
118.0558721092
 72
1
 10
773.1831664812
 20
118.0558721092
 11
773.0200243375
 21
117.9468640138
 72
1
 10
773.0200243375
 20
117.9468640138
 11
772.8440494859
 21
117.8600828207
 72
1
 10
772.8440494859
 20
117.8600828207
 11
772.6582529048
 21
117.7970133799
 72
1
 10
772.6582529048
 20
117.7970133799
 11
772.4658136253
 21
117.7587348273
 97
1
330
647
 75
0
 76
1
 98
1
 10
0.0
 20
0.0
  0
SOLID
  5
649
100
AcDbEntity
  8
ALL_DETAIL_ITEM
100
AcDbTrace
 62
4
  6
CONTINUOUS
 10
839.26769638
 20
117.7448642476
 11
838.6571792795
 21
117.7626283751
 12
861.0240282716
 22
117.7458862379
 13
861.0240282716
 23
117.7458862379
  0
LWPOLYLINE
  5
64A
100
AcDbEntity
  8
ALL_DETAIL_ITEM
100
AcDbPolyline
 62
4
  6
CONTINUOUS
 90
37
 70
0
 10
866.2284392111
 20
114.663972141
 10
869.2511842781
 20
114.6659620824
 10
869.2740162243
 20
114.1430343176
 10
869.2740162243
 20
109.6407901723
 10
869.2511842781
 20
109.117851291
 10
869.1828622053
 20
108.5988951761
 10
869.0695699814
 20
108.0878685361
 10
868.9121698335
 20
107.5886606152
 10
868.711859679
 20
107.1050707096
 10
868.470164008
 20
106.6407792522
 10
868.1889222815
 20
106.1993198021
 10
867.8702749314
 20
105.7840521522
 10
861.0240282715
 20
106.0379046022
 10
861.4601119158
 20
106.0505972262
 10
861.8947200085
 20
106.0886202817
 10
862.3263819907
 20
106.151849073
 10
862.7536372723
 20
106.2400696566
 10
863.1750401736
 20
106.3529835254
 10
863.5891648174
 20
106.490208619
 10
863.9946099537
 20
106.6512806168
 10
864.3900037005
 20
106.8356545085
 10
864.7740081865
 20
107.0427064386
 10
864.9947385637
 20
107.1833262776
 10
865.2023731275
 20
107.3426489895
 10
865.3953316443
 20
107.5194620247
 10
865.5721455745
 20
107.7124197213
 10
865.7314692495
 20
107.9200535462
 10
865.8720901127
 20
108.1407832711
 10
865.9929379481
 20
108.3729289996
 10
866.0930930253
 20
108.6147239523
 10
866.1717930991
 20
108.8643279126
 10
866.2284392111
 20
109.1198412324
 10
866.2626002474
 20
109.3793192897
 10
866.2740162205
 20
109.6407901723
 10
866.2740162205
 20
114.1430343176
 10
866.2626002474
 20
114.4044940837
 10
866.2284392111
 20
114.663972141
  0
HATCH
  5
64B
100
AcDbEntity
  8
ALL_DETAIL_ITEM
100
AcDbHatch
 62
4
  6
CONTINUOUS
 10
0.0
 20
0.0
 30
0.0
210
0.0
220
0.0
230
1.0
  2
SOLID
 70
1
 71
1
 91
1
 92
1
 93
36
 72
1
 10
866.2284392111
 20
114.663972141
 11
869.2511842781
 21
114.6659620824
 72
1
 10
869.2511842781
 20
114.6659620824
 11
869.2740162243
 21
114.1430343176
 72
1
 10
869.2740162243
 20
114.1430343176
 11
869.2740162243
 21
109.6407901723
 72
1
 10
869.2740162243
 20
109.6407901723
 11
869.2511842781
 21
109.117851291
 72
1
 10
869.2511842781
 20
109.117851291
 11
869.1828622053
 21
108.5988951761
 72
1
 10
869.1828622053
 20
108.5988951761
 11
869.0695699814
 21
108.0878685361
 72
1
 10
869.0695699814
 20
108.0878685361
 11
868.9121698335
 21
107.5886606152
 72
1
 10
868.9121698335
 20
107.5886606152
 11
868.711859679
 21
107.1050707096
 72
1
 10
868.711859679
 20
107.1050707096
 11
868.470164008
 21
106.6407792522
 72
1
 10
868.470164008
 20
106.6407792522
 11
868.1889222815
 21
106.1993198021
 72
1
 10
868.1889222815
 20
106.1993198021
 11
867.8702749314
 21
105.7840521522
 72
1
 10
867.8702749314
 20
105.7840521522
 11
861.0240282715
 21
106.0379046022
 72
1
 10
861.0240282715
 20
106.0379046022
 11
861.4601119158
 21
106.0505972262
 72
1
 10
861.4601119158
 20
106.0505972262
 11
861.8947200085
 21
106.0886202817
 72
1
 10
861.8947200085
 20
106.0886202817
 11
862.3263819907
 21
106.151849073
 72
1
 10
862.3263819907
 20
106.151849073
 11
862.7536372723
 21
106.2400696566
 72
1
 10
862.7536372723
 20
106.2400696566
 11
863.1750401736
 21
106.3529835254
 72
1
 10
863.1750401736
 20
106.3529835254
 11
863.5891648174
 21
106.490208619
 72
1
 10
863.5891648174
 20
106.490208619
 11
863.9946099537
 21
106.6512806168
 72
1
 10
863.9946099537
 20
106.6512806168
 11
864.3900037005
 21
106.8356545085
 72
1
 10
864.3900037005
 20
106.8356545085
 11
864.7740081865
 21
107.0427064386
 72
1
 10
864.7740081865
 20
107.0427064386
 11
864.9947385637
 21
107.1833262776
 72
1
 10
864.9947385637
 20
107.1833262776
 11
865.2023731275
 21
107.3426489895
 72
1
 10
865.2023731275
 20
107.3426489895
 11
865.3953316443
 21
107.5194620247
 72
1
 10
865.3953316443
 20
107.5194620247
 11
865.5721455745
 21
107.7124197213
 72
1
 10
865.5721455745
 20
107.7124197213
 11
865.7314692495
 21
107.9200535462
 72
1
 10
865.7314692495
 20
107.9200535462
 11
865.8720901127
 21
108.1407832711
 72
1
 10
865.8720901127
 20
108.1407832711
 11
865.9929379481
 21
108.3729289996
 72
1
 10
865.9929379481
 20
108.3729289996
 11
866.0930930253
 21
108.6147239523
 72
1
 10
866.0930930253
 20
108.6147239523
 11
866.1717930991
 21
108.8643279126
 72
1
 10
866.1717930991
 20
108.8643279126
 11
866.2284392111
 21
109.1198412324
 72
1
 10
866.2284392111
 20
109.1198412324
 11
866.2626002474
 21
109.3793192897
 72
1
 10
866.2626002474
 20
109.3793192897
 11
866.2740162205
 21
109.6407901723
 72
1
 10
866.2740162205
 20
109.6407901723
 11
866.2740162205
 21
114.1430343176
 72
1
 10
866.2740162205
 20
114.1430343176
 11
866.2626002474
 21
114.4044940837
 72
1
 10
866.2626002474
 20
114.4044940837
 11
866.2284392111
 21
114.663972141
 97
1
330
64A
 75
0
 76
1
 98
1
 10
0.0
 20
0.0
  0
LWPOLYLINE
  5
64C
100
AcDbEntity
  8
ALL_DETAIL_ITEM
100
AcDbPolyline
 62
4
  6
CONTINUOUS
 90
6
 70
0
 10
786.8437969167
 20
109.6514235135
 10
786.8552056697
 20
109.3900990591
 10
783.8666144199
 20
109.1287409548
 10
783.8437969143
 20
109.6513562139
 10
786.8431916373
 20
134.4105864049
 10
786.8437969167
 20
109.6514235135
  0
HATCH
  5
64D
100
AcDbEntity
  8
ALL_DETAIL_ITEM
100
AcDbHatch
 62
4
  6
CONTINUOUS
 10
0.0
 20
0.0
 30
0.0
210
0.0
220
0.0
230
1.0
  2
SOLID
 70
1
 71
1
 91
1
 92
1
 93
5
 72
1
 10
786.8437969167
 20
109.6514235135
 11
786.8552056697
 21
109.3900990591
 72
1
 10
786.8552056697
 20
109.3900990591
 11
783.8666144199
 21
109.1287409548
 72
1
 10
783.8666144199
 20
109.1287409548
 11
783.8437969143
 21
109.6513562139
 72
1
 10
783.8437969143
 20
109.6513562139
 11
786.8431916373
 21
134.4105864049
 72
1
 10
786.8431916373
 20
134.4105864049
 11
786.8437969167
 21
109.6514235135
 97
1
330
64C
 75
0
 76
1
 98
1
 10
0.0
 20
0.0
  0
LWPOLYLINE
  5
64E
100
AcDbEntity
  8
ALL_DETAIL_ITEM
100
AcDbPolyline
 62
4
  6
CONTINUOUS
 90
6
 70
0
 10
786.8893324279
 20
109.1307935935
 10
786.9459177741
 20
108.8754251561
 10
783.9348679364
 20
108.6100627239
 10
783.8666144199
 20
109.1287409548
 10
786.8552056697
 20
109.3900990591
 10
786.8893324279
 20
109.1307935935
  0
HATCH
  5
64F
100
AcDbEntity
  8
ALL_DETAIL_ITEM
100
AcDbHatch
 62
4
  6
CONTINUOUS
 10
0.0
 20
0.0
 30
0.0
210
0.0
220
0.0
230
1.0
  2
SOLID
 70
1
 71
1
 91
1
 92
1
 93
5
 72
1
 10
786.8893324279
 20
109.1307935935
 11
786.9459177741
 21
108.8754251561
 72
1
 10
786.9459177741
 20
108.8754251561
 11
783.9348679364
 21
108.6100627239
 72
1
 10
783.9348679364
 20
108.6100627239
 11
783.8666144199
 21
109.1287409548
 72
1
 10
783.8666144199
 20
109.1287409548
 11
786.8552056697
 21
109.3900990591
 72
1
 10
786.8552056697
 20
109.3900990591
 11
786.8893324279
 21
109.1307935935
 97
1
330
64E
 75
0
 76
1
 98
1
 10
0.0
 20
0.0
  0
LWPOLYLINE
  5
650
100
AcDbEntity
  8
ALL_DETAIL_ITEM
100
AcDbPolyline
 62
4
  6
CONTINUOUS
 90
6
 70
0
 10
787.0245315704
 20
108.6259454361
 10
787.1245762281
 20
108.3842724729
 10
784.0480386288
 20
108.099359499
 10
783.9348679364
 20
108.6100627239
 10
786.9459177741
 20
108.8754251561
 10
787.0245315704
 20
108.6259454361
  0
HATCH
  5
651
100
AcDbEntity
  8
ALL_DETAIL_ITEM
100
AcDbHatch
 62
4
  6
CONTINUOUS
 10
0.0
 20
0.0
 30
0.0
210
0.0
220
0.0
230
1.0
  2
SOLID
 70
1
 71
1
 91
1
 92
1
 93
5
 72
1
 10
787.0245315704
 20
108.6259454361
 11
787.1245762281
 21
108.3842724729
 72
1
 10
787.1245762281
 20
108.3842724729
 11
784.0480386288
 21
108.099359499
 72
1
 10
784.0480386288
 20
108.099359499
 11
783.9348679364
 21
108.6100627239
 72
1
 10
783.9348679364
 20
108.6100627239
 11
786.9459177741
 21
108.8754251561
 72
1
 10
786.9459177741
 20
108.8754251561
 11
787.0245315704
 21
108.6259454361
 97
1
330
650
 75
0
 76
1
 98
1
 10
0.0
 20
0.0
  0
LWPOLYLINE
  5
652
100
AcDbEntity
  8
ALL_DETAIL_ITEM
100
AcDbPolyline
 62
4
  6
CONTINUOUS
 90
6
 70
0
 10
787.24529125
 20
108.1522570064
 10
787.3857590117
 20
107.9316151769
 10
784.2052662215
 20
107.600400059
 10
784.0480386288
 20
108.099359499
 10
787.1245762281
 20
108.3842724729
 10
787.24529125
 20
108.1522570064
  0
HATCH
  5
653
100
AcDbEntity
  8
ALL_DETAIL_ITEM
100
AcDbHatch
 62
4
  6
CONTINUOUS
 10
0.0
 20
0.0
 30
0.0
210
0.0
220
0.0
230
1.0
  2
SOLID
 70
1
 71
1
 91
1
 92
1
 93
5
 72
1
 10
787.24529125
 20
108.1522570064
 11
787.3857590117
 21
107.9316151769
 72
1
 10
787.3857590117
 20
107.9316151769
 11
784.2052662215
 21
107.600400059
 72
1
 10
784.2052662215
 20
107.600400059
 11
784.0480386288
 21
108.099359499
 72
1
 10
784.0480386288
 20
108.099359499
 11
787.1245762281
 21
108.3842724729
 72
1
 10
787.1245762281
 20
108.3842724729
 11
787.24529125
 21
108.1522570064
 97
1
330
652
 75
0
 76
1
 98
1
 10
0.0
 20
0.0
  0
LWPOLYLINE
  5
654
100
AcDbEntity
  8
ALL_DETAIL_ITEM
100
AcDbPolyline
 62
4
  6
CONTINUOUS
 90
6
 70
0
 10
787.5449117366
 20
107.7240294752
 10
787.7215396133
 20
107.5311150923
 10
784.405355537
 20
107.1170541327
 10
784.2052662215
 20
107.600400059
 10
787.3857590117
 20
107.9316151769
 10
787.5449117366
 20
107.7240294752
  0
HATCH
  5
655
100
AcDbEntity
  8
ALL_DETAIL_ITEM
100
AcDbHatch
 62
4
  6
CONTINUOUS
 10
0.0
 20
0.0
 30
0.0
210
0.0
220
0.0
230
1.0
  2
SOLID
 70
1
 71
1
 91
1
 92
1
 93
5
 72
1
 10
787.5449117366
 20
107.7240294752
 11
787.7215396133
 21
107.5311150923
 72
1
 10
787.7215396133
 20
107.5311150923
 11
784.405355537
 21
107.1170541327
 72
1
 10
784.405355537
 20
107.1170541327
 11
784.2052662215
 21
107.600400059
 72
1
 10
784.2052662215
 20
107.600400059
 11
787.3857590117
 21
107.9316151769
 72
1
 10
787.3857590117
 20
107.9316151769
 11
787.5449117366
 21
107.7240294752
 97
1
330
654
 75
0
 76
1
 98
1
 10
0.0
 20
0.0
  0
LWPOLYLINE
  5
656
100
AcDbEntity
  8
ALL_DETAIL_ITEM
100
AcDbPolyline
 62
4
  6
CONTINUOUS
 90
7
 70
0
 10
788.1217275878
 20
107.1949871016
 10
788.3422456265
 20
107.0543308797
 10
784.646785581
 20
106.6529895498
 10
784.405355537
 20
107.1170541327
 10
787.7215396133
 20
107.5311150923
 10
787.9142999913
 20
107.3543189703
 10
788.1217275878
 20
107.1949871016
  0
HATCH
  5
657
100
AcDbEntity
  8
ALL_DETAIL_ITEM
100
AcDbHatch
 62
4
  6
CONTINUOUS
 10
0.0
 20
0.0
 30
0.0
210
0.0
220
0.0
230
1.0
  2
SOLID
 70
1
 71
1
 91
1
 92
1
 93
6
 72
1
 10
788.1217275878
 20
107.1949871016
 11
788.3422456265
 21
107.0543308797
 72
1
 10
788.3422456265
 20
107.0543308797
 11
784.646785581
 21
106.6529895498
 72
1
 10
784.646785581
 20
106.6529895498
 11
784.405355537
 21
107.1170541327
 72
1
 10
784.405355537
 20
107.1170541327
 11
787.7215396133
 21
107.5311150923
 72
1
 10
787.7215396133
 20
107.5311150923
 11
787.9142999913
 21
107.3543189703
 72
1
 10
787.9142999913
 20
107.3543189703
 11
788.1217275878
 21
107.1949871016
 97
1
330
656
 75
0
 76
1
 98
1
 10
0.0
 20
0.0
  0
LWPOLYLINE
  5
658
100
AcDbEntity
  8
ALL_DETAIL_ITEM
100
AcDbPolyline
 62
4
  6
CONTINUOUS
 90
10
 70
0
 10
733.4458758656
 20
133.6962345064
 10
714.0310027225
 20
106.9621784671
 10
733.5274206063
 20
135.074026135
 10
733.5977473659
 20
134.8817510985
 10
733.6412384652
 20
134.6817029551
 10
733.6570837473
 20
134.4775831843
 10
733.6449880447
 20
134.2732278647
 10
733.6051766772
 20
134.0724057756
 10
733.5383912555
 20
133.878885696
 10
733.4458758656
 20
133.6962345064
  0
HATCH
  5
659
100
AcDbEntity
  8
ALL_DETAIL_ITEM
100
AcDbHatch
 62
4
  6
CONTINUOUS
 10
0.0
 20
0.0
 30
0.0
210
0.0
220
0.0
230
1.0
  2
SOLID
 70
1
 71
1
 91
1
 92
1
 93
9
 72
1
 10
733.4458758656
 20
133.6962345064
 11
714.0310027225
 21
106.9621784671
 72
1
 10
714.0310027225
 20
106.9621784671
 11
733.5274206063
 21
135.074026135
 72
1
 10
733.5274206063
 20
135.074026135
 11
733.5977473659
 21
134.8817510985
 72
1
 10
733.5977473659
 20
134.8817510985
 11
733.6412384652
 21
134.6817029551
 72
1
 10
733.6412384652
 20
134.6817029551
 11
733.6570837473
 21
134.4775831843
 72
1
 10
733.6570837473
 20
134.4775831843
 11
733.6449880447
 21
134.2732278647
 72
1
 10
733.6449880447
 20
134.2732278647
 11
733.6051766772
 21
134.0724057756
 72
1
 10
733.6051766772
 20
134.0724057756
 11
733.5383912555
 21
133.878885696
 72
1
 10
733.5383912555
 20
133.878885696
 11
733.4458758656
 21
133.6962345064
 97
1
330
658
 75
0
 76
1
 98
1
 10
0.0
 20
0.0
  0
LWPOLYLINE
  5
65A
100
AcDbEntity
  8
ALL_DETAIL_ITEM
100
AcDbPolyline
 62
4
  6
CONTINUOUS
 90
7
 70
0
 10
789.1218442342
 20
106.6622768984
 10
789.5274328582
 20
106.5009260409
 10
784.9277211044
 20
106.2117058908
 10
784.646785581
 20
106.6529895498
 10
788.3422456265
 20
107.0543308797
 10
788.7263347127
 20
106.8469470769
 10
789.1218442342
 20
106.6622768984
  0
HATCH
  5
65B
100
AcDbEntity
  8
ALL_DETAIL_ITEM
100
AcDbHatch
 62
4
  6
CONTINUOUS
 10
0.0
 20
0.0
 30
0.0
210
0.0
220
0.0
230
1.0
  2
SOLID
 70
1
 71
1
 91
1
 92
1
 93
6
 72
1
 10
789.1218442342
 20
106.6622768984
 11
789.5274328582
 21
106.5009260409
 72
1
 10
789.5274328582
 20
106.5009260409
 11
784.9277211044
 21
106.2117058908
 72
1
 10
784.9277211044
 20
106.2117058908
 11
784.646785581
 21
106.6529895498
 72
1
 10
784.646785581
 20
106.6529895498
 11
788.3422456265
 21
107.0543308797
 72
1
 10
788.3422456265
 20
107.0543308797
 11
788.7263347127
 21
106.8469470769
 72
1
 10
788.7263347127
 20
106.8469470769
 11
789.1218442342
 21
106.6622768984
 97
1
330
65A
 75
0
 76
1
 98
1
 10
0.0
 20
0.0
  0
LWPOLYLINE
  5
65C
100
AcDbEntity
  8
ALL_DETAIL_ITEM
100
AcDbPolyline
 62
4
  6
CONTINUOUS
 90
7
 70
0
 10
790.3633158369
 20
106.2504031767
 10
790.7907753744
 20
106.1620387655
 10
785.2460265545
 20
105.7965681372
 10
784.9277211044
 20
106.2117058908
 10
789.5274328582
 20
106.5009260409
 10
789.94172507
 20
106.3635002011
 10
790.3633158369
 20
106.2504031767
  0
HATCH
  5
65D
100
AcDbEntity
  8
ALL_DETAIL_ITEM
100
AcDbHatch
 62
4
  6
CONTINUOUS
 10
0.0
 20
0.0
 30
0.0
210
0.0
220
0.0
230
1.0
  2
SOLID
 70
1
 71
1
 91
1
 92
1
 93
6
 72
1
 10
790.3633158369
 20
106.2504031767
 11
790.7907753744
 21
106.1620387655
 72
1
 10
790.7907753744
 20
106.1620387655
 11
785.2460265545
 21
105.7965681372
 72
1
 10
785.2460265545
 20
105.7965681372
 11
784.9277211044
 21
106.2117058908
 72
1
 10
784.9277211044
 20
106.2117058908
 11
789.5274328582
 21
106.5009260409
 72
1
 10
789.5274328582
 20
106.5009260409
 11
789.94172507
 21
106.3635002011
 72
1
 10
789.94172507
 20
106.3635002011
 11
790.3633158369
 21
106.2504031767
 97
1
330
65C
 75
0
 76
1
 98
1
 10
0.0
 20
0.0
  0
LWPOLYLINE
  5
65E
100
AcDbEntity
  8
ALL_DETAIL_ITEM
100
AcDbPolyline
 62
4
  6
CONTINUOUS
 90
10
 70
0
 10
815.6478790989
 20
106.3635002011
 10
820.9428185877
 20
106.6529895498
 10
820.6618830642
 20
106.2117058908
 10
820.3435776141
 20
105.7965681372
 10
813.4958044068
 20
106.0478985969
 10
813.9321171471
 20
106.0606182265
 10
814.3669501745
 20
106.098676166
 10
814.7988287944
 20
106.1620387655
 10
815.2262883319
 20
106.2504031767
 10
815.6478790989
 20
106.3635002011
  0
HATCH
  5
65F
100
AcDbEntity
  8
ALL_DETAIL_ITEM
100
AcDbHatch
 62
4
  6
CONTINUOUS
 10
0.0
 20
0.0
 30
0.0
210
0.0
220
0.0
230
1.0
  2
SOLID
 70
1
 71
1
 91
1
 92
1
 93
9
 72
1
 10
815.6478790989
 20
106.3635002011
 11
820.9428185877
 21
106.6529895498
 72
1
 10
820.9428185877
 20
106.6529895498
 11
820.6618830642
 21
106.2117058908
 72
1
 10
820.6618830642
 20
106.2117058908
 11
820.3435776141
 21
105.7965681372
 72
1
 10
820.3435776141
 20
105.7965681372
 11
813.4958044068
 21
106.0478985969
 72
1
 10
813.4958044068
 20
106.0478985969
 11
813.9321171471
 21
106.0606182265
 72
1
 10
813.9321171471
 20
106.0606182265
 11
814.3669501745
 21
106.098676166
 72
1
 10
814.3669501745
 20
106.098676166
 11
814.7988287944
 21
106.1620387655
 72
1
 10
814.7988287944
 20
106.1620387655
 11
815.2262883319
 21
106.2504031767
 72
1
 10
815.2262883319
 20
106.2504031767
 11
815.6478790989
 21
106.3635002011
 97
1
330
65E
 75
0
 76
1
 98
1
 10
0.0
 20
0.0
  0
LWPOLYLINE
  5
660
100
AcDbEntity
  8
ALL_DETAIL_ITEM
100
AcDbPolyline
 62
4
  6
CONTINUOUS
 90
6
 70
0
 10
773.7103983449
 20
106.043699584
 10
773.9061888341
 20
106.0308852079
 10
742.1141988745
 20
104.5408816613
 10
745.1141988745
 20
117.7458862379
 10
745.1141988745
 20
106.0410221146
 10
773.7103983449
 20
106.043699584
  0
HATCH
  5
661
100
AcDbEntity
  8
ALL_DETAIL_ITEM
100
AcDbHatch
 62
4
  6
CONTINUOUS
 10
0.0
 20
0.0
 30
0.0
210
0.0
220
0.0
230
1.0
  2
SOLID
 70
1
 71
1
 91
1
 92
1
 93
5
 72
1
 10
773.7103983449
 20
106.043699584
 11
773.9061888341
 21
106.0308852079
 72
1
 10
773.9061888341
 20
106.0308852079
 11
742.1141988745
 21
104.5408816613
 72
1
 10
742.1141988745
 20
104.5408816613
 11
745.1141988745
 21
117.7458862379
 72
1
 10
745.1141988745
 20
117.7458862379
 11
745.1141988745
 21
106.0410221146
 72
1
 10
745.1141988745
 20
106.0410221146
 11
773.7103983449
 21
106.043699584
 97
1
330
660
 75
0
 76
1
 98
1
 10
0.0
 20
0.0
  0
LWPOLYLINE
  5
662
100
AcDbEntity
  8
ALL_DETAIL_ITEM
100
AcDbPolyline
 62
4
  6
CONTINUOUS
 90
41
 70
0
 10
832.711439672
 20
106.0250758551
 10
832.9072289605
 20
106.0379046022
 10
861.0240282715
 20
106.0379046022
 10
867.8702749314
 20
105.7840521522
 10
867.5166470707
 20
105.3981367587
 10
867.1307300369
 20
105.044510688
 10
866.7154609089
 20
104.7258652641
 10
866.2740001544
 20
104.4446255852
 10
865.7363938738
 20
104.1547528834
 10
865.182842628
 20
103.8966294349
 10
864.6152194371
 20
103.6711286379
 10
864.0354449355
 20
103.4790135067
 10
863.4454808735
 20
103.3209340904
 10
862.8473234791
 20
103.1974252733
 10
862.2429967037
 20
103.1089049654
 10
861.6345453737
 20
103.0556726877
 10
861.0240282715
 20
103.037922747
 10
832.9072289605
 20
103.037922747
 10
832.711439672
 20
103.050741268
 10
832.5190003925
 20
103.0890198207
 10
832.3332038114
 20
103.1520892614
 10
832.1572289598
 20
103.2388704546
 10
831.9940868161
 20
103.3478785499
 10
831.8465687877
 20
103.4772483887
 10
831.7171989489
 20
103.6247664171
 10
831.6081908536
 20
103.7879085608
 10
831.5214096604
 20
103.9638834124
 10
831.4583402197
 20
104.1496799935
 10
831.420061667
 20
104.342119273
 10
831.407228959
 20
104.5379085616
 10
831.420061667
 20
104.7336978501
 10
831.4583402197
 20
104.9261371296
 10
831.5214096604
 20
105.1119337107
 10
831.6081908536
 20
105.2879085623
 10
831.7171989489
 20
105.451050706
 10
831.8465687877
 20
105.5985687344
 10
831.9940868161
 20
105.7279385732
 10
832.1572289598
 20
105.8369466685
 10
832.3332038114
 20
105.9237278617
 10
832.5190003925
 20
105.9867973024
 10
832.711439672
 20
106.0250758551
  0
HATCH
  5
663
100
AcDbEntity
  8
ALL_DETAIL_ITEM
100
AcDbHatch
 62
4
  6
CONTINUOUS
 10
0.0
 20
0.0
 30
0.0
210
0.0
220
0.0
230
1.0
  2
SOLID
 70
1
 71
1
 91
1
 92
1
 93
40
 72
1
 10
832.711439672
 20
106.0250758551
 11
832.9072289605
 21
106.0379046022
 72
1
 10
832.9072289605
 20
106.0379046022
 11
861.0240282715
 21
106.0379046022
 72
1
 10
861.0240282715
 20
106.0379046022
 11
867.8702749314
 21
105.7840521522
 72
1
 10
867.8702749314
 20
105.7840521522
 11
867.5166470707
 21
105.3981367587
 72
1
 10
867.5166470707
 20
105.3981367587
 11
867.1307300369
 21
105.044510688
 72
1
 10
867.1307300369
 20
105.044510688
 11
866.7154609089
 21
104.7258652641
 72
1
 10
866.7154609089
 20
104.7258652641
 11
866.2740001544
 21
104.4446255852
 72
1
 10
866.2740001544
 20
104.4446255852
 11
865.7363938738
 21
104.1547528834
 72
1
 10
865.7363938738
 20
104.1547528834
 11
865.182842628
 21
103.8966294349
 72
1
 10
865.182842628
 20
103.8966294349
 11
864.6152194371
 21
103.6711286379
 72
1
 10
864.6152194371
 20
103.6711286379
 11
864.0354449355
 21
103.4790135067
 72
1
 10
864.0354449355
 20
103.4790135067
 11
863.4454808735
 21
103.3209340904
 72
1
 10
863.4454808735
 20
103.3209340904
 11
862.8473234791
 21
103.1974252733
 72
1
 10
862.8473234791
 20
103.1974252733
 11
862.2429967037
 21
103.1089049654
 72
1
 10
862.2429967037
 20
103.1089049654
 11
861.6345453737
 21
103.0556726877
 72
1
 10
861.6345453737
 20
103.0556726877
 11
861.0240282715
 21
103.037922747
 72
1
 10
861.0240282715
 20
103.037922747
 11
832.9072289605
 21
103.037922747
 72
1
 10
832.9072289605
 20
103.037922747
 11
832.711439672
 21
103.050741268
 72
1
 10
832.711439672
 20
103.050741268
 11
832.5190003925
 21
103.0890198207
 72
1
 10
832.5190003925
 20
103.0890198207
 11
832.3332038114
 21
103.1520892614
 72
1
 10
832.3332038114
 20
103.1520892614
 11
832.1572289598
 21
103.2388704546
 72
1
 10
832.1572289598
 20
103.2388704546
 11
831.9940868161
 21
103.3478785499
 72
1
 10
831.9940868161
 20
103.3478785499
 11
831.8465687877
 21
103.4772483887
 72
1
 10
831.8465687877
 20
103.4772483887
 11
831.7171989489
 21
103.6247664171
 72
1
 10
831.7171989489
 20
103.6247664171
 11
831.6081908536
 21
103.7879085608
 72
1
 10
831.6081908536
 20
103.7879085608
 11
831.5214096604
 21
103.9638834124
 72
1
 10
831.5214096604
 20
103.9638834124
 11
831.4583402197
 21
104.1496799935
 72
1
 10
831.4583402197
 20
104.1496799935
 11
831.420061667
 21
104.342119273
 72
1
 10
831.420061667
 20
104.342119273
 11
831.407228959
 21
104.5379085616
 72
1
 10
831.407228959
 20
104.5379085616
 11
831.420061667
 21
104.7336978501
 72
1
 10
831.420061667
 20
104.7336978501
 11
831.4583402197
 21
104.9261371296
 72
1
 10
831.4583402197
 20
104.9261371296
 11
831.5214096604
 21
105.1119337107
 72
1
 10
831.5214096604
 20
105.1119337107
 11
831.6081908536
 21
105.2879085623
 72
1
 10
831.6081908536
 20
105.2879085623
 11
831.7171989489
 21
105.451050706
 72
1
 10
831.7171989489
 20
105.451050706
 11
831.8465687877
 21
105.5985687344
 72
1
 10
831.8465687877
 20
105.5985687344
 11
831.9940868161
 21
105.7279385732
 72
1
 10
831.9940868161
 20
105.7279385732
 11
832.1572289598
 21
105.8369466685
 72
1
 10
832.1572289598
 20
105.8369466685
 11
832.3332038114
 21
105.9237278617
 72
1
 10
832.3332038114
 20
105.9237278617
 11
832.5190003925
 21
105.9867973024
 72
1
 10
832.5190003925
 20
105.9867973024
 11
832.711439672
 21
106.0250758551
 97
1
330
662
 75
0
 76
1
 98
1
 10
0.0
 20
0.0
  0
LWPOLYLINE
  5
664
100
AcDbEntity
  8
ALL_DETAIL_ITEM
100
AcDbPolyline
 62
4
  6
CONTINUOUS
 90
34
 70
0
 10
813.4958044068
 20
106.0478985969
 10
820.3435776141
 20
105.7965681372
 10
819.9903218606
 20
105.4107393714
 10
819.6048011044
 20
105.0571471274
 10
819.1899459111
 20
104.7384497403
 10
818.7489098338
 20
104.4571372964
 10
818.2110899356
 20
104.1667730526
 10
817.6572785981
 20
103.9081742331
 10
817.0893540192
 20
103.6822830326
 10
816.509242261
 20
103.4898060973
 10
815.9189107168
 20
103.3314500733
 10
815.3203614396
 20
103.2077197077
 10
814.7156243519
 20
103.1190187984
 10
814.1067503617
 20
103.0656838434
 10
813.4958044068
 20
103.0478830919
 10
792.093799762
 20
103.0478830919
 10
791.4828538071
 20
103.0656838434
 10
790.8739798169
 20
103.1190187984
 10
790.2692427292
 20
103.2077197077
 10
789.670693452
 20
103.3314500733
 10
789.0803619078
 20
103.4898060973
 10
788.5002501496
 20
103.6822830326
 10
787.9323255708
 20
103.9081742331
 10
787.3785142332
 20
104.1667730526
 10
786.8406943348
 20
104.4571372964
 10
786.3996582577
 20
104.7384497403
 10
785.9848030643
 20
105.0571471274
 10
785.599282308
 20
105.4107393714
 10
785.2460265545
 20
105.7965681372
 10
790.7907753744
 20
106.1620387655
 10
791.2226539944
 20
106.098676166
 10
791.6574870218
 20
106.0606182265
 10
792.093799762
 20
106.0478985969
 10
813.4958044068
 20
106.0478985969
  0
HATCH
  5
665
100
AcDbEntity
  8
ALL_DETAIL_ITEM
100
AcDbHatch
 62
4
  6
CONTINUOUS
 10
0.0
 20
0.0
 30
0.0
210
0.0
220
0.0
230
1.0
  2
SOLID
 70
1
 71
1
 91
1
 92
1
 93
33
 72
1
 10
813.4958044068
 20
106.0478985969
 11
820.3435776141
 21
105.7965681372
 72
1
 10
820.3435776141
 20
105.7965681372
 11
819.9903218606
 21
105.4107393714
 72
1
 10
819.9903218606
 20
105.4107393714
 11
819.6048011044
 21
105.0571471274
 72
1
 10
819.6048011044
 20
105.0571471274
 11
819.1899459111
 21
104.7384497403
 72
1
 10
819.1899459111
 20
104.7384497403
 11
818.7489098338
 21
104.4571372964
 72
1
 10
818.7489098338
 20
104.4571372964
 11
818.2110899356
 21
104.1667730526
 72
1
 10
818.2110899356
 20
104.1667730526
 11
817.6572785981
 21
103.9081742331
 72
1
 10
817.6572785981
 20
103.9081742331
 11
817.0893540192
 21
103.6822830326
 72
1
 10
817.0893540192
 20
103.6822830326
 11
816.509242261
 21
103.4898060973
 72
1
 10
816.509242261
 20
103.4898060973
 11
815.9189107168
 21
103.3314500733
 72
1
 10
815.9189107168
 20
103.3314500733
 11
815.3203614396
 21
103.2077197077
 72
1
 10
815.3203614396
 20
103.2077197077
 11
814.7156243519
 21
103.1190187984
 72
1
 10
814.7156243519
 20
103.1190187984
 11
814.1067503617
 21
103.0656838434
 72
1
 10
814.1067503617
 20
103.0656838434
 11
813.4958044068
 21
103.0478830919
 72
1
 10
813.4958044068
 20
103.0478830919
 11
792.093799762
 21
103.0478830919
 72
1
 10
792.093799762
 20
103.0478830919
 11
791.4828538071
 21
103.0656838434
 72
1
 10
791.4828538071
 20
103.0656838434
 11
790.8739798169
 21
103.1190187984
 72
1
 10
790.8739798169
 20
103.1190187984
 11
790.2692427292
 21
103.2077197077
 72
1
 10
790.2692427292
 20
103.2077197077
 11
789.670693452
 21
103.3314500733
 72
1
 10
789.670693452
 20
103.3314500733
 11
789.0803619078
 21
103.4898060973
 72
1
 10
789.0803619078
 20
103.4898060973
 11
788.5002501496
 21
103.6822830326
 72
1
 10
788.5002501496
 20
103.6822830326
 11
787.9323255708
 21
103.9081742331
 72
1
 10
787.9323255708
 20
103.9081742331
 11
787.3785142332
 21
104.1667730526
 72
1
 10
787.3785142332
 20
104.1667730526
 11
786.8406943348
 21
104.4571372964
 72
1
 10
786.8406943348
 20
104.4571372964
 11
786.3996582577
 21
104.7384497403
 72
1
 10
786.3996582577
 20
104.7384497403
 11
785.9848030643
 21
105.0571471274
 72
1
 10
785.9848030643
 20
105.0571471274
 11
785.599282308
 21
105.4107393714
 72
1
 10
785.599282308
 20
105.4107393714
 11
785.2460265545
 21
105.7965681372
 72
1
 10
785.2460265545
 20
105.7965681372
 11
790.7907753744
 21
106.1620387655
 72
1
 10
790.7907753744
 20
106.1620387655
 11
791.2226539944
 21
106.098676166
 72
1
 10
791.2226539944
 20
106.098676166
 11
791.6574870218
 21
106.0606182265
 72
1
 10
791.6574870218
 20
106.0606182265
 11
792.093799762
 21
106.0478985969
 72
1
 10
792.093799762
 20
106.0478985969
 11
813.4958044068
 21
106.0478985969
 97
1
330
664
 75
0
 76
1
 98
1
 10
0.0
 20
0.0
  0
LWPOLYLINE
  5
666
100
AcDbEntity
  8
ALL_DETAIL_ITEM
100
AcDbPolyline
 62
4
  6
CONTINUOUS
 90
29
 70
0
 10
639.3860404473
 20
131.7359317471
 10
622.599863004
 20
103.3773820692
 10
622.4837998072
 20
103.2087292022
 10
622.3458532229
 20
103.0574732888
 10
622.1885929349
 20
102.926373614
 10
622.014948405
 20
102.817920264
 10
621.8281543021
 20
102.7341322275
 10
621.6316902469
 20
102.6765573959
 10
621.4292159931
 20
102.6462725635
 10
621.2245032529
 20
102.6438497769
 10
621.0213654373
 20
102.6692890361
 10
620.8235866195
 20
102.7221865435
 10
620.6348510447
 20
102.8014991548
 10
620.4586744995
 20
102.905779928
 10
620.2983388196
 20
103.0331108236
 10
620.1568307553
 20
103.1810354053
 10
620.0367863342
 20
103.3468953379
 10
619.9404417567
 20
103.5275275387
 10
619.8695917399
 20
103.7196006762
 10
619.8255560857
 20
103.9195478702
 10
619.8091550949
 20
104.1236003414
 10
619.820694287
 20
104.3279893108
 10
619.8599587087
 20
104.5289459992
 10
619.926216938
 20
104.7226343278
 10
620.01823471
 20
104.9055210661
 10
640.6768545948
 20
135.4447461343
 10
658.7538461842
 20
104.9055210661
 10
656.1722178895
 20
103.3773820692
 10
639.3860404473
 20
131.7359317471
  0
HATCH
  5
667
100
AcDbEntity
  8
ALL_DETAIL_ITEM
100
AcDbHatch
 62
4
  6
CONTINUOUS
 10
0.0
 20
0.0
 30
0.0
210
0.0
220
0.0
230
1.0
  2
SOLID
 70
1
 71
1
 91
1
 92
1
 93
28
 72
1
 10
639.3860404473
 20
131.7359317471
 11
622.599863004
 21
103.3773820692
 72
1
 10
622.599863004
 20
103.3773820692
 11
622.4837998072
 21
103.2087292022
 72
1
 10
622.4837998072
 20
103.2087292022
 11
622.3458532229
 21
103.0574732888
 72
1
 10
622.3458532229
 20
103.0574732888
 11
622.1885929349
 21
102.926373614
 72
1
 10
622.1885929349
 20
102.926373614
 11
622.014948405
 21
102.817920264
 72
1
 10
622.014948405
 20
102.817920264
 11
621.8281543021
 21
102.7341322275
 72
1
 10
621.8281543021
 20
102.7341322275
 11
621.6316902469
 21
102.6765573959
 72
1
 10
621.6316902469
 20
102.6765573959
 11
621.4292159931
 21
102.6462725635
 72
1
 10
621.4292159931
 20
102.6462725635
 11
621.2245032529
 21
102.6438497769
 72
1
 10
621.2245032529
 20
102.6438497769
 11
621.0213654373
 21
102.6692890361
 72
1
 10
621.0213654373
 20
102.6692890361
 11
620.8235866195
 21
102.7221865435
 72
1
 10
620.8235866195
 20
102.7221865435
 11
620.6348510447
 21
102.8014991548
 72
1
 10
620.6348510447
 20
102.8014991548
 11
620.4586744995
 21
102.905779928
 72
1
 10
620.4586744995
 20
102.905779928
 11
620.2983388196
 21
103.0331108236
 72
1
 10
620.2983388196
 20
103.0331108236
 11
620.1568307553
 21
103.1810354053
 72
1
 10
620.1568307553
 20
103.1810354053
 11
620.0367863342
 21
103.3468953379
 72
1
 10
620.0367863342
 20
103.3468953379
 11
619.9404417567
 21
103.5275275387
 72
1
 10
619.9404417567
 20
103.5275275387
 11
619.8695917399
 21
103.7196006762
 72
1
 10
619.8695917399
 20
103.7196006762
 11
619.8255560857
 21
103.9195478702
 72
1
 10
619.8255560857
 20
103.9195478702
 11
619.8091550949
 21
104.1236003414
 72
1
 10
619.8091550949
 20
104.1236003414
 11
619.820694287
 21
104.3279893108
 72
1
 10
619.820694287
 20
104.3279893108
 11
619.8599587087
 21
104.5289459992
 72
1
 10
619.8599587087
 20
104.5289459992
 11
619.926216938
 21
104.7226343278
 72
1
 10
619.926216938
 20
104.7226343278
 11
620.01823471
 21
104.9055210661
 72
1
 10
620.01823471
 20
104.9055210661
 11
640.6768545948
 21
135.4447461343
 72
1
 10
640.6768545948
 20
135.4447461343
 11
658.7538461842
 21
104.9055210661
 72
1
 10
658.7538461842
 20
104.9055210661
 11
656.1722178895
 21
103.3773820692
 72
1
 10
656.1722178895
 20
103.3773820692
 11
639.3860404473
 21
131.7359317471
 97
1
330
666
 75
0
 76
1
 98
1
 10
0.0
 20
0.0
  0
LWPOLYLINE
  5
668
100
AcDbEntity
  8
ALL_DETAIL_ITEM
100
AcDbPolyline
 62
4
  6
CONTINUOUS
 90
41
 70
0
 10
775.2105387852
 20
104.5438400344
 10
775.1977244091
 20
104.3480495452
 10
775.1594638748
 20
104.1556066825
 10
775.0964118305
 20
103.9698041971
 10
775.0096471143
 20
103.7938212209
 10
774.9006542944
 20
103.6306688714
 10
774.7712982684
 20
103.4831387308
 10
774.6237923535
 20
103.3537550804
 10
774.460660417
 20
103.2447317105
 10
774.2846936915
 20
103.1579340411
 10
774.0989030164
 20
103.0948472045
 10
773.9064673218
 20
103.0565506338
 10
773.7106792353
 20
103.0436995936
 10
743.6143393214
 20
103.0408816664
 10
743.4575365458
 20
103.0490851206
 10
743.3024504
 20
103.0736349567
 10
743.1507802425
 20
103.1142621694
 10
743.0041880013
 20
103.1705215856
 10
742.8642799629
 20
103.2417967417
 10
742.7325891717
 20
103.3273066394
 10
742.6105586314
 20
103.4261143027
 10
742.4995254934
 20
103.5371370451
 10
742.4007064048
 20
103.6591583335
 10
742.3151841773
 20
103.7908411178
 10
742.2438959218
 20
103.9307424821
 10
742.1876227804
 20
104.0773294551
 10
742.1469813669
 20
104.228995808
 10
742.1224170102
 20
104.3840796545
 10
742.1141988745
 20
104.5408816613
 10
773.9061888341
 20
106.0308852079
 10
774.0986316968
 20
105.9926246735
 10
774.2844341823
 20
105.9295726293
 10
774.4604171585
 20
105.842807913
 10
774.6235695079
 20
105.7338150932
 10
774.7710996486
 20
105.6044590671
 10
774.900483299
 20
105.4569531523
 10
775.0095066689
 20
105.2938212158
 10
775.0963043382
 20
105.1178544903
 10
775.1593911749
 20
104.9320638152
 10
775.1976877455
 20
104.7396281206
 10
775.2105387852
 20
104.5438400344
  0
HATCH
  5
669
100
AcDbEntity
  8
ALL_DETAIL_ITEM
100
AcDbHatch
 62
4
  6
CONTINUOUS
 10
0.0
 20
0.0
 30
0.0
210
0.0
220
0.0
230
1.0
  2
SOLID
 70
1
 71
1
 91
1
 92
1
 93
40
 72
1
 10
775.2105387852
 20
104.5438400344
 11
775.1977244091
 21
104.3480495452
 72
1
 10
775.1977244091
 20
104.3480495452
 11
775.1594638748
 21
104.1556066825
 72
1
 10
775.1594638748
 20
104.1556066825
 11
775.0964118305
 21
103.9698041971
 72
1
 10
775.0964118305
 20
103.9698041971
 11
775.0096471143
 21
103.7938212209
 72
1
 10
775.0096471143
 20
103.7938212209
 11
774.9006542944
 21
103.6306688714
 72
1
 10
774.9006542944
 20
103.6306688714
 11
774.7712982684
 21
103.4831387308
 72
1
 10
774.7712982684
 20
103.4831387308
 11
774.6237923535
 21
103.3537550804
 72
1
 10
774.6237923535
 20
103.3537550804
 11
774.460660417
 21
103.2447317105
 72
1
 10
774.460660417
 20
103.2447317105
 11
774.2846936915
 21
103.1579340411
 72
1
 10
774.2846936915
 20
103.1579340411
 11
774.0989030164
 21
103.0948472045
 72
1
 10
774.0989030164
 20
103.0948472045
 11
773.9064673218
 21
103.0565506338
 72
1
 10
773.9064673218
 20
103.0565506338
 11
773.7106792353
 21
103.0436995936
 72
1
 10
773.7106792353
 20
103.0436995936
 11
743.6143393214
 21
103.0408816664
 72
1
 10
743.6143393214
 20
103.0408816664
 11
743.4575365458
 21
103.0490851206
 72
1
 10
743.4575365458
 20
103.0490851206
 11
743.3024504
 21
103.0736349567
 72
1
 10
743.3024504
 20
103.0736349567
 11
743.1507802425
 21
103.1142621694
 72
1
 10
743.1507802425
 20
103.1142621694
 11
743.0041880013
 21
103.1705215856
 72
1
 10
743.0041880013
 20
103.1705215856
 11
742.8642799629
 21
103.2417967417
 72
1
 10
742.8642799629
 20
103.2417967417
 11
742.7325891717
 21
103.3273066394
 72
1
 10
742.7325891717
 20
103.3273066394
 11
742.6105586314
 21
103.4261143027
 72
1
 10
742.6105586314
 20
103.4261143027
 11
742.4995254934
 21
103.5371370451
 72
1
 10
742.4995254934
 20
103.5371370451
 11
742.4007064048
 21
103.6591583335
 72
1
 10
742.4007064048
 20
103.6591583335
 11
742.3151841773
 21
103.7908411178
 72
1
 10
742.3151841773
 20
103.7908411178
 11
742.2438959218
 21
103.9307424821
 72
1
 10
742.2438959218
 20
103.9307424821
 11
742.1876227804
 21
104.0773294551
 72
1
 10
742.1876227804
 20
104.0773294551
 11
742.1469813669
 21
104.228995808
 72
1
 10
742.1469813669
 20
104.228995808
 11
742.1224170102
 21
104.3840796545
 72
1
 10
742.1224170102
 20
104.3840796545
 11
742.1141988745
 21
104.5408816613
 72
1
 10
742.1141988745
 20
104.5408816613
 11
773.9061888341
 21
106.0308852079
 72
1
 10
773.9061888341
 20
106.0308852079
 11
774.0986316968
 21
105.9926246735
 72
1
 10
774.0986316968
 20
105.9926246735
 11
774.2844341823
 21
105.9295726293
 72
1
 10
774.2844341823
 20
105.9295726293
 11
774.4604171585
 21
105.842807913
 72
1
 10
774.4604171585
 20
105.842807913
 11
774.6235695079
 21
105.7338150932
 72
1
 10
774.6235695079
 20
105.7338150932
 11
774.7710996486
 21
105.6044590671
 72
1
 10
774.7710996486
 20
105.6044590671
 11
774.900483299
 21
105.4569531523
 72
1
 10
774.900483299
 20
105.4569531523
 11
775.0095066689
 21
105.2938212158
 72
1
 10
775.0095066689
 20
105.2938212158
 11
775.0963043382
 21
105.1178544903
 72
1
 10
775.0963043382
 20
105.1178544903
 11
775.1593911749
 21
104.9320638152
 72
1
 10
775.1593911749
 20
104.9320638152
 11
775.1976877455
 21
104.7396281206
 72
1
 10
775.1976877455
 20
104.7396281206
 11
775.2105387852
 21
104.5438400344
 97
1
330
668
 75
0
 76
1
 98
1
 10
0.0
 20
0.0
  0
LWPOLYLINE
  5
66A
100
AcDbEntity
  8
ALL_DETAIL_ITEM
100
AcDbPolyline
 62
4
  6
CONTINUOUS
 90
44
 70
0
 10
698.3035533106
 20
104.7330641061
 10
698.3163860185
 20
104.537291153
 10
698.3035533106
 20
104.341485529
 10
698.2652747579
 20
104.1490462495
 10
698.2022053172
 20
103.9632496684
 10
698.115424124
 20
103.7872704519
 10
698.0064160287
 20
103.6241326731
 10
697.8770461899
 20
103.4766146447
 10
697.7295281615
 20
103.3472448059
 10
697.5663860178
 20
103.2382400889
 10
697.3904111662
 20
103.1514555174
 10
697.2046145851
 20
103.0883860767
 10
697.0121753056
 20
103.050107524
 10
696.816386017
 20
103.0372834005
 10
669.9383857833
 20
103.0372834005
 10
669.7815930882
 20
103.045491973
 10
669.6265182467
 20
103.070053415
 10
669.4748602913
 20
103.1106900417
 10
669.3282808181
 20
103.1669566297
 10
669.1883857825
 20
103.2382400889
 10
669.056707904
 20
103.3237493248
 10
668.9346898727
 20
103.4225575782
 10
668.823668544
 20
103.533578907
 10
668.7248602905
 20
103.6555969382
 10
668.6393476763
 20
103.7872704519
 10
668.5680675955
 20
103.9271698523
 10
668.5118010074
 20
104.0737493255
 10
668.4711643807
 20
104.225407281
 10
668.4466029387
 20
104.3804821225
 10
668.4383857818
 20
104.537291153
 10
671.4383857848
 20
134.3840703515
 10
671.4383857848
 20
106.0372652557
 10
696.816386017
 20
106.0372652557
 10
697.0121753056
 20
106.0244421111
 10
697.2046145851
 20
105.9861635584
 10
697.3904111662
 20
105.9230941177
 10
697.5663860178
 20
105.8363129245
 10
697.7295281615
 20
105.7273048292
 10
697.8770461899
 20
105.5979349904
 10
698.0064160287
 20
105.450416962
 10
698.115424124
 20
105.2872748183
 10
698.2022053172
 20
105.1112999667
 10
698.2652747579
 20
104.9255033856
 10
698.3035533106
 20
104.7330641061
  0
HATCH
  5
66B
100
AcDbEntity
  8
ALL_DETAIL_ITEM
100
AcDbHatch
 62
4
  6
CONTINUOUS
 10
0.0
 20
0.0
 30
0.0
210
0.0
220
0.0
230
1.0
  2
SOLID
 70
1
 71
1
 91
1
 92
1
 93
43
 72
1
 10
698.3035533106
 20
104.7330641061
 11
698.3163860185
 21
104.537291153
 72
1
 10
698.3163860185
 20
104.537291153
 11
698.3035533106
 21
104.341485529
 72
1
 10
698.3035533106
 20
104.341485529
 11
698.2652747579
 21
104.1490462495
 72
1
 10
698.2652747579
 20
104.1490462495
 11
698.2022053172
 21
103.9632496684
 72
1
 10
698.2022053172
 20
103.9632496684
 11
698.115424124
 21
103.7872704519
 72
1
 10
698.115424124
 20
103.7872704519
 11
698.0064160287
 21
103.6241326731
 72
1
 10
698.0064160287
 20
103.6241326731
 11
697.8770461899
 21
103.4766146447
 72
1
 10
697.8770461899
 20
103.4766146447
 11
697.7295281615
 21
103.3472448059
 72
1
 10
697.7295281615
 20
103.3472448059
 11
697.5663860178
 21
103.2382400889
 72
1
 10
697.5663860178
 20
103.2382400889
 11
697.3904111662
 21
103.1514555174
 72
1
 10
697.3904111662
 20
103.1514555174
 11
697.2046145851
 21
103.0883860767
 72
1
 10
697.2046145851
 20
103.0883860767
 11
697.0121753056
 21
103.050107524
 72
1
 10
697.0121753056
 20
103.050107524
 11
696.816386017
 21
103.0372834005
 72
1
 10
696.816386017
 20
103.0372834005
 11
669.9383857833
 21
103.0372834005
 72
1
 10
669.9383857833
 20
103.0372834005
 11
669.7815930882
 21
103.045491973
 72
1
 10
669.7815930882
 20
103.045491973
 11
669.6265182467
 21
103.070053415
 72
1
 10
669.6265182467
 20
103.070053415
 11
669.4748602913
 21
103.1106900417
 72
1
 10
669.4748602913
 20
103.1106900417
 11
669.3282808181
 21
103.1669566297
 72
1
 10
669.3282808181
 20
103.1669566297
 11
669.1883857825
 21
103.2382400889
 72
1
 10
669.1883857825
 20
103.2382400889
 11
669.056707904
 21
103.3237493248
 72
1
 10
669.056707904
 20
103.3237493248
 11
668.9346898727
 21
103.4225575782
 72
1
 10
668.9346898727
 20
103.4225575782
 11
668.823668544
 21
103.533578907
 72
1
 10
668.823668544
 20
103.533578907
 11
668.7248602905
 21
103.6555969382
 72
1
 10
668.7248602905
 20
103.6555969382
 11
668.6393476763
 21
103.7872704519
 72
1
 10
668.6393476763
 20
103.7872704519
 11
668.5680675955
 21
103.9271698523
 72
1
 10
668.5680675955
 20
103.9271698523
 11
668.5118010074
 21
104.0737493255
 72
1
 10
668.5118010074
 20
104.0737493255
 11
668.4711643807
 21
104.225407281
 72
1
 10
668.4711643807
 20
104.225407281
 11
668.4466029387
 21
104.3804821225
 72
1
 10
668.4466029387
 20
104.3804821225
 11
668.4383857818
 21
104.537291153
 72
1
 10
668.4383857818
 20
104.537291153
 11
671.4383857848
 21
134.3840703515
 72
1
 10
671.4383857848
 20
134.3840703515
 11
671.4383857848
 21
106.0372652557
 72
1
 10
671.4383857848
 20
106.0372652557
 11
696.816386017
 21
106.0372652557
 72
1
 10
696.816386017
 20
106.0372652557
 11
697.0121753056
 21
106.0244421111
 72
1
 10
697.0121753056
 20
106.0244421111
 11
697.2046145851
 21
105.9861635584
 72
1
 10
697.2046145851
 20
105.9861635584
 11
697.3904111662
 21
105.9230941177
 72
1
 10
697.3904111662
 20
105.9230941177
 11
697.5663860178
 21
105.8363129245
 72
1
 10
697.5663860178
 20
105.8363129245
 11
697.7295281615
 21
105.7273048292
 72
1
 10
697.7295281615
 20
105.7273048292
 11
697.8770461899
 21
105.5979349904
 72
1
 10
697.8770461899
 20
105.5979349904
 11
698.0064160287
 21
105.450416962
 72
1
 10
698.0064160287
 20
105.450416962
 11
698.115424124
 21
105.2872748183
 72
1
 10
698.115424124
 20
105.2872748183
 11
698.2022053172
 21
105.1112999667
 72
1
 10
698.2022053172
 20
105.1112999667
 11
698.2652747579
 21
104.9255033856
 72
1
 10
698.2652747579
 20
104.9255033856
 11
698.3035533106
 21
104.7330641061
 97
1
330
66A
 75
0
 76
1
 98
1
 10
0.0
 20
0.0
  0
LWPOLYLINE
  5
66C
100
AcDbEntity
  8
ALL_DETAIL_ITEM
100
AcDbPolyline
 62
4
  6
CONTINUOUS
 90
25
 70
0
 10
658.8316391371
 20
103.5275275387
 10
658.7352945596
 20
103.3468953379
 10
658.6152501385
 20
103.1810354053
 10
658.4737420743
 20
103.0331108236
 10
658.3134063943
 20
102.905779928
 10
658.1372298491
 20
102.8014991548
 10
657.9484942743
 20
102.7221865435
 10
657.7507154565
 20
102.6692890361
 10
657.547577641
 20
102.6438497769
 10
657.3428649008
 20
102.6462725635
 10
657.1403906469
 20
102.6765573959
 10
656.9439265918
 20
102.7341322275
 10
656.7571324888
 20
102.817920264
 10
656.5834879589
 20
102.926373614
 10
656.426227671
 20
103.0574732888
 10
656.2882810866
 20
103.2087292022
 10
656.1722178895
 20
103.3773820692
 10
658.7538461842
 20
104.9055210661
 10
658.8458639558
 20
104.7226343278
 10
658.9121221851
 20
104.5289459992
 10
658.9513866068
 20
104.3279893108
 10
658.9629257989
 20
104.1236003414
 10
658.9465248081
 20
103.9195478702
 10
658.9024891539
 20
103.7196006762
 10
658.8316391371
 20
103.5275275387
  0
HATCH
  5
66D
100
AcDbEntity
  8
ALL_DETAIL_ITEM
100
AcDbHatch
 62
4
  6
CONTINUOUS
 10
0.0
 20
0.0
 30
0.0
210
0.0
220
0.0
230
1.0
  2
SOLID
 70
1
 71
1
 91
1
 92
1
 93
24
 72
1
 10
658.8316391371
 20
103.5275275387
 11
658.7352945596
 21
103.3468953379
 72
1
 10
658.7352945596
 20
103.3468953379
 11
658.6152501385
 21
103.1810354053
 72
1
 10
658.6152501385
 20
103.1810354053
 11
658.4737420743
 21
103.0331108236
 72
1
 10
658.4737420743
 20
103.0331108236
 11
658.3134063943
 21
102.905779928
 72
1
 10
658.3134063943
 20
102.905779928
 11
658.1372298491
 21
102.8014991548
 72
1
 10
658.1372298491
 20
102.8014991548
 11
657.9484942743
 21
102.7221865435
 72
1
 10
657.9484942743
 20
102.7221865435
 11
657.7507154565
 21
102.6692890361
 72
1
 10
657.7507154565
 20
102.6692890361
 11
657.547577641
 21
102.6438497769
 72
1
 10
657.547577641
 20
102.6438497769
 11
657.3428649008
 21
102.6462725635
 72
1
 10
657.3428649008
 20
102.6462725635
 11
657.1403906469
 21
102.6765573959
 72
1
 10
657.1403906469
 20
102.6765573959
 11
656.9439265918
 21
102.7341322275
 72
1
 10
656.9439265918
 20
102.7341322275
 11
656.7571324888
 21
102.817920264
 72
1
 10
656.7571324888
 20
102.817920264
 11
656.5834879589
 21
102.926373614
 72
1
 10
656.5834879589
 20
102.926373614
 11
656.426227671
 21
103.0574732888
 72
1
 10
656.426227671
 20
103.0574732888
 11
656.2882810866
 21
103.2087292022
 72
1
 10
656.2882810866
 20
103.2087292022
 11
656.1722178895
 21
103.3773820692
 72
1
 10
656.1722178895
 20
103.3773820692
 11
658.7538461842
 21
104.9055210661
 72
1
 10
658.7538461842
 20
104.9055210661
 11
658.8458639558
 21
104.7226343278
 72
1
 10
658.8458639558
 20
104.7226343278
 11
658.9121221851
 21
104.5289459992
 72
1
 10
658.9121221851
 20
104.5289459992
 11
658.9513866068
 21
104.3279893108
 72
1
 10
658.9513866068
 20
104.3279893108
 11
658.9629257989
 21
104.1236003414
 72
1
 10
658.9629257989
 20
104.1236003414
 11
658.9465248081
 21
103.9195478702
 72
1
 10
658.9465248081
 20
103.9195478702
 11
658.9024891539
 21
103.7196006762
 72
1
 10
658.9024891539
 20
103.7196006762
 11
658.8316391371
 21
103.5275275387
 97
1
330
66C
 75
0
 76
1
 98
1
 10
0.0
 20
0.0
  0
LINE
  5
66E
100
AcDbEntity
  8
ALL_DETAIL_ITEM
100
AcDbLine
 62
4
  6
CONTINUOUS
 10
866.1503834347
 20
104.3779725088
 11
868.532026491
 21
106.7596155651
  0
LINE
  5
66F
100
AcDbEntity
  8
ALL_DETAIL_ITEM
100
AcDbLine
 62
4
  6
CONTINUOUS
 10
857.7392516734
 20
103.0379085593
 11
860.7392516771
 21
106.0379085631
  0
LINE
  5
670
100
AcDbEntity
  8
ALL_DETAIL_ITEM
100
AcDbLine
 62
4
  6
CONTINUOUS
 10
866.2740162205
 20
111.5726731065
 11
869.2560421423
 21
114.5546990282
  0
LINE
  5
671
100
AcDbEntity
  8
ALL_DETAIL_ITEM
100
AcDbLine
 62
4
  6
CONTINUOUS
 10
850.6681838615
 20
103.0379085593
 11
853.6681838653
 21
106.0379085631
  0
LINE
  5
672
100
AcDbEntity
  8
ALL_DETAIL_ITEM
100
AcDbLine
 62
4
  6
CONTINUOUS
 10
864.5124254232
 20
116.882150121
 11
866.698822914
 21
119.0685476118
  0
LINE
  5
673
100
AcDbEntity
  8
ALL_DETAIL_ITEM
100
AcDbLine
 62
4
  6
CONTINUOUS
 10
843.5971160496
 20
103.0379085593
 11
846.5971160534
 21
106.0379085631
  0
LINE
  5
674
100
AcDbEntity
  8
ALL_DETAIL_ITEM
100
AcDbLine
 62
4
  6
CONTINUOUS
 10
858.3049822546
 20
117.7457747643
 11
861.2971648878
 21
120.7379573975
  0
LINE
  5
675
100
AcDbEntity
  8
ALL_DETAIL_ITEM
100
AcDbLine
 62
4
  6
CONTINUOUS
 10
836.5260482378
 20
103.0379085593
 11
839.5260482415
 21
106.0379085631
  0
LINE
  5
676
100
AcDbEntity
  8
ALL_DETAIL_ITEM
100
AcDbLine
 62
4
  6
CONTINUOUS
 10
851.233576231
 20
117.7454365526
 11
854.2337197251
 21
120.7455800467
  0
LINE
  5
677
100
AcDbEntity
  8
ALL_DETAIL_ITEM
100
AcDbLine
 62
4
  6
CONTINUOUS
 10
865.941000171
 20
132.4528604926
 11
867.4414397496
 21
133.9533000711
  0
LINE
  5
678
100
AcDbEntity
  8
ALL_DETAIL_ITEM
100
AcDbLine
 62
4
  6
CONTINUOUS
 10
831.5218953719
 20
105.1048235053
 11
832.34246949
 21
105.9253976234
  0
LINE
  5
679
100
AcDbEntity
  8
ALL_DETAIL_ITEM
100
AcDbLine
 62
4
  6
CONTINUOUS
 10
844.1621702074
 20
117.7450983408
 11
847.1623137015
 21
120.7452418349
  0
LINE
  5
67A
100
AcDbEntity
  8
ALL_DETAIL_ITEM
100
AcDbLine
 62
4
  6
CONTINUOUS
 10
858.869932359
 20
132.4528604924
 11
861.8699323622
 21
135.4528604956
  0
LINE
  5
67B
100
AcDbEntity
  8
ALL_DETAIL_ITEM
100
AcDbLine
 62
4
  6
CONTINUOUS
 10
837.28358971
 20
117.9375856553
 11
840.0909076779
 21
120.7449036232
  0
LINE
  5
67C
100
AcDbEntity
  8
ALL_DETAIL_ITEM
100
AcDbLine
 62
4
  6
CONTINUOUS
 10
851.7988645469
 20
132.4528604922
 11
854.7988645503
 21
135.4528604956
  0
LINE
  5
67D
100
AcDbEntity
  8
ALL_DETAIL_ITEM
100
AcDbLine
 62
4
  6
CONTINUOUS
 10
815.5249295209
 20
103.249993278
 11
821.7375677871
 21
109.4626315442
  0
LINE
  5
67E
100
AcDbEntity
  8
ALL_DETAIL_ITEM
100
AcDbLine
 62
4
  6
CONTINUOUS
 10
832.5861768067
 20
120.3112405639
 11
834.7086086015
 21
122.4336723587
  0
LINE
  5
67F
100
AcDbEntity
  8
ALL_DETAIL_ITEM
100
AcDbLine
 62
4
  6
CONTINUOUS
 10
844.7277967348
 20
132.452860492
 11
847.7277967384
 21
135.4528604956
  0
LINE
  5
680
100
AcDbEntity
  8
ALL_DETAIL_ITEM
100
AcDbLine
 62
4
  6
CONTINUOUS
 10
808.2517612101
 20
103.0478927791
 11
811.2517612138
 21
106.0478927828
  0
LINE
  5
681
100
AcDbEntity
  8
ALL_DETAIL_ITEM
100
AcDbLine
 62
4
  6
CONTINUOUS
 10
818.7459023653
 20
113.5420339343
 11
821.7459757117
 21
116.5421072807
  0
LINE
  5
682
100
AcDbEntity
  8
ALL_DETAIL_ITEM
100
AcDbLine
 62
4
  6
CONTINUOUS
 10
831.0177084333
 20
125.8138400023
 11
834.017708437
 21
128.813840006
  0
LINE
  5
683
100
AcDbEntity
  8
ALL_DETAIL_ITEM
100
AcDbLine
 62
4
  6
CONTINUOUS
 10
837.4239978104
 20
132.2201293794
 11
840.6567289266
 21
135.4528604956
  0
LINE
  5
684
100
AcDbEntity
  8
ALL_DETAIL_ITEM
100
AcDbLine
 62
4
  6
CONTINUOUS
 10
801.1806933982
 20
103.0478927791
 11
804.1806934019
 21
106.0478927828
  0
LINE
  5
685
100
AcDbEntity
  8
ALL_DETAIL_ITEM
100
AcDbLine
 62
4
  6
CONTINUOUS
 10
818.7460752347
 20
120.6132746156
 11
821.7461485807
 21
123.6133479616
  0
LINE
  5
686
100
AcDbEntity
  8
ALL_DETAIL_ITEM
100
AcDbLine
 62
4
  6
CONTINUOUS
 10
794.1096255863
 20
103.0478927791
 11
797.1096255901
 21
106.0478927828
  0
LINE
  5
687
100
AcDbEntity
  8
ALL_DETAIL_ITEM
100
AcDbLine
 62
4
  6
CONTINUOUS
 10
818.7462481042
 20
127.6845152969
 11
821.7463214497
 21
130.6845886424
  0
LINE
  5
688
100
AcDbEntity
  8
ALL_DETAIL_ITEM
100
AcDbLine
 62
4
  6
CONTINUOUS
 10
787.9094988902
 20
103.9188338948
 11
790.2669161942
 21
106.2762511988
  0
LINE
  5
689
100
AcDbEntity
  8
ALL_DETAIL_ITEM
100
AcDbLine
 62
4
  6
CONTINUOUS
 10
818.8010110812
 20
134.8103460858
 11
819.8421036639
 21
135.8514386685
  0
LINE
  5
68A
100
AcDbEntity
  8
ALL_DETAIL_ITEM
100
AcDbLine
 62
4
  6
CONTINUOUS
 10
784.2974129492
 20
107.3778157657
 11
786.8437902484
 21
109.9241930649
  0
LINE
  5
68B
100
AcDbEntity
  8
ALL_DETAIL_ITEM
100
AcDbLine
 62
4
  6
CONTINUOUS
 10
772.8921523264
 20
103.0436229547
 11
775.0544623806
 21
105.205933009
  0
LINE
  5
68C
100
AcDbEntity
  8
ALL_DETAIL_ITEM
100
AcDbLine
 62
4
  6
CONTINUOUS
 10
783.8436907228
 20
113.9951613511
 11
786.8436173885
 21
116.9950880168
  0
LINE
  5
68D
100
AcDbEntity
  8
ALL_DETAIL_ITEM
100
AcDbLine
 62
4
  6
CONTINUOUS
 10
765.8204223868
 20
103.042960827
 11
768.8207033204
 21
106.0432417606
  0
LINE
  5
68E
100
AcDbEntity
  8
ALL_DETAIL_ITEM
100
AcDbLine
 62
4
  6
CONTINUOUS
 10
783.8435178632
 20
121.0660563034
 11
786.8434445285
 21
124.0659829687
  0
LINE
  5
68F
100
AcDbEntity
  8
ALL_DETAIL_ITEM
100
AcDbLine
 62
4
  6
CONTINUOUS
 10
758.7486924473
 20
103.0422986993
 11
761.7489733807
 21
106.0425796327
  0
LINE
  5
690
100
AcDbEntity
  8
ALL_DETAIL_ITEM
100
AcDbLine
 62
4
  6
CONTINUOUS
 10
783.8433450036
 20
128.1369512556
 11
786.8432716686
 21
131.1368779207
  0
LINE
  5
691
100
AcDbEntity
  8
ALL_DETAIL_ITEM
100
AcDbLine
 62
4
  6
CONTINUOUS
 10
751.6769625077
 20
103.0416365716
 11
754.6772434409
 21
106.0419175049
  0
LINE
  5
692
100
AcDbEntity
  8
ALL_DETAIL_ITEM
100
AcDbLine
 62
4
  6
CONTINUOUS
 10
766.3812280554
 20
117.7459021193
 11
769.3812280584
 21
120.7459021223
  0
LINE
  5
693
100
AcDbEntity
  8
ALL_DETAIL_ITEM
100
AcDbLine
 62
4
  6
CONTINUOUS
 10
744.6052325682
 20
103.0409744439
 11
747.6055135012
 21
106.041255377
  0
LINE
  5
694
100
AcDbEntity
  8
ALL_DETAIL_ITEM
100
AcDbLine
 62
4
  6
CONTINUOUS
 10
759.3101602435
 20
117.7459021193
 11
762.3101602465
 21
120.7459021223
  0
LINE
  5
695
100
AcDbEntity
  8
ALL_DETAIL_ITEM
100
AcDbLine
 62
4
  6
CONTINUOUS
 10
774.05988342
 20
132.4956252958
 11
775.1693062804
 21
133.6050481562
  0
LINE
  5
696
100
AcDbEntity
  8
ALL_DETAIL_ITEM
100
AcDbLine
 62
4
  6
CONTINUOUS
 10
742.1141988745
 20
107.6210085622
 11
745.1141988745
 21
110.6210085622
  0
LINE
  5
697
100
AcDbEntity
  8
ALL_DETAIL_ITEM
100
AcDbLine
 62
4
  6
CONTINUOUS
 10
752.2390924317
 20
117.7459021193
 11
755.2390924347
 21
120.7459021223
  0
LINE
  5
698
100
AcDbEntity
  8
ALL_DETAIL_ITEM
100
AcDbLine
 62
4
  6
CONTINUOUS
 10
766.945291019
 20
132.4521007067
 11
769.9451934071
 21
135.4520030947
  0
LINE
  5
699
100
AcDbEntity
  8
ALL_DETAIL_ITEM
100
AcDbLine
 62
4
  6
CONTINUOUS
 10
742.1141988745
 20
114.6920763741
 11
745.1141988745
 21
117.6920763741
  0
LINE
  5
69A
100
AcDbEntity
  8
ALL_DETAIL_ITEM
100
AcDbLine
 62
4
  6
CONTINUOUS
 10
745.1680246198
 20
117.7459021193
 11
748.1680246228
 21
120.7459021223
  0
LINE
  5
69B
100
AcDbEntity
  8
ALL_DETAIL_ITEM
100
AcDbLine
 62
4
  6
CONTINUOUS
 10
759.8744532916
 20
132.4523307912
 11
762.8743556797
 21
135.4522331792
  0
LINE
  5
69C
100
AcDbEntity
  8
ALL_DETAIL_ITEM
100
AcDbLine
 62
4
  6
CONTINUOUS
 10
742.1141988745
 20
121.7631441859
 11
745.1141988745
 21
124.7631441859
  0
LINE
  5
69D
100
AcDbEntity
  8
ALL_DETAIL_ITEM
100
AcDbLine
 62
4
  6
CONTINUOUS
 10
752.8036155642
 20
132.4525608756
 11
755.8035179523
 21
135.4524632637
  0
LINE
  5
69E
100
AcDbEntity
  8
ALL_DETAIL_ITEM
100
AcDbLine
 62
4
  6
CONTINUOUS
 10
742.1141988745
 20
128.8342119978
 11
745.1141988745
 21
131.8342119978
  0
LINE
  5
69F
100
AcDbEntity
  8
ALL_DETAIL_ITEM
100
AcDbLine
 62
4
  6
CONTINUOUS
 10
745.7327778368
 20
132.4527909601
 11
748.7326802249
 21
135.4526933482
  0
LINE
  5
6A0
100
AcDbEntity
  8
ALL_DETAIL_ITEM
100
AcDbLine
 62
4
  6
CONTINUOUS
 10
711.5216290751
 20
105.3127100103
 11
713.7100171164
 21
107.5010980515
  0
LINE
  5
6A1
100
AcDbEntity
  8
ALL_DETAIL_ITEM
100
AcDbLine
 62
4
  6
CONTINUOUS
 10
715.2975201832
 20
109.0886011183
 11
723.9322739281
 21
117.7233548632
  0
LINE
  5
6A2
100
AcDbEntity
  8
ALL_DETAIL_ITEM
100
AcDbLine
 62
4
  6
CONTINUOUS
 10
708.8821392658
 20
109.7442880128
 11
711.070527307
 21
111.932676054
  0
LINE
  5
6A3
100
AcDbEntity
  8
ALL_DETAIL_ITEM
100
AcDbLine
 62
4
  6
CONTINUOUS
 10
725.712192576
 20
126.574341323
 11
733.6532720217
 21
134.5154207687
  0
LINE
  5
6A4
100
AcDbEntity
  8
ALL_DETAIL_ITEM
100
AcDbLine
 62
4
  6
CONTINUOUS
 10
695.1040582572
 20
103.0372748161
 11
697.7654002596
 21
105.6986168184
  0
LINE
  5
6A5
100
AcDbEntity
  8
ALL_DETAIL_ITEM
100
AcDbLine
 62
4
  6
CONTINUOUS
 10
706.2426494566
 20
114.1758660154
 11
708.4310374977
 21
116.3642540565
  0
LINE
  5
6A6
100
AcDbEntity
  8
ALL_DETAIL_ITEM
100
AcDbLine
 62
4
  6
CONTINUOUS
 10
688.0329904453
 20
103.0372748161
 11
691.0329904485
 21
106.0372748192
  0
LINE
  5
6A7
100
AcDbEntity
  8
ALL_DETAIL_ITEM
100
AcDbLine
 62
4
  6
CONTINUOUS
 10
703.6031596473
 20
118.607444018
 11
705.7915476883
 21
120.795832059
  0
LINE
  5
6A8
100
AcDbEntity
  8
ALL_DETAIL_ITEM
100
AcDbLine
 62
4
  6
CONTINUOUS
 10
680.9619226335
 20
103.0372748161
 11
683.9619226369
 21
106.0372748194
  0
LINE
  5
6A9
100
AcDbEntity
  8
ALL_DETAIL_ITEM
100
AcDbLine
 62
4
  6
CONTINUOUS
 10
700.963669838
 20
123.0390220206
 11
703.152057879
 21
125.2274100616
  0
LINE
  5
6AA
100
AcDbEntity
  8
ALL_DETAIL_ITEM
100
AcDbLine
 62
4
  6
CONTINUOUS
 10
673.8908548216
 20
103.0372748161
 11
676.8908548252
 21
106.0372748197
  0
LINE
  5
6AB
100
AcDbEntity
  8
ALL_DETAIL_ITEM
100
AcDbLine
 62
4
  6
CONTINUOUS
 10
698.3241800287
 20
127.4706000231
 11
700.5125680696
 21
129.6589880641
  0
LINE
  5
6AC
100
AcDbEntity
  8
ALL_DETAIL_ITEM
100
AcDbLine
 62
4
  6
CONTINUOUS
 10
668.4383857818
 20
104.6558735881
 11
671.4383857848
 21
107.6558735911
  0
LINE
  5
6AD
100
AcDbEntity
  8
ALL_DETAIL_ITEM
100
AcDbLine
 62
4
  6
CONTINUOUS
 10
695.6846902194
 20
131.9021780257
 11
697.8730782603
 21
134.0905660666
  0
LINE
  5
6AE
100
AcDbEntity
  8
ALL_DETAIL_ITEM
100
AcDbLine
 62
4
  6
CONTINUOUS
 10
668.4383857818
 20
111.7269414
 11
671.4383857848
 21
114.726941403
  0
LINE
  5
6AF
100
AcDbEntity
  8
ALL_DETAIL_ITEM
100
AcDbLine
 62
4
  6
CONTINUOUS
 10
654.9992967216
 20
105.3589201516
 11
657.1892040814
 21
107.5488275115
  0
LINE
  5
6B0
100
AcDbEntity
  8
ALL_DETAIL_ITEM
100
AcDbLine
 62
4
  6
CONTINUOUS
 10
668.4383857818
 20
118.7980092118
 11
671.4383857848
 21
121.7980092148
  0
LINE
  5
6B1
100
AcDbEntity
  8
ALL_DETAIL_ITEM
100
AcDbLine
 62
4
  6
CONTINUOUS
 10
652.3700590558
 20
109.8007502977
 11
654.5599664157
 21
111.9906576576
  0
LINE
  5
6B2
100
AcDbEntity
  8
ALL_DETAIL_ITEM
100
AcDbLine
 62
4
  6
CONTINUOUS
 10
668.4383857818
 20
125.8690770237
 11
671.4383857848
 21
128.8690770267
  0
LINE
  5
6B3
100
AcDbEntity
  8
ALL_DETAIL_ITEM
100
AcDbLine
 62
4
  6
CONTINUOUS
 10
649.74082139
 20
114.2425804438
 11
651.93072875
 21
116.4324878038
  0
LINE
  5
6B4
100
AcDbEntity
  8
ALL_DETAIL_ITEM
100
AcDbLine
 62
4
  6
CONTINUOUS
 10
668.4383857818
 20
132.9401448356
 11
670.970119211
 21
135.4718782648
  0
LINE
  5
6B5
100
AcDbEntity
  8
ALL_DETAIL_ITEM
100
AcDbLine
 62
4
  6
CONTINUOUS
 10
647.1115837242
 20
118.6844105898
 11
649.3014910843
 21
120.87431795
  0
LINE
  5
6B6
100
AcDbEntity
  8
ALL_DETAIL_ITEM
100
AcDbLine
 62
4
  6
CONTINUOUS
 10
644.4823460584
 20
123.1262407359
 11
646.6722534187
 21
125.3161480962
  0
LINE
  5
6B7
100
AcDbEntity
  8
ALL_DETAIL_ITEM
100
AcDbLine
 62
4
  6
CONTINUOUS
 10
621.2188084075
 20
106.9337708969
 11
629.7618116537
 21
115.476774143
  0
LINE
  5
6B8
100
AcDbEntity
  8
ALL_DETAIL_ITEM
100
AcDbLine
 62
4
  6
CONTINUOUS
 10
641.8531083926
 20
127.568070882
 11
644.043015753
 21
129.7579782423
  0
LINE
  5
6B9
100
AcDbEntity
  8
ALL_DETAIL_ITEM
100
AcDbLine
 62
4
  6
CONTINUOUS
 10
631.4756742117
 20
124.261704513
 11
641.4137780873
 21
134.1998083885
  0
ENDBLK
  5
6BA
100
AcDbEntity
  8
0
  6
BYBLOCK
 62
0
100
AcDbBlockEnd
  0
BLOCK
  5
6BB
100
AcDbEntity
  8
0
100
AcDbBlockBegin
  2
_FILLED
 70
64
 10
0.0
 20
0.0
  3
_FILLED
  1

  0
SOLID
  5
6BC
100
AcDbEntity
  8
0
  6
BYBLOCK
 62
0
100
AcDbTrace
 10
0.0
 20
0.0
 11
-1.0
 21
0.2142857143
 12
-1.0
 22
-0.2142857143
 13
-1.0
 23
-0.2142857143
  0
ENDBLK
  5
6BD
100
AcDbEntity
  8
0
  6
BYBLOCK
 62
0
100
AcDbBlockEnd
  0
BLOCK
  5
6BE
100
AcDbEntity
  8
0
100
AcDbBlockBegin
  2
_DOTBLANK
 70
64
 10
0.0
 20
0.0
  3
_DOTBLANK
  1

  0
CIRCLE
  5
6BF
100
AcDbEntity
  8
0
  6
BYBLOCK
 62
0
100
AcDbCircle
 10
0.0
 20
0.0
 40
0.2142857143
  0
LINE
  5
6C0
100
AcDbEntity
  8
0
  6
BYBLOCK
 62
0
100
AcDbLine
 10
-1.0
 20
0.0
 11
0.0
 21
0.0
  0
ENDBLK
  5
6C1
100
AcDbEntity
  8
0
  6
BYBLOCK
 62
0
100
AcDbBlockEnd
  0
BLOCK
  5
6C2
100
AcDbEntity
  8
ALL_DIM
100
AcDbBlockBegin
 62
2
  6
CONTINUOUS
  2
*D0
 70
65
 10
0.0
 20
0.0
  3
*D0
  1

  0
MTEXT
  5
6C3
100
AcDbEntity
  8
ALL_DIM
100
AcDbMText
 62
5
  6
CONTINUOUS
  7
STANDARD
 71
2
 72
1
 10
437.6713833947
 20
1225.0686891776
 30
0.0
 11
0.7072759691
 21
-0.7069375528
 31
0.0
 44
0.9
  1
R81
 40
17.5
 41
56.25
  0
LINE
  5
6C4
100
AcDbEntity
  8
ALL_DIM
100
AcDbLine
 62
2
  6
CONTINUOUS
 10
381.9429336833
 20
1249.8419525549
 11
435.4685488463
 21
1196.341948239
  0
INSERT
  5
6C5
100
AcDbEntity
  8
ALL_DIM
100
AcDbBlockReference
 62
2
  6
CONTINUOUS
  2
_FILLED
 10
381.9429336833
 20
1249.8419525549
 41
17.5
 42
17.5
 43
17.5
 50
135.0137106744
  0
ENDBLK
  5
6C6
100
AcDbEntity
  8
0
  6
BYBLOCK
 62
0
100
AcDbBlockEnd
  0
BLOCK
  5
6C7
100
AcDbEntity
  8
ALL_DIM
100
AcDbBlockBegin
 62
2
  6
CONTINUOUS
  2
*D1
 70
65
 10
0.0
 20
0.0
  3
*D1
  1

  0
MTEXT
  5
6C8
100
AcDbEntity
  8
ALL_DIM
100
AcDbMText
 62
5
  6
CONTINUOUS
  7
STANDARD
 71
2
 72
1
 10
286.3572871767
 20
1072.5800107759
 30
0.0
 11
0.0
 21
1.0
 31
0.0
 44
0.9
  1
402
 40
17.5
 41
61.875
  0
LINE
  5
6C9
100
AcDbEntity
  8
ALL_DIM
100
AcDbLine
 62
2
  6
CONTINUOUS
 10
619.2322871767
 20
1273.5800107759
 11
303.2322871767
 21
1273.5800107759
  0
LINE
  5
6CA
100
AcDbEntity
  8
ALL_DIM
100
AcDbLine
 62
2
  6
CONTINUOUS
 10
619.2322871767
 20
871.5800107759
 11
303.2322871767
 21
871.5800107759
  0
LINE
  5
6CB
100
AcDbEntity
  8
ALL_DIM
100
AcDbLine
 62
2
  6
CONTINUOUS
 10
308.2322871767
 20
1273.5800107759
 11
308.2322871767
 21
1072.5800107759
  0
LINE
  5
6CC
100
AcDbEntity
  8
ALL_DIM
100
AcDbLine
 62
2
  6
CONTINUOUS
 10
308.2322871767
 20
871.5800107759
 11
308.2322871767
 21
1072.5800107759
  0
INSERT
  5
6CD
100
AcDbEntity
  8
ALL_DIM
100
AcDbBlockReference
 62
2
  6
CONTINUOUS
  2
_FILLED
 10
308.2322871767
 20
1273.5800107759
 41
17.5
 42
17.5
 43
17.5
 50
90.0
  0
INSERT
  5
6CE
100
AcDbEntity
  8
ALL_DIM
100
AcDbBlockReference
 62
2
  6
CONTINUOUS
  2
_FILLED
 10
308.2322871767
 20
871.5800107759
 41
17.5
 42
17.5
 43
17.5
 50
270.0
  0
ENDBLK
  5
6CF
100
AcDbEntity
  8
0
  6
BYBLOCK
 62
0
100
AcDbBlockEnd
  0
BLOCK
  5
6D0
100
AcDbEntity
  8
ALL_DIM
100
AcDbBlockBegin
 62
2
  6
CONTINUOUS
  2
*D2
 70
65
 10
0.0
 20
0.0
  3
*D2
  1

  0
MTEXT
  5
6D1
100
AcDbEntity
  8
ALL_DIM
100
AcDbMText
 62
5
  6
CONTINUOUS
  7
STANDARD
 71
2
 72
1
 10
529.2322871767
 20
843.4550107759
 30
0.0
 11
1.0
 21
0.0
 31
0.0
 44
0.9
  1
342
 40
17.5
 41
60.0
  0
LINE
  5
6D2
100
AcDbEntity
  8
ALL_DIM
100
AcDbLine
 62
2
  6
CONTINUOUS
 10
358.2322871767
 20
952.5800107759
 11
358.2322871767
 21
816.5800107759
  0
LINE
  5
6D3
100
AcDbEntity
  8
ALL_DIM
100
AcDbLine
 62
2
  6
CONTINUOUS
 10
700.2322871767
 20
952.5800107759
 11
700.2322871767
 21
816.5800107759
  0
LINE
  5
6D4
100
AcDbEntity
  8
ALL_DIM
100
AcDbLine
 62
2
  6
CONTINUOUS
 10
358.2322871767
 20
821.5800107759
 11
529.2322871767
 21
821.5800107759
  0
LINE
  5
6D5
100
AcDbEntity
  8
ALL_DIM
100
AcDbLine
 62
2
  6
CONTINUOUS
 10
700.2322871767
 20
821.5800107759
 11
529.2322871767
 21
821.5800107759
  0
INSERT
  5
6D6
100
AcDbEntity
  8
ALL_DIM
100
AcDbBlockReference
 62
2
  6
CONTINUOUS
  2
_FILLED
 10
358.2322871767
 20
821.5800107759
 41
17.5
 42
17.5
 43
17.5
 50
180.0
  0
INSERT
  5
6D7
100
AcDbEntity
  8
ALL_DIM
100
AcDbBlockReference
 62
2
  6
CONTINUOUS
  2
_FILLED
 10
700.2322871767
 20
821.5800107759
 41
17.5
 42
17.5
 43
17.5
  0
ENDBLK
  5
6D8
100
AcDbEntity
  8
0
  6
BYBLOCK
 62
0
100
AcDbBlockEnd
  0
ENDSEC
  0
SECTION
  2
ENTITIES
  0
DIMENSION
  5
6D9
100
AcDbEntity
  8
ALL_DIM
100
AcDbDimension
 62
2
  6
CONTINUOUS
  2
*D0
 10
439.2322871767
 20
1192.5800107759
 11
431.4856798074
 21
1218.8800244484
 70
164
 71
2
 42
81.0
  1
R<>
  3
DIMSTYLE_1
100
AcDbRadialDimension
 15
381.9429336833
 25
1249.8419525549
  0
DIMENSION
  5
6DA
100
AcDbEntity
  8
ALL_DIM
100
AcDbDimension
 62
2
  6
CONTINUOUS
  2
*D1
 10
308.2322871767
 20
871.5800107759
 11
308.2322871767
 21
1070.0800209624
 70
160
 71
2
 42
402.0
  3
DIMSTYLE_2
100
AcDbAlignedDimension
 13
619.2322871767
 23
1273.5800107759
 14
619.2322871767
 24
871.5800107759
 50
270.0
100
AcDbRotatedDimension
  0
DIMENSION
  5
6DB
100
AcDbEntity
  8
ALL_DIM
100
AcDbDimension
 62
2
  6
CONTINUOUS
  2
*D2
 10
700.2322871767
 20
821.5800107759
 11
526.7322851563
 21
821.5800107759
 70
160
 71
2
 42
342.0
  3
DIMSTYLE_3
100
AcDbAlignedDimension
 13
358.2322871767
 23
952.5800107759
 14
700.2322871767
 24
952.5800107759
100
AcDbRotatedDimension
  0
INSERT
  5
6DC
100
AcDbEntity
  8
ALL_DETAIL_ITEM
100
AcDbBlockReference
 62
2
  6
CONTINUOUS
  2
B2B_NASLOV_RISBE_BL0
 10
714.4524375378
 20
181.2968548075
  0
INSERT
  5
6DD
100
AcDbEntity
  8
ALL_DETAIL_ITEM
100
AcDbBlockReference
 62
2
  6
CONTINUOUS
  2
U_LUNO_B2B_BL1
 10
341.299695022
 20
464.1336031503
  0
LEADER
  5
6DE
100
AcDbEntity
  8
ALL_DETAIL_ITEM
100
AcDbLeader
 62
2
  6
CONTINUOUS
  3
STANDARD
 71
1
 72
0
 73
2
 75
0
 76
2
 10
699.3733290899
 20
1120.3195412989
 30
0.0
 10
734.9321133289
 20
1157.9137164096
 30
0.0
340
6DF
212
-15.9916743435
222
-16.9070405091
232
0.0
1001
ACAD
1000
DSTYLE
1002
{
1070
77
1070
0
1070
341
1005
219
1002
}
  0
INSERT
  5
6DF
102
{ACAD_REACTORS
330
6DE
102
}
100
AcDbEntity
  8
ALL_DETAIL_ITEM
100
AcDbBlockReference
 62
2
  6
CONTINUOUS
  2
POZ_FS_B2B_BL2
 10
750.9237876724
 20
1174.8207569187
  0
LINE
  5
6E0
100
AcDbEntity
  8
0
100
AcDbLine
 62
7
  6
CONTINUOUS
 10
0.0
 20
0.0
 11
1050.0
 21
0.0
  0
LINE
  5
6E1
100
AcDbEntity
  8
0
100
AcDbLine
 62
7
  6
CONTINUOUS
 10
0.0
 20
0.0
 11
0.0
 21
1485.0
  0
LINE
  5
6E2
100
AcDbEntity
  8
0
100
AcDbLine
 62
7
  6
CONTINUOUS
 10
1050.0
 20
0.0
 11
1050.0
 21
1485.0
  0
LINE
  5
6E3
100
AcDbEntity
  8
0
100
AcDbLine
 62
7
  6
CONTINUOUS
 10
0.0
 20
1485.0
 11
1050.0
 21
1485.0
  0
LINE
  5
6E4
100
AcDbEntity
  8
03___PRT_ALL_CURVES
100
AcDbLine
 62
7
  6
CONTINUOUS
 10
439.2322871767
 20
871.5800107759
 11
619.2322871767
 21
871.5800107759
  0
LINE
  5
6E5
100
AcDbEntity
  8
03___PRT_ALL_CURVES
100
AcDbLine
 62
7
  6
CONTINUOUS
 10
358.2322871767
 20
952.5800107759
 11
358.2322871767
 21
1192.5800107759
  0
LINE
  5
6E6
100
AcDbEntity
  8
03___PRT_ALL_CURVES
100
AcDbLine
 62
7
  6
CONTINUOUS
 10
700.2322871767
 20
952.5800107759
 11
700.2322871767
 21
1192.5800107759
  0
LINE
  5
6E7
100
AcDbEntity
  8
03___PRT_ALL_CURVES
100
AcDbLine
 62
7
  6
CONTINUOUS
 10
439.2322871767
 20
1273.5800107759
 11
619.2322871767
 21
1273.5800107759
  0
ARC
  5
6E8
100
AcDbEntity
  8
03___PRT_ALL_CURVES
100
AcDbCircle
 62
7
  6
CONTINUOUS
 10
439.2322871767
 20
952.5800107759
 40
81.0
100
AcDbArc
 50
180.0
 51
270.0
  0
ARC
  5
6E9
100
AcDbEntity
  8
03___PRT_ALL_CURVES
100
AcDbCircle
 62
7
  6
CONTINUOUS
 10
619.2322871767
 20
952.5800107759
 40
81.0
100
AcDbArc
 50
270.0
 51
360.0
  0
ARC
  5
6EA
100
AcDbEntity
  8
03___PRT_ALL_CURVES
100
AcDbCircle
 62
7
  6
CONTINUOUS
 10
619.2322871767
 20
1192.5800107759
 40
81.0
100
AcDbArc
 50
0.0
 51
90.0
  0
ARC
  5
6EB
100
AcDbEntity
  8
03___PRT_ALL_CURVES
100
AcDbCircle
 62
7
  6
CONTINUOUS
 10
439.2322871767
 20
1192.5800107759
 40
81.0
100
AcDbArc
 50
90.0
 51
180.0
  0
ENDSEC
  0
SECTION
  2
OBJECTS
  0
DICTIONARY
  5
C
100
AcDbDictionary
280
0
281
1
  3
ACAD_GROUP
350
D
  3
ACAD_MLINESTYLE
350
17
  3
ACAD_LAYOUT
350
1A
  3
ACAD_PLOTSETTINGS
350
19
  3
ACAD_PLOTSTYLENAME
350
E
  0
DICTIONARY
  5
D
102
{ACAD_REACTORS
330
C
102
}
100
AcDbDictionary
280
0
281
1
  0
ACDBDICTIONARYWDFLT
  5
E
102
{ACAD_REACTORS
330
C
102
}
100
AcDbDictionary
281
1
  3
Normal
350
F
100
AcDbDictionaryWithDefault
340
F
  0
DICTIONARY
  5
17
102
{ACAD_REACTORS
330
C
102
}
100
AcDbDictionary
280
0
281
1
  3
Standard
350
18
  0
DICTIONARY
  5
19
102
{ACAD_REACTORS
330
C
102
}
100
AcDbDictionary
281
1
  0
DICTIONARY
  5
1A
102
{ACAD_REACTORS
330
C
102
}
100
AcDbDictionary
281
1
  3
Model
350
6EC
  3
Layout1
350
6ED
  0
ACDBPLACEHOLDER
  5
F
102
{ACAD_REACTORS
330
E
102
}
  0
MLINESTYLE
  5
18
102
{ACAD_REACTORS
330
17
102
}
100
AcDbMlineStyle
  2
STANDARD
 70
0
  3

 62
256
 51
90.0
 52
90.0
 71
2
 49
0.5
 62
256
  6
BYLAYER
 49
-0.5
 62
256
  6
BYLAYER
  0
LAYOUT
  5
6EC
102
{ACAD_REACTORS
330
1A
102
}
100
AcDbPlotSettings
  1

  2
none_device
  4

  6

 40
0.0
 41
0.0
 42
0.0
 43
0.0
 44
210.0
 45
297.0
 46
0.0
 47
0.0
 48
0.0
 49
0.0
140
0.0
141
0.0
142
1.0
143
1.0
 70
1024
 72
1
 73
0
 74
0
  7

 75
0
147
1.0
148
0.0
149
0.0
100
AcDbLayout
  1
Model
 70
0
 71
0
 10
0.0
 20
0.0
 11
210.0
 21
297.0
 12
0.0
 22
0.0
 32
0.0
 14
0.0
 24
0.0
 34
0.0
 15
0.0
 25
0.0
 35
0.0
146
0.0
 13
0.0
 23
0.0
 33
0.0
 16
1.0
 26
0.0
 36
0.0
 17
0.0
 27
1.0
 37
0.0
 76
0
330
216
345
0
346
0
  0
LAYOUT
  5
6ED
102
{ACAD_REACTORS
330
1A
102
}
100
AcDbPlotSettings
  1

  2
none_device
  4

  6

 40
0.0
 41
0.0
 42
0.0
 43
0.0
 44
210.0
 45
297.0
 46
0.0
 47
0.0
 48
0.0
 49
0.0
140
0.0
141
0.0
142
1.0
143
1.0
 70
0
 72
1
 73
0
 74
0
  7

 75
0
147
1.0
148
0.0
149
0.0
100
AcDbLayout
  1
Layout1
 70
0
 71
1
 10
0.0
 20
0.0
 11
210.0
 21
297.0
 12
0.0
 22
0.0
 32
0.0
 14
0.0
 24
0.0
 34
0.0
 15
0.0
 25
0.0
 35
0.0
146
0.0
 13
0.0
 23
0.0
 33
0.0
 16
1.0
 26
0.0
 36
0.0
 17
0.0
 27
1.0
 37
0.0
 76
0
330
217
345
0
346
0
  0
ENDSEC
  0
EOF
